osu file format v14

[General]
AudioFilename: abdca123.mp3
AudioLeadIn: 0
PreviewTime: 105103
Countdown: 0
SampleSet: None
StackLeniency: 0.5
Mode: 0
LetterboxInBreaks: 0
WidescreenStoryboard: 0

[Editor]
Bookmarks: 27959,38931,49902,53674,60874,66359,71845,82817,94131,117102,122588,128074,132702,150017,160988,162359,173331,178817,184302,195274
DistanceSpacing: 1.2
BeatDivisor: 4
GridSize: 4
TimelineZoom: 1.7

[Metadata]
Title:Memories
TitleUnicode:Memories
Artist:ONE OK ROCK
ArtistUnicode:ONE OK ROCK
Creator:Komore
Version:Collab Hard
Source:
Tags:35xxxv Alternative rock post-hardcore lasse fcl namki trynna
BeatmapID:1453718
BeatmapSetID:684590

[Difficulty]
HPDrainRate:5
CircleSize:4
OverallDifficulty:6.5
ApproachRate:7.5
SliderMultiplier:1.4
SliderTickRate:1

[Events]
//Background and Video events
0,0,"memory.jpg",0,0
//Break Periods
2,72045,81445
2,128274,132734
//Storyboard Layer 0 (Background)
//Storyboard Layer 1 (Fail)
//Storyboard Layer 2 (Pass)
//Storyboard Layer 3 (Foreground)
//Storyboard Sound Samples

[TimingPoints]
6017,342.857142857143,4,2,2,40,1,0
15617,-100,4,3,1,70,0,0
16302,-133.333333333333,4,3,1,70,0,0
16902,-133.333333333333,4,3,1,70,0,0
16988,-100,4,3,1,80,0,0
22131,-100,4,3,2,80,0,0
22302,-100,4,3,3,80,0,0
22388,-100,4,3,4,80,0,0
22474,-100,4,3,1,80,0,0
27617,-100,4,3,2,70,0,0
27788,-100,4,3,3,60,0,0
27959,-111.111111111111,4,3,1,60,0,0
30531,-111.111111111111,4,3,3,60,0,0
30874,-111.111111111111,4,3,1,60,0,0
32245,-111.111111111111,4,3,4,60,0,0
32417,-111.111111111111,4,3,2,60,0,0
32588,-111.111111111111,4,3,2,60,0,0
32759,-111.111111111111,4,3,3,60,0,0
33102,-111.111111111111,4,3,4,60,0,0
33274,-111.111111111111,4,3,4,60,0,0
33445,-111.111111111111,4,3,1,60,0,0
36017,-111.111111111111,4,3,3,60,0,0
36188,-111.111111111111,4,3,1,60,0,0
38845,-111.111111111111,4,3,1,5,0,0
38931,-100,4,3,1,60,0,0
48445,-100,4,3,1,60,0,0
48531,-100,4,3,1,60,0,0
48645,-100,4,3,1,5,0,0
48702,-100,4,3,1,5,0,0
48759,-100,4,3,1,60,0,0
48874,-100,4,3,1,5,0,0
48931,-100,4,3,1,5,0,0
48988,-100,4,3,1,60,0,0
49102,-100,4,3,1,5,0,0
49217,-133.333333333333,4,3,1,60,0,0
49817,-133.333333333333,4,3,1,5,0,0
49902,-100,4,3,1,95,0,0
52902,-100,4,3,1,5,0,0
52988,-100,4,3,1,95,0,0
58388,-100,4,3,1,5,0,0
58474,-100,4,3,1,95,0,0
60531,-100,4,3,2,95,0,0
60702,-100,4,3,3,95,0,0
60788,-100,4,3,4,95,0,0
60874,-100,4,3,1,95,0,0
65074,-100,4,3,1,5,0,0
65159,-100,4,3,1,95,0,0
71502,-100,4,2,2,95,0,0
71845,-100,4,3,1,80,0,0
76988,-100,4,3,2,80,0,0
77159,-100,4,3,3,80,0,0
77245,-100,4,3,4,80,0,0
77331,-100,4,3,1,80,0,0
82388,-100,4,3,1,5,0,0
82474,-100,4,2,2,60,0,0
82731,-100,4,2,2,5,0,0
82817,-111.111111111111,4,3,1,60,0,0
85388,-111.111111111111,4,3,3,60,0,0
85731,-111.111111111111,4,3,1,60,0,0
86931,-111.111111111111,4,3,4,60,0,0
87274,-111.111111111111,4,3,2,60,0,0
87445,-111.111111111111,4,3,3,60,0,0
87531,-111.111111111111,4,3,4,60,0,0
88302,-111.111111111111,4,3,1,60,0,0
90874,-111.111111111111,4,3,3,60,0,0
91045,-111.111111111111,4,3,1,60,0,0
93445,-111.111111111111,4,3,2,60,0,0
93788,-100,4,3,1,60,0,0
103302,-100,4,3,1,60,0,0
103388,-100,4,3,1,90,0,0
103502,-100,4,3,1,5,0,0
103559,-100,4,3,1,5,0,0
103617,-100,4,3,1,90,0,0
103731,-100,4,3,1,5,0,0
103788,-100,4,3,1,5,0,0
103845,-100,4,3,1,90,0,0
103959,-100,4,3,1,5,0,0
104074,-100,4,3,1,60,0,0
104417,-100,4,3,1,60,0,0
105102,-100,4,2,2,40,0,0
105788,-100,4,3,1,60,0,0
106131,-100,4,3,1,95,0,0
109131,-100,4,3,1,5,0,0
109217,-100,4,3,1,95,0,0
114617,-100,4,3,1,5,0,0
114702,-100,4,3,1,95,0,0
116759,-100,4,3,2,95,0,0
116931,-100,4,3,3,95,0,0
117017,-100,4,3,4,95,0,0
117102,-100,4,3,1,95,0,0
121302,-100,4,3,1,5,0,0
121388,-100,4,3,1,95,0,0
128074,-100,4,3,1,60,0,0
133388,-100,4,2,1,60,0,0
133559,-111.111111111111,4,2,1,50,0,0
139045,-111.111111111111,4,2,1,50,0,0
140674,-111.111111111111,4,2,1,50,0,0
140759,-111.111111111111,4,2,1,50,0,0
140931,-111.111111111111,4,2,1,10,0,0
141017,-111.111111111111,4,2,1,15,0,0
141102,-111.111111111111,4,2,1,20,0,0
141188,-111.111111111111,4,2,1,25,0,0
141274,-111.111111111111,4,2,1,30,0,0
141359,-111.111111111111,4,2,1,35,0,0
141445,-111.111111111111,4,2,1,40,0,0
141531,-111.111111111111,4,2,1,45,0,0
141617,-111.111111111111,4,2,1,50,0,0
141702,-111.111111111111,4,2,1,55,0,0
141788,-111.111111111111,4,2,1,50,0,0
142045,-111.111111111111,4,2,1,50,0,0
142131,-111.111111111111,4,2,1,50,0,0
143417,-111.111111111111,4,2,1,50,0,0
143502,-111.111111111111,4,2,1,50,0,0
143845,-111.111111111111,4,2,1,30,0,0
143931,-111.111111111111,4,2,1,35,0,0
144017,-111.111111111111,4,2,1,40,0,0
144102,-111.111111111111,4,2,1,45,0,0
144188,-111.111111111111,4,2,1,50,0,0
144788,-111.111111111111,4,2,1,50,0,0
144874,-111.111111111111,4,2,1,50,0,0
146159,-111.111111111111,4,2,1,50,0,0
146245,-111.111111111111,4,2,1,50,0,0
146417,-111.111111111111,4,2,1,10,0,0
146502,-111.111111111111,4,2,1,15,0,0
146588,-111.111111111111,4,2,1,20,0,0
146674,-111.111111111111,4,2,1,25,0,0
146759,-111.111111111111,4,2,1,30,0,0
146845,-111.111111111111,4,2,1,35,0,0
146931,-111.111111111111,4,2,1,40,0,0
147017,-111.111111111111,4,2,1,45,0,0
147102,-111.111111111111,4,2,1,50,0,0
147188,-111.111111111111,4,2,1,55,0,0
147274,-111.111111111111,4,2,1,50,0,0
147531,-111.111111111111,4,2,1,50,0,0
147617,-111.111111111111,4,2,1,50,0,0
148902,-111.111111111111,4,2,1,50,0,0
148988,-111.111111111111,4,2,1,50,0,0
149331,-111.111111111111,4,2,1,60,0,0
150017,-100,4,3,1,60,0,0
150274,-100,4,3,1,5,0,0
150359,-100,4,3,1,60,0,0
151645,-100,4,3,1,5,0,0
151731,-100,4,3,1,60,0,0
152331,-100,4,3,1,60,0,0
152417,-100,4,3,1,60,0,0
154388,-100,4,3,1,5,0,0
154474,-100,4,3,1,60,0,0
155759,-100,4,3,1,5,0,0
155845,-100,4,3,1,60,0,0
157131,-100,4,3,1,5,0,0
157217,-100,4,3,1,60,0,0
157817,-100,4,3,1,60,0,0
157902,-100,4,3,1,60,0,0
159874,-100,4,3,1,5,0,0
159959,-100,4,3,1,60,0,0
160474,-100,4,3,1,70,0,0
160645,-100,4,3,1,70,0,0
160988,-133.333333333333,4,2,2,40,0,0
161502,-133.333333333333,4,2,2,50,0,0
161674,-133.333333333333,4,2,2,60,0,0
161845,-133.333333333333,4,2,2,70,0,0
162017,-133.333333333333,4,2,2,80,0,0
162188,-133.333333333333,4,2,2,90,0,0
162359,-100,4,3,1,95,0,0
165359,-100,4,3,1,5,0,0
165445,-100,4,3,1,95,0,0
170845,-100,4,3,1,5,0,0
170931,-100,4,3,1,95,0,0
172645,-100,4,3,2,95,0,0
172988,-100,4,3,3,95,0,0
173331,-100,4,3,1,95,0,0
177531,-100,4,3,1,5,0,0
177617,-100,4,3,1,95,0,0
183617,-100,4,3,2,95,0,0
183788,-100,4,3,3,95,0,0
183959,-100,4,3,4,95,0,0
184302,-100,4,3,1,80,0,0
194931,-100,4,3,1,40,0,0
195274,-100,4,3,1,5,0,0

[Colours]
Combo1 : 205,221,237
Combo2 : 225,152,108
Combo3 : 237,217,148
Combo4 : 86,128,177
Combo5 : 248,92,92
Combo6 : 219,219,219

[HitObjects]
68,182,15617,6,0,L|59:131,2,46.6666666666667,8|2|2,0:0|0:0|0:0,0:0:0:0:
136,230,15959,2,0,L|125:293,2,46.6666666666667,8|2|2,0:0|0:0|0:0,0:0:0:0:
207,182,16302,54,0,B|314:161|274:233|382:211,1,183.750007009506,8|0,0:0|0:0,0:0:0:0:
414,191,16988,54,0,B|433:145|433:145|407:51,1,140,4|8,0:0|0:0,0:0:0:0:
341,19,17502,1,0,0:0:0:0:
275,61,17674,2,0,P|240:64|195:49,1,70,0|0,0:0|0:0,0:0:0:0:
135,24,18017,2,0,P|100:21|55:36,1,70,8|0,0:0|0:0,0:0:0:0:
13,85,18359,6,0,L|25:164,1,70,0|0,0:0|0:0,0:0:0:0:
83,202,18702,2,0,L|66:281,1,70,8|0,0:0|0:0,0:0:0:0:
20,331,19045,1,0,0:0:0:0:
92,379,19217,1,2,0:0:0:0:
92,379,19302,1,2,0:0:0:0:
92,379,19388,2,0,L|148:369,3,35,8|2|2|2,0:0|0:0|0:0|0:0,0:0:0:0:
156,348,19731,70,0,P|214:305|291:336,1,140,0|8,0:0|0:0,0:0:0:0:
339,363,20245,1,0,0:0:0:0:
401,317,20417,2,0,P|408:276|390:237,1,70,0|2,0:0|0:0,0:0:0:0:
349,191,20759,2,0,L|356:116,1,70,8|0,0:0|0:0,0:0:0:0:
306,61,21102,6,0,P|256:52|218:68,1,70,0|0,0:0|0:0,0:0:0:0:
172,97,21445,2,0,L|77:78,1,70,8|0,0:0|0:0,0:0:0:0:
41,36,21788,1,0,0:0:0:0:
8,112,21959,1,2,0:0:0:0:
8,112,22045,1,2,0:0:0:0:
8,112,22131,2,0,L|18:166,3,35,4|4|0|0,0:0|0:0|0:0|0:0,0:0:0:0:
37,177,22474,70,0,L|16:320,1,140,4|8,0:0|0:0,0:0:0:0:
74,367,22988,1,0,0:0:0:0:
144,336,23159,2,0,P|184:325|239:336,1,70,0|0,0:0|0:0,0:0:0:0:
283,369,23502,1,8,0:0:0:0:
283,369,23674,1,0,0:0:0:0:
343,321,23845,6,0,P|344:276|324:228,1,70,0|0,0:0|0:0,0:0:0:0:
291,190,24188,2,0,L|296:105,1,70,8|0,0:0|0:0,0:0:0:0:
357,74,24531,1,0,0:0:0:0:
296,26,24702,1,2,0:0:0:0:
296,26,24788,1,2,0:0:0:0:
296,26,24874,2,0,L|238:31,3,35,8|2|2|2,0:0|0:0|0:0|0:0,0:0:0:0:
233,55,25217,70,0,B|151:38|176:85|94:68,1,140,0|8,0:0|0:0,0:0:0:0:
30,35,25731,1,0,0:0:0:0:
10,109,25902,2,0,P|12:143|18:196,1,70,0|2,0:0|0:0,0:0:0:0:
65,238,26245,2,0,P|62:272|57:325,1,70,8|0,0:0|0:0,0:0:0:0:
120,354,26588,6,0,P|164:365|204:351,1,70,0|0,0:0|0:0,0:0:0:0:
246,310,26931,1,8,0:0:0:0:
246,310,27102,1,0,0:0:0:0:
310,352,27274,2,0,L|393:345,1,70,0|0,0:0|0:0,0:0:0:0:
449,378,27617,1,12,0:0:0:0:
449,378,27788,1,4,0:0:0:0:
505,328,27959,5,0,0:0:0:0:
421,201,28302,2,0,B|402:164|402:164|427:59,1,125.999996154785,8|0,0:0|0:0,0:0:0:0:
466,20,28817,2,0,P|435:6|397:10,1,62.9999980773926,8|0,0:0|0:0,0:0:0:0:
343,48,29159,2,0,L|272:51,1,62.9999980773926,8|0,0:0|0:0,0:0:0:0:
209,79,29502,2,0,P|204:48|212:15,1,62.9999980773926,0|8,0:0|0:0,0:0:0:0:
280,50,29845,2,0,P|287:79|278:114,1,62.9999980773926,0|0,0:0|0:0,0:0:0:0:
223,162,30188,2,0,L|142:152,1,62.9999980773926,0|8,0:0|0:0,0:0:0:0:
103,203,30531,1,2,0:2:0:0:
36,167,30702,6,0,P|24:134|52:52,1,125.999996154785,2|8,0:2|0:0,0:0:0:0:
115,8,31217,1,0,0:0:0:0:
171,59,31388,2,0,P|217:64|245:53,1,62.9999980773926,0|8,0:0|0:0,0:0:0:0:
297,20,31731,2,0,L|384:34,1,62.9999980773926,0|8,0:0|0:0,0:0:0:0:
423,70,32074,1,0,0:0:0:0:
378,130,32245,1,4,0:0:0:0:
378,130,32331,1,4,0:0:0:0:
378,130,32417,2,0,L|385:177,4,31.4999990386963,12|6|6|6|4,0:0|0:0|0:0|0:0|0:0,0:0:0:0:
311,92,32931,1,6,0:0:0:0:
311,92,33017,1,6,0:0:0:0:
311,92,33102,2,0,L|243:87,1,62.9999980773926,12|4,0:0|0:0,0:0:0:0:
183,48,33445,69,0,0:0:0:0:
62,139,33788,2,0,B|50:186|50:186|60:216|60:216|49:260,1,125.999996154785,8|0,0:0|0:0,0:0:0:0:
15,328,34302,2,0,P|42:336|85:325,1,62.9999980773926,8|0,0:0|0:0,0:0:0:0:
135,283,34645,2,0,P|161:275|204:286,1,62.9999980773926,8|0,0:0|0:0,0:0:0:0:
250,333,34988,2,0,L|317:321,1,62.9999980773926,0|8,0:0|0:0,0:0:0:0:
378,285,35331,2,0,L|452:301,1,62.9999980773926,0|0,0:0|0:0,0:0:0:0:
498,346,35674,2,0,P|512:314|503:262,1,62.9999980773926,0|8,0:0|0:0,0:0:0:0:
461,230,36017,1,2,0:2:0:0:
508,171,36188,6,0,P|439:192|380:145,1,125.999996154785,4|8,0:2|0:0,0:0:0:0:
333,123,36702,1,0,0:0:0:0:
282,180,36874,2,0,L|292:257,1,62.9999980773926,0|8,0:0|0:0,0:0:0:0:
229,288,37217,2,0,P|197:275|161:273,1,62.9999980773926,2|8,0:0|0:0,0:0:0:0:
110,320,37559,1,0,0:0:0:0:
110,320,37731,1,0,0:0:0:0:
60,263,37902,2,0,L|69:186,1,62.9999980773926,12|0,0:2|0:0,0:0:0:0:
99,131,38245,2,0,L|94:86,4,31.4999990386963,2|2|2|2|8,0:0|0:0|0:0|0:0|0:0,0:0:0:0:
237,229,38931,22,0,P|306:221|376:215,1,140,4|8,0:0|0:0,0:0:0:0:
441,256,39445,1,0,0:0:0:0:
495,201,39617,2,0,P|497:167|477:124,1,70,0|8,0:0|0:0,0:0:0:0:
421,89,39959,2,0,P|361:101|340:102,1,70,0|8,0:0|0:0,0:0:0:0:
289,56,40302,54,0,P|239:29|165:66,1,140,0|8,0:0|0:0,0:0:0:0:
122,124,40817,1,0,0:0:0:0:
50,95,40988,2,0,P|38:57|41:24,1,70,0|0,0:0|0:0,0:0:0:0:
122,124,41331,2,0,L|111:202,1,70,8|0,0:0|0:0,0:0:0:0:
47,235,41674,22,0,P|32:273|46:325,1,70,0|0,0:0|0:0,0:0:0:0:
87,357,42017,2,0,P|148:347|171:348,1,70,8|0,0:0|0:0,0:0:0:0:
226,315,42359,2,0,B|305:330,1,70,0|8,0:0|0:0,0:0:0:0:
365,358,42702,2,0,B|433:344,1,70,0|8,0:0|0:0,0:0:0:0:
492,295,43045,53,0,0:0:0:0:
439,238,43217,1,0,0:0:0:0:
439,238,43302,1,0,0:0:0:0:
439,238,43388,2,0,L|445:186,4,35,8|2|2|0|0,0:0|0:0|0:0|0:0|0:0,0:0:0:0:
372,277,43902,1,0,0:0:0:0:
372,277,43988,1,0,0:0:0:0:
372,277,44074,2,0,P|321:261|294:267,1,70,8|0,0:0|0:0,0:0:0:0:
238,300,44417,21,0,0:0:0:0:
177,252,44588,2,0,P|176:213|185:177,1,70,0|8,0:0|0:0,0:0:0:0:
245,137,44931,1,0,0:0:0:0:
182,92,45102,2,0,L|103:110,1,70,0|8,0:0|0:0,0:0:0:0:
241,43,45445,2,0,L|312:52,1,70,0|8,0:0|0:0,0:0:0:0:
364,107,45788,54,0,B|385:211|385:211|338:252,1,140,0|8,0:0|0:0,0:0:0:0:
293,273,46302,1,0,0:0:0:0:
226,234,46474,2,0,L|240:157,1,70,0|0,0:0|0:0,0:0:0:0:
153,273,46817,2,0,L|165:341,1,70,12|0,0:2|0:0,0:0:0:0:
96,376,47159,22,0,P|51:374|22:347,1,70,0|0,0:0|0:0,0:0:0:0:
6,287,47502,2,0,L|27:209,1,70,8|0,0:0|0:0,0:0:0:0:
88,176,47845,2,0,P|89:134|64:86,1,70,0|0,0:0|0:0,0:0:0:0:
16,64,48188,1,8,0:0:0:0:
167,92,48531,70,0,L|277:72,2,93.3333333333333,8|8|8,0:0|0:0|0:0,0:0:0:0:
88,158,49217,54,0,P|70:212|160:187,1,183.750007009506,8|0,0:0|0:0,0:0:0:0:
189,178,49902,54,0,B|271:162|246:209|328:192,1,140,4|8,0:0|0:0,0:0:0:0:
395,160,50417,2,0,P|414:191|398:288,1,140,0|0,0:0|0:0,0:0:0:0:
333,331,50931,2,0,P|266:317|237:318,1,70,8|0,0:0|0:0,0:0:0:0:
206,367,51274,6,0,B|181:328|181:328|203:213,1,140,0|8,0:0|0:0,0:0:0:0:
246,175,51788,2,0,P|178:198|119:149,1,140,0|0,0:0|0:0,0:0:0:0:
51,182,52302,2,0,P|37:217|50:279,1,70,8|0,0:0|0:0,0:0:0:0:
126,329,52645,2,0,B|183:317|183:317|211:336|211:336|279:326,1,140,0|8,0:0|0:0,0:0:0:0:
403,276,53331,70,0,L|416:198,1,70,0|0,0:0|0:0,0:0:0:0:
338,192,53674,2,0,L|325:270,1,70,8|0,0:0|0:0,0:0:0:0:
257,295,54017,2,0,P|207:307|176:294,1,70,0|0,0:0|0:0,0:0:0:0:
127,257,54359,2,0,P|80:244|39:258,1,70,8|0,0:0|0:0,0:0:0:0:
4,301,54702,1,12,0:0:0:0:
66,363,54874,1,2,0:0:0:0:
66,363,54959,1,2,0:0:0:0:
66,363,55045,2,0,L|115:355,3,35,8|2|2|2,0:0|0:0|0:0|0:0,0:0:0:0:
135,340,55388,6,0,P|189:315|263:384,1,140,4|8,0:0|0:0,0:0:0:0:
325,381,55902,2,0,B|351:333|351:333|330:228,1,140,0|0,0:0|0:0,0:0:0:0:
282,191,56417,2,0,L|297:95,1,70,8|0,0:0|0:0,0:0:0:0:
232,74,56759,70,0,B|167:47|167:47|95:105,1,140,0|8,0:0|0:0,0:0:0:0:
54,141,57274,2,0,P|61:198|72:306,1,140,0|0,0:0|0:0,0:0:0:0:
38,350,57788,2,0,P|75:357|129:329,1,70,8|0,0:0|0:0,0:0:0:0:
201,277,58131,2,0,B|282:260|257:307|339:290,1,140,0|8,0:0|0:0,0:0:0:0:
456,193,58817,6,0,L|383:182,1,70,0|0,0:0|0:0,0:0:0:0:
342,119,59159,2,0,P|305:105|271:113,1,70,8|0,0:0|0:0,0:0:0:0:
211,153,59502,1,4,0:0:0:0:
161,93,59674,2,0,L|155:44,2,35,2|2|8,0:0|0:0|0:0,0:0:0:0:
105,147,60017,2,0,L|109:194,2,35,2|2|8,0:0|0:0|0:0,0:0:0:0:
44,100,60359,1,2,0:0:0:0:
44,100,60445,1,2,0:0:0:0:
44,100,60531,2,0,L|38:51,3,35,0|0|0|0,0:0|0:0|0:0|0:0,0:0:0:0:
67,38,60874,69,4,0:0:0:0:
130,81,61045,2,0,P|180:82|214:63,1,70,0|8,0:0|0:0,0:0:0:0:
249,17,61388,1,0,0:0:0:0:
309,64,61559,2,0,P|322:97|315:139,1,70,0|0,0:0|0:0,0:0:0:0:
259,180,61902,1,8,0:0:0:0:
320,226,62074,2,0,L|398:216,2,70,0|0|0,0:0|0:0|0:0,0:0:0:0:
259,274,62588,1,8,0:0:0:0:
140,176,62931,2,0,P|133:131|152:93,1,70,0|0,0:0|0:0,0:0:0:0:
209,74,63274,2,0,P|216:119|197:157,1,70,8|0,0:0|0:0,0:0:0:0:
255,202,63617,5,0,0:0:0:0:
321,164,63788,2,0,P|377:154|405:167,1,70,0|8,0:0|0:0,0:0:0:0:
450,202,64131,1,0,0:0:0:0:
409,267,64302,2,0,L|333:263,1,70,0|0,0:0|0:0,0:0:0:0:
283,316,64645,1,8,0:0:0:0:
224,264,64817,2,0,L|154:267,1,70,0|0,0:0|0:0,0:0:0:0:
88,307,65159,1,0,0:0:0:0:
37,248,65331,2,0,P|26:205|36:164,1,70,8|0,0:0|0:0,0:0:0:0:
82,123,65674,1,4,0:0:0:0:
158,166,65845,1,2,0:0:0:0:
158,166,65931,1,2,0:0:0:0:
158,166,66017,2,0,L|221:156,3,35,8|2|2|2,0:0|0:0|0:0|0:0,0:0:0:0:
226,143,66359,70,0,B|327:164|327:164|361:139,1,140,4|8,0:0|0:0,0:0:0:0:
402,79,66874,2,0,L|422:229,1,140,0|0,0:0|0:0,0:0:0:0:
485,260,67388,2,0,L|473:340,1,70,8|0,0:0|0:0,0:0:0:0:
405,364,67731,6,0,P|336:376|284:313,1,140,0|8,0:0|0:0,0:0:0:0:
247,265,68245,2,0,P|179:247|124:321,1,140,0|0,0:0|0:0,0:0:0:0:
81,348,68759,2,0,L|-4:339,1,70,8|0,0:0|0:0,0:0:0:0:
64,233,69102,2,0,B|85:177|85:177|59:83,1,140,0|8,0:0|0:0,0:0:0:0:
63,99,69788,1,0,0:0:0:0:
206,155,70131,70,0,L|278:149,1,70,8|0,0:0|0:0,0:0:0:0:
335,100,70474,2,0,L|411:113,1,70,0|2,0:0|0:0,0:0:0:0:
465,158,70817,2,0,L|460:216,3,35,8|2|2|2,0:0|0:0|0:0|0:0,0:0:0:0:
482,229,71159,1,8,0:0:0:0:
482,229,71845,5,4,0:0:0:0:
116,220,82817,6,0,B|189:215|176:248|256:240,1,125.999996154785,0|8,0:0|0:0,0:0:0:0:
311,220,83331,1,0,0:0:0:0:
365,167,83502,2,0,L|359:87,1,62.9999980773926,0|8,0:0|0:0,0:0:0:0:
311,220,83845,2,0,L|315:282,1,62.9999980773926,0|8,0:0|0:0,0:0:0:0:
364,340,84188,2,0,P|401:336|433:316,2,62.9999980773926,0|0|8,0:0|0:0|0:0,0:0:0:0:
294,369,84702,2,0,L|162:359,1,125.999996154785,0|0,0:0|0:0,0:0:0:0:
96,334,85217,2,0,P|88:303|94:264,1,62.9999980773926,8|2,0:0|0:2,0:0:0:0:
136,212,85559,1,2,0:2:0:0:
93,149,85731,1,0,0:0:0:0:
138,88,85902,1,8,0:0:0:0:
84,33,86074,5,0,0:0:0:0:
84,33,86417,2,0,L|1:48,2,62.9999980773926,8|0|8,0:0|0:0|0:0,0:0:0:0:
152,66,86931,1,4,0:0:0:0:
227,41,87102,1,4,0:0:0:0:
227,41,87188,1,4,0:0:0:0:
227,41,87274,2,0,L|222:0,4,31.4999990386963,6|6|6|4|4,0:0|0:0|0:0|0:0|0:0,0:0:0:0:
299,80,87788,1,4,0:0:0:0:
299,80,87874,1,4,0:0:0:0:
299,80,87959,2,0,P|353:77|376:87,1,62.9999980773926,12|4,0:0|0:0,0:0:0:0:
426,116,88302,70,0,L|413:205,1,62.9999980773926,0|0,0:0|0:0,0:0:0:0:
467,234,88645,1,8,0:0:0:0:
430,300,88817,2,0,P|392:302|358:292,1,62.9999980773926,0|0,0:0|0:0,0:0:0:0:
301,260,89159,2,0,P|263:258|229:268,1,62.9999980773926,8|0,0:0|0:0,0:0:0:0:
191,322,89502,1,8,0:0:0:0:
128,278,89674,2,0,L|135:202,2,62.9999980773926,0|0|8,0:0|0:0|0:0,0:0:0:0:
60,315,90188,2,0,P|12:304|-5:220,1,125.999996154785,0|0,0:0|0:0,0:0:0:0:
40,182,90702,2,0,P|57:154|57:116,1,62.9999980773926,8|2,0:0|0:2,0:0:0:0:
19,59,91045,1,4,0:2:0:0:
82,17,91217,1,0,0:0:0:0:
151,46,91388,1,8,0:0:0:0:
131,118,91559,5,0,0:0:0:0:
131,118,91902,2,0,L|145:34,1,62.9999980773926,8|0,0:0|0:0,0:0:0:0:
209,21,92245,1,8,0:0:0:0:
209,21,92417,2,0,P|265:24|278:29,1,62.9999980773926,0|0,0:0|0:0,0:0:0:0:
343,6,92759,2,0,P|368:55|370:69,1,62.9999980773926,8|0,0:0|0:0,0:0:0:0:
432,104,93102,2,0,L|428:155,4,31.4999990386963,2|2|2|2|0,0:0|0:0|0:0|0:0|0:0,0:0:0:0:
468,255,93788,22,0,L|316:246,1,140,4|8,0:0|0:0,0:0:0:0:
277,304,94302,1,0,0:0:0:0:
215,257,94474,2,0,P|202:224|206:183,1,70,0|8,0:0|0:0,0:0:0:0:
132,159,94817,2,0,P|158:126|189:114,1,70,0|8,0:0|0:0,0:0:0:0:
251,81,95159,54,0,L|338:93,1,70,0|0,0:0|0:0,0:0:0:0:
384,132,95502,2,0,L|458:120,1,70,8|0,0:0|0:0,0:0:0:0:
499,182,95845,1,0,0:0:0:0:
499,182,96017,1,0,0:0:0:0:
447,238,96188,2,0,L|296:223,1,140,8|4,0:0|0:2,0:0:0:0:
254,279,96702,21,0,0:0:0:0:
198,224,96874,2,0,P|189:184|203:134,1,70,8|0,0:0|0:0,0:0:0:0:
247,100,97217,2,0,P|252:73|242:27,1,70,0|8,0:0|0:0,0:0:0:0:
168,17,97559,2,0,L|98:25,1,70,0|8,0:0|0:0,0:0:0:0:
38,74,97902,53,0,0:0:0:0:
89,131,98074,1,0,0:0:0:0:
39,190,98245,2,0,L|-11:185,4,35,8|2|2|0|0,0:0|0:0|0:0|0:0|0:0,0:0:0:0:
98,239,98759,1,0,0:0:0:0:
98,239,98931,2,0,B|157:231|157:231|182:241|182:241|242:234,1,140,8|0,0:0|0:0,0:0:0:0:
302,197,99445,21,0,0:0:0:0:
364,242,99617,2,0,P|364:276|362:318,1,70,8|0,0:0|0:0,0:0:0:0:
302,197,99959,2,0,P|300:165|301:126,1,70,0|8,0:0|0:0,0:0:0:0:
340,60,100302,2,0,P|304:49|263:57,1,70,0|8,0:0|0:0,0:0:0:0:
205,91,100645,54,0,P|173:92|133:85,1,70,0|0,0:0|0:0,0:0:0:0:
67,49,100988,1,8,0:0:0:0:
67,49,101159,1,0,0:0:0:0:
30,116,101331,2,0,L|40:201,1,70,0|0,0:0|0:0,0:0:0:0:
85,246,101674,2,0,P|130:269|216:230,1,140,8|4,0:0|0:2,0:0:0:0:
245,171,102188,21,0,0:0:0:0:
305,218,102359,2,0,P|355:221|378:215,1,70,8|0,0:0|0:0,0:0:0:0:
407,146,102702,2,0,P|375:141|329:149,1,70,0|0,0:0|0:0,0:0:0:0:
271,107,103045,2,0,P|239:119|190:118,1,70,8|0,0:0|0:0,0:0:0:0:
139,69,103388,70,0,P|77:58|51:71,2,93.3333333333333,0|0|0,0:0|0:0|0:0,0:0:0:0:
215,150,104074,1,8,0:0:0:0:
447,219,105102,69,0,0:0:0:0:
447,219,105788,2,0,P|402:179|347:196,1,105,8|0,0:0|0:0,0:0:0:0:
330,162,106131,38,0,B|255:155|271:189|173:175,1,140,4|8,0:0|0:0,0:0:0:0:
133,127,106645,2,0,P|90:130|56:222,1,140,0|0,0:0|0:0,0:0:0:0:
107,264,107159,2,0,P|128:268|183:261,1,70,8|0,0:0|0:0,0:0:0:0:
229,319,107502,6,0,B|275:307|275:307|389:322,1,140,0|8,0:0|0:0,0:0:0:0:
431,362,108017,2,0,P|397:306|423:225,1,140,0|0,0:0|0:0,0:0:0:0:
458,174,108531,2,0,P|451:125|432:107,1,70,8|0,0:0|0:0,0:0:0:0:
355,31,108874,2,0,B|410:22|410:22|433:34|433:34|499:28,1,140,0|8,0:0|0:0,0:0:0:0:
360,110,109559,70,0,L|263:103,1,70,0|0,0:0|0:0,0:0:0:0:
226,148,109902,2,0,L|229:217,1,70,8|0,0:0|0:0,0:0:0:0:
229,295,110245,2,0,P|266:287|293:261,1,70,0|0,0:0|0:0,0:0:0:0:
365,252,110588,2,0,P|368:214|352:180,1,70,8|0,0:0|0:0,0:0:0:0:
292,140,110931,1,12,0:0:0:0:
331,74,111102,1,2,0:0:0:0:
331,74,111188,1,2,0:0:0:0:
331,74,111274,2,0,L|372:76,3,35,8|2|2|2,0:0|0:0|0:0|0:0,0:0:0:0:
393,48,111617,6,0,L|238:53,1,140,4|8,0:0|0:0,0:0:0:0:
186,14,112131,2,0,P|139:16|87:96,1,140,0|0,0:0|0:0,0:0:0:0:
126,152,112645,2,0,B|161:159|161:159|203:150,1,70,8|0,0:0|0:0,0:0:0:0:
334,235,112988,70,0,B|241:218|241:218|174:236,1,140,0|8,0:0|0:0,0:0:0:0:
152,293,113502,2,0,P|105:309|50:242,1,140,0|0,0:0|0:0,0:0:0:0:
91,183,114017,2,0,P|101:148|100:111,1,70,8|0,0:0|0:0,0:0:0:0:
21,32,114359,2,0,B|85:31|85:31|108:21|108:21|184:21,1,140,0|8,0:0|0:0,0:0:0:0:
313,14,115045,6,0,P|334:55|333:85,1,70,0|0,0:0|0:0,0:0:0:0:
400,117,115388,2,0,P|374:155|348:169,1,70,8|0,0:0|0:0,0:0:0:0:
304,225,115731,2,0,L|261:225,4,35,4|0|2|2|8,0:0|0:0|0:0|0:0|0:0,0:0:0:0:
363,290,116245,1,2,0:0:0:0:
363,290,116331,1,2,0:0:0:0:
363,290,116417,2,0,L|410:286,3,35,8|0|2|2,0:0|0:0|0:0|0:0,0:0:0:0:
428,310,116759,70,0,L|313:308,1,105,0|0,0:0|0:0,0:0:0:0:
298,337,117102,2,0,P|259:334|228:312,1,70,4|0,0:0|0:0,0:0:0:0:
156,324,117445,2,0,P|139:288|142:250,1,70,8|0,0:0|0:0,0:0:0:0:
124,182,117788,2,0,L|267:197,1,140,0|8,0:0|0:0,0:0:0:0:
335,169,118302,1,0,0:0:0:0:
304,97,118474,2,0,P|271:83|226:79,1,70,0|0,0:0|0:0,0:0:0:0:
335,169,118817,2,0,P|369:164|401:150,1,70,8|0,0:0|0:0,0:0:0:0:
443,87,119159,2,0,P|439:164|442:242,1,140,0|8,0:0|0:0,0:0:0:0:
342,345,119845,5,0,0:0:0:0:
287,290,120017,2,0,P|247:279|159:321,1,140,0|0,0:0|0:0,0:0:0:0:
96,359,120531,2,0,P|87:324|100:275,1,70,0|0,0:0|0:0,0:0:0:0:
129,223,120874,1,8,0:0:0:0:
177,163,121045,2,0,P|212:166|261:169,1,70,0|0,0:0|0:0,0:0:0:0:
315,133,121388,1,0,0:0:0:0:
315,133,121559,2,0,P|350:136|399:139,1,70,8|0,0:0|0:0,0:0:0:0:
455,107,121902,1,0,0:0:0:0:
488,187,122074,1,2,0:0:0:0:
488,187,122159,1,2,0:0:0:0:
488,187,122245,2,0,L|481:221,3,35,8|2|2|2,0:0|0:0|0:0|0:0,0:0:0:0:
488,259,122588,70,0,P|449:282|355:244,1,140,4|8,0:0|0:0,0:0:0:0:
315,195,123102,2,0,P|325:270|325:351,1,140,0|0,0:0|0:0,0:0:0:0:
257,371,123617,2,0,P|221:355|201:328,1,70,8|0,0:0|0:0,0:0:0:0:
148,274,123959,6,0,B|169:180|169:180|160:128,1,140,0|8,0:0|0:0,0:0:0:0:
107,80,124474,2,0,P|179:111|240:70,1,140,0|0,0:0|0:0,0:0:0:0:
273,21,124988,2,0,P|317:22|347:32,1,70,8|0,0:0|0:0,0:0:0:0:
426,127,125331,2,0,B|447:217|447:217|403:279,1,140,0|8,0:0|0:0,0:0:0:0:
419,255,126017,1,0,0:0:0:0:
271,211,126359,70,0,P|232:210|190:234,1,70,8|0,0:0|0:0,0:0:0:0:
138,263,126702,2,0,L|128:180,1,70,0|0,0:0|0:0,0:0:0:0:
184,139,127045,2,0,L|334:160,2,140,8|2|8,0:0|0:0|0:0,0:0:0:0:
56,51,128074,5,4,0:0:0:0:
22,167,133559,6,0,P|75:131|143:154,1,125.999996154785,4|0,0:0|0:0,0:0:0:0:
262,222,134245,2,0,L|329:213,1,62.9999980773926,0|0,0:0|0:0,0:0:0:0:
385,168,134588,2,0,P|401:212|395:240,1,62.9999980773926,0|0,0:0|0:0,0:0:0:0:
362,293,134931,2,0,P|419:293|455:353,2,125.999996154785,0|0|0,0:0|0:0|0:0,0:0:0:0:
223,353,135959,1,0,0:0:0:0:
99,265,136302,5,0,0:0:0:0:
48,208,136474,2,0,P|38:170|49:130,1,62.9999980773926,0|0,0:0|0:0,0:0:0:0:
102,101,136817,2,0,B|151:114|151:114|249:95,1,125.999996154785,0|0,0:0|0:0,0:0:0:0:
273,41,137331,1,0,0:0:0:0:
273,41,137674,1,0,0:0:0:0:
337,80,137845,2,0,B|363:116|363:116|340:215,1,125.999996154785,0|0,0:0|0:0,0:0:0:0:
310,263,138359,2,0,P|341:274|387:260,1,62.9999980773926,0|0,0:0|0:0,0:0:0:0:
440,240,138702,2,0,P|477:239|512:261,1,62.9999980773926,0|0,0:0|0:0,0:0:0:0:
429,369,139045,22,0,L|289:355,1,125.999996154785,0|8,0:0|0:0,0:0:0:0:
154,382,139731,2,0,P|144:351|151:313,1,62.9999980773926,0|8,0:0|0:0,0:0:0:0:
199,265,140074,2,0,L|185:189,1,62.9999980773926,0|0,0:0|0:0,0:0:0:0:
241,149,140417,2,0,P|297:161|378:168,1,125.999996154785,0|8,0:0|0:0,0:0:0:0:
476,141,141017,1,2,0:0:0:0:
476,141,141102,2,0,L|468:84,3,31.4999990386963,2|2|2|2,0:0|0:0|0:0|0:0,0:0:0:0:
493,79,141445,2,0,L|485:22,3,31.4999990386963,2|2|2|2,0:0|0:0|0:0|0:0,0:0:0:0:
452,35,141788,54,0,P|392:47|307:53,1,125.999996154785,0|8,0:0|0:0,0:0:0:0:
137,6,142474,1,0,0:0:0:0:
114,77,142645,2,0,L|128:152,1,62.9999980773926,8|0,0:0|0:0,0:0:0:0:
187,182,142988,1,0,0:0:0:0:
139,240,143159,2,0,P|108:253|68:240,2,62.9999980773926,0|0|0,0:0|0:0|0:0,0:0:0:0:
268,319,143845,2,0,L|321:310,3,31.4999990386963,2|2|2|2,0:0|0:0|0:0|0:0,0:0:0:0:
333,297,144188,2,0,L|364:302,3,31.4999990386963,0|0|0|0,0:0|0:0|0:0|0:0,0:0:0:0:
395,323,144531,22,0,B|426:289|426:289|404:192,1,125.999996154785,0|8,0:0|0:0,0:0:0:0:
285,122,145217,2,0,L|276:196,1,62.9999980773926,0|8,0:0|0:0,0:0:0:0:
215,226,145559,2,0,P|175:232|133:211,1,62.9999980773926,0|0,0:0|0:0,0:0:0:0:
99,173,145902,2,0,B|75:152|75:152|62:260,1,125.999996154785,0|8,0:0|0:0,0:0:0:0:
141,328,146502,1,2,0:0:0:0:
141,328,146588,2,0,L|193:317,3,31.4999990386963,2|2|2|2,0:0|0:0|0:0|0:0,0:0:0:0:
202,299,146931,2,0,P|219:299|232:305,3,31.4999990386963,2|2|2|2,0:0|0:0|0:0|0:0,0:0:0:0:
265,322,147274,54,0,L|257:387,2,62.9999980773926,0|0|8,0:0|0:0|0:0,0:0:0:0:
315,265,147788,1,0,0:0:0:0:
372,313,147959,2,0,P|408:318|449:303,1,62.9999980773926,0|8,0:0|0:0,0:0:0:0:
491,263,148302,2,0,L|479:195,1,62.9999980773926,0|0,0:0|0:0,0:0:0:0:
427,146,148645,1,0,0:0:0:0:
487,100,148817,2,0,P|450:73|413:73,1,62.9999980773926,0|8,0:0|0:0,0:0:0:0:
363,98,149159,1,0,0:0:0:0:
300,55,149331,6,0,L|312:-5,2,41.9999987182618,8|2|2,0:0|0:0|0:0,0:0:0:0:
241,106,149674,2,0,L|249:147,2,41.9999987182618,8|2|2,0:0|0:0|0:0,0:0:0:0:
171,75,150017,6,0,P|123:100|56:77,1,105,4|0,0:0|0:0,0:0:0:0:
41,72,150359,2,0,L|58:153,1,70,0|0,0:0|0:0,0:0:0:0:
6,200,150702,1,8,0:0:0:0:
6,200,150874,1,0,0:0:0:0:
58,255,151045,2,0,L|139:244,1,70,0|8,0:0|0:0,0:0:0:0:
214,191,151388,6,0,P|289:176|333:211,1,105,0|0,0:0|0:0,0:0:0:0:
343,208,151731,2,0,L|440:194,1,70,0|0,0:0|0:0,0:0:0:0:
473,150,152074,2,0,P|486:175|474:243,1,70,8|0,0:0|0:0,0:0:0:0:
449,283,152417,2,0,L|461:357,1,70,0|0,0:0|0:0,0:0:0:0:
363,383,152759,70,0,P|316:350|251:367,1,105,0|0,0:0|0:0,0:0:0:0:
234,367,153102,2,0,L|144:350,1,70,0|0,0:0|0:0,0:0:0:0:
90,371,153445,1,8,0:0:0:0:
40,311,153617,2,0,P|31:267|48:231,1,70,0|0,0:0|0:0,0:0:0:0:
88,186,153959,1,2,0:0:0:0:
16,113,154131,6,0,L|137:99,1,105,0|0,0:0|0:0,0:0:0:0:
149,125,154474,2,0,P|190:132|237:113,1,70,0|0,0:0|0:0,0:0:0:0:
274,73,154817,2,0,L|261:-3,1,70,8|0,0:0|0:0,0:0:0:0:
356,109,155159,2,0,L|344:177,1,70,8|0,0:0|0:0,0:0:0:0:
354,280,155502,70,0,P|403:249|460:284,1,105,4|0,0:0|0:0,0:0:0:0:
475,285,155845,2,0,L|464:364,1,70,0|0,0:0|0:0,0:0:0:0:
393,382,156188,1,8,0:0:0:0:
393,382,156359,1,0,0:0:0:0:
314,356,156531,2,0,P|255:349|235:359,1,70,0|8,0:0|0:0,0:0:0:0:
146,374,156874,6,0,L|133:241,1,105,0|0,0:0|0:0,0:0:0:0:
118,234,157217,2,0,L|131:151,1,70,0|0,0:0|0:0,0:0:0:0:
82,103,157559,1,8,0:0:0:0:
143,56,157731,2,0,B|213:40|213:87|278:76,1,140,0|0,0:0|0:0,0:0:0:0:
372,35,158245,70,0,L|357:155,1,105,0|0,0:0|0:0,0:0:0:0:
381,170,158588,2,0,P|426:162|469:172,1,70,0|0,0:0|0:0,0:0:0:0:
502,221,158931,1,8,0:0:0:0:
465,288,159102,2,0,L|383:273,1,70,0|0,0:0|0:0,0:0:0:0:
337,325,159445,1,2,0:0:0:0:
267,249,159617,6,0,P|248:200|281:150,1,105,0|0,0:0|0:0,0:0:0:0:
296,127,159959,2,0,L|284:38,1,70,0|0,0:0|0:0,0:0:0:0:
222,15,160302,1,8,0:0:0:0:
154,53,160474,1,6,0:0:0:0:
218,94,160645,1,4,0:0:0:0:
150,213,160988,38,0,B|324:175|214:298|395:267|441:276|450:186|387:173|314:214,1,393.750015020371,0|2,0:0|0:3,0:0:0:0:
296,192,162359,38,0,P|303:132|320:49,1,140,4|8,0:0|0:0,0:0:0:0:
247,23,162874,2,0,B|190:27|190:27|166:49|166:49|115:56,1,140,0|0,0:0|0:0,0:0:0:0:
52,99,163388,2,0,P|39:66|44:27,1,70,8|0,0:0|0:0,0:0:0:0:
121,144,163731,6,0,L|103:284,1,140,0|8,0:0|0:0,0:0:0:0:
142,349,164245,2,0,P|195:310|267:339,1,140,0|0,0:0|0:0,0:0:0:0:
326,371,164759,2,0,L|409:357,1,70,8|0,0:0|0:0,0:0:0:0:
503,251,165102,2,0,B|428:235|451:287|369:271,1,140,0|8,0:0|0:0,0:0:0:0:
241,184,165788,70,0,L|259:97,1,70,0|0,0:0|0:0,0:0:0:0:
187,77,166131,2,0,L|167:164,1,70,8|0,0:0|0:0,0:0:0:0:
138,215,166474,2,0,P|83:241|11:196,2,140,0|8|12,0:0|0:0|0:0,0:0:0:0:
194,162,167331,1,2,0:0:0:0:
194,162,167417,1,2,0:0:0:0:
194,162,167502,2,0,L|186:108,3,35,8|2|2|2,0:0|0:0|0:0|0:0,0:0:0:0:
217,101,167845,6,0,P|331:90|347:104,1,140,4|8,0:0|0:0,0:0:0:0:
395,156,168359,2,0,P|376:242|366:303,1,140,0|0,0:0|0:0,0:0:0:0:
425,344,168874,2,0,P|469:347|493:327,1,70,8|0,0:0|0:0,0:0:0:0:
367,293,169217,70,0,L|214:311,1,140,0|8,0:0|0:0,0:0:0:0:
159,346,169731,2,0,B|135:307|135:307|163:203,1,140,0|0,0:0|0:0,0:0:0:0:
105,161,170245,2,0,L|35:178,1,70,8|0,0:0|0:0,0:0:0:0:
170,99,170588,2,0,B|257:104|215:142|306:152,1,140,0|8,0:0|0:0,0:0:0:0:
443,103,171274,6,0,P|453:59|440:25,1,70,0|0,0:0|0:0,0:0:0:0:
376,69,171617,2,0,P|365:102|372:136,1,70,8|0,0:0|0:0,0:0:0:0:
433,182,171959,1,8,0:0:0:0:
374,231,172131,1,2,0:0:0:0:
374,231,172217,1,2,0:0:0:0:
374,231,172302,2,0,L|318:225,3,35,8|2|2|2,0:0|0:0|0:0|0:0,0:0:0:0:
306,206,172645,2,0,L|271:209,3,35,4|4|4|4,0:0|0:0|0:0|0:0,0:0:0:0:
236,226,172988,2,0,L|201:222,3,35,4|4|4|4,0:0|0:0|0:0|0:0,0:0:0:0:
163,231,173331,69,4,0:0:0:0:
113,171,173502,2,0,P|103:131|118:96,1,70,0|8,0:0|0:0,0:0:0:0:
168,51,173845,1,0,0:0:0:0:
233,91,174017,2,0,L|311:78,1,70,0|0,0:0|0:0,0:0:0:0:
368,41,174359,1,8,0:0:0:0:
417,100,174531,2,0,P|428:141|421:172,2,70,0|0|0,0:0|0:0|0:0,0:0:0:0:
368,41,175045,1,8,0:0:0:0:
241,128,175388,2,0,L|171:117,1,70,0|0,0:0|0:0,0:0:0:0:
107,74,175731,2,0,L|28:86,1,70,8|0,0:0|0:0,0:0:0:0:
7,155,176074,5,0,0:0:0:0:
64,205,176245,2,0,L|75:278,1,70,0|8,0:0|0:0,0:0:0:0:
23,332,176588,1,0,0:0:0:0:
89,370,176759,2,0,P|136:358|165:361,1,70,0|0,0:0|0:0,0:0:0:0:
230,382,177102,1,8,0:0:0:0:
303,357,177274,2,0,P|337:356|371:367,1,70,0|0,0:0|0:0,0:0:0:0:
434,323,177617,1,0,0:0:0:0:
390,259,177788,2,0,L|398:185,1,70,8|0,0:0|0:0,0:0:0:0:
460,145,178131,1,0,0:0:0:0:
407,96,178302,1,2,0:0:0:0:
407,96,178388,1,2,0:0:0:0:
407,96,178474,2,0,L|410:53,3,35,8|2|2|2,0:0|0:0|0:0|0:0,0:0:0:0:
379,36,178817,70,0,B|334:21|334:21|236:56,1,140,4|8,0:0|0:0,0:0:0:0:
195,110,179331,2,0,L|48:95,1,140,0|0,0:0|0:0,0:0:0:0:
8,34,179845,2,0,P|34:21|81:24,1,70,8|0,0:0|0:0,0:0:0:0:
123,145,180188,6,0,B|105:232|105:232|54:260,1,140,0|8,0:0|0:0,0:0:0:0:
27,326,180702,2,0,P|80:351|149:313,1,140,0|0,0:0|0:0,0:0:0:0:
201,260,181217,2,0,L|181:177,1,70,8|0,0:0|0:0,0:0:0:0:
296,79,181559,2,0,L|279:231,2,140,0|8|0,0:0|0:0|0:0,0:0:0:0:
151,24,182588,70,0,P|139:56|146:114,1,70,8|0,0:0|0:0,0:0:0:0:
201,136,182931,1,8,0:0:0:0:
163,203,183102,1,2,0:0:0:0:
163,203,183188,1,2,0:0:0:0:
163,203,183274,2,0,L|155:253,3,35,8|2|2|2,0:0|0:0|0:0|0:0,0:0:0:0:
129,264,183617,2,0,L|137:314,3,35,12|4|4|4,0:0|0:0|0:0|0:0,0:0:0:0:
161,325,183959,2,0,L|153:375,3,35,12|6|6|6,0:0|0:0|0:0|0:0,0:0:0:0:
123,381,184302,6,0,P|206:344|276:366,1,140,4|8,0:0|0:0,0:0:0:0:
323,382,184817,1,0,0:0:0:0:
376,327,184988,2,0,L|363:243,1,70,0|8,0:0|0:0,0:0:0:0:
417,200,185331,2,0,P|423:155|408:122,1,70,0|8,0:0|0:0,0:0:0:0:
351,88,185674,70,0,P|287:99|255:99,1,70,0|0,0:0|0:0,0:0:0:0:
209,72,186017,2,0,P|151:70|115:72,1,70,8|0,0:0|0:0,0:0:0:0:
79,118,186359,1,0,0:0:0:0:
131,190,186531,1,8,0:0:0:0:
131,190,186617,1,2,0:0:0:0:
131,190,186702,2,0,L|119:251,3,35,0|0|8|2,0:0|0:0|0:0|0:0,0:0:0:0:
104,257,187045,6,0,B|189:269|142:310|234:326,1,140,0|8,0:0|0:0,0:0:0:0:
287,282,187559,1,0,0:0:0:0:
356,315,187731,2,0,L|444:304,1,70,0|8,0:0|0:0,0:0:0:0:
481,253,188074,70,0,P|489:215|467:178,1,70,0|8,0:0|0:0,0:0:0:0:
415,140,188417,2,0,P|363:149|311:158,1,105,0|0,0:0|0:0,0:0:0:0:
273,152,188759,2,0,P|279:114|287:67,1,70,8|0,0:0|0:0,0:0:0:0:
221,37,189102,2,0,L|181:48,1,35,8|2,0:0|0:0,0:0:0:0:
121,87,189274,2,0,L|59:71,2,35,2|2|8,0:0|0:0|0:0,0:0:0:0:
208,213,189788,6,0,P|200:247|193:281,1,70,4|0,0:0|0:0,0:0:0:0:
259,322,190131,2,0,P|299:311|340:310,1,70,8|0,0:0|0:0,0:0:0:0:
376,249,190474,2,0,L|469:263,1,70,0|8,0:0|0:0,0:0:0:0:
478,189,190817,2,0,L|408:178,1,70,0|8,0:0|0:0,0:0:0:0:
345,134,191159,70,0,P|352:92|358:62,1,70,0|0,0:0|0:0,0:0:0:0:
291,24,191502,2,0,L|214:38,1,70,8|0,0:0|0:0,0:0:0:0:
150,7,191845,1,0,0:0:0:0:
100,65,192017,1,2,0:0:0:0:
100,65,192102,1,2,0:0:0:0:
100,65,192188,2,0,L|111:106,3,35,8|2|2|2,0:0|0:0|0:0|0:0,0:0:0:0:
132,129,192531,6,0,L|104:277,1,140,4|8,0:0|0:0,0:0:0:0:
157,324,193045,1,0,0:0:0:0:
218,277,193217,2,0,P|272:266|311:282,1,70,0|8,0:0|0:0,0:0:0:0:
349,310,193559,1,0,0:0:0:0:
420,281,193731,1,8,0:0:0:0:
485,320,193902,70,0,L|500:234,1,70,0|2,0:0|0:0,0:0:0:0:
472,221,194159,1,2,0:0:0:0:
472,221,194245,2,0,L|484:163,3,35,8|2|2|2,0:0|0:0|0:0|0:0,0:0:0:0:
456,155,194588,2,0,P|414:143|380:164,2,70,4|4|4,0:2|0:2|0:2,0:0:0:0:
