osu file format v14

[General]
AudioFilename: abdca123.mp3
AudioLeadIn: 0
PreviewTime: 105103
Countdown: 0
SampleSet: None
StackLeniency: 0.5
Mode: 0
LetterboxInBreaks: 0
WidescreenStoryboard: 0

[Editor]
Bookmarks: 27959,38931,49902,53674,60874,66359,71845,82817,94131,117102,122588,128074,150017,160988,162359,173331,178817,184302,195274
DistanceSpacing: 0.4
BeatDivisor: 4
GridSize: 4
TimelineZoom: 3.299999

[Metadata]
Title:Memories
TitleUnicode:Memories
Artist:ONE OK ROCK
ArtistUnicode:ONE OK ROCK
Creator:Komore
Version:Pain
Source:
Tags:35xxxv Alternative rock post-hardcore lasse fcl namki trynna
BeatmapID:1448813
BeatmapSetID:684590

[Difficulty]
HPDrainRate:6.3
CircleSize:4.2
OverallDifficulty:9
ApproachRate:9.3
SliderMultiplier:1.7
SliderTickRate:1

[Events]
//Background and Video events
0,0,"memory.jpg",0,0
//Break Periods
2,73417,80891
2,129645,132834
//Storyboard Layer 0 (Background)
//Storyboard Layer 1 (Fail)
//Storyboard Layer 2 (Pass)
//Storyboard Layer 3 (Foreground)
//Storyboard Sound Samples

[TimingPoints]
6017,342.857142857143,4,3,1,70,1,0
15959,-133.333333333333,4,3,1,70,0,0
16302,-400,4,3,1,70,0,0
16902,-400,4,3,1,5,0,0
16988,-100,4,3,1,80,0,0
22131,-100,4,3,2,80,0,0
22302,-100,4,3,3,80,0,0
22388,-100,4,3,4,80,0,0
22474,-100,4,3,1,80,0,0
27617,-125,4,3,2,70,0,0
27788,-125,4,3,3,60,0,0
27959,-125,4,3,1,60,0,0
28302,-125,4,3,1,60,0,0
30531,-125,4,3,3,60,0,0
30874,-125,4,3,1,60,0,0
32245,-125,4,3,4,60,0,0
32417,-125,4,3,2,60,0,0
32588,-125,4,3,3,60,0,0
33274,-125,4,3,4,60,0,0
33445,-125,4,3,1,60,0,0
36017,-125,4,3,3,60,0,0
36188,-125,4,3,1,60,0,0
38588,-142.857142857143,4,3,1,60,0,0
38845,-142.857142857143,4,3,1,5,0,0
38931,-111.111111111111,4,3,1,60,0,0
48445,-111.111111111111,4,3,1,5,0,0
48531,-66.6666666666667,4,3,1,90,0,0
48702,-66.6666666666667,4,3,1,5,0,0
48759,-66.6666666666667,4,3,1,90,0,0
48931,-66.6666666666667,4,3,1,5,0,0
48988,-66.6666666666667,4,3,1,90,0,0
49102,-66.6666666666667,4,3,1,5,0,0
49217,-400,4,3,1,90,0,0
49817,-400,4,3,1,5,0,0
49902,-100,4,3,1,95,0,0
60531,-100,4,3,2,95,0,0
60702,-100,4,3,3,95,0,0
60788,-100,4,3,4,95,0,0
60874,-100,4,3,1,95,0,0
71159,-133.333333333333,4,3,1,95,0,0
71845,-100,4,3,1,90,0,0
82388,-100,4,3,1,5,0,0
82474,-100,4,2,2,60,0,0
82731,-100,4,2,1,5,0,0
82817,-100,4,3,1,60,0,0
82988,-125,4,3,1,60,0,0
85388,-125,4,3,3,60,0,0
85731,-125,4,3,1,60,0,0
86931,-125,4,3,4,60,0,0
87274,-125,4,3,2,60,0,0
87445,-125,4,3,3,60,0,0
87531,-125,4,3,4,60,0,0
88302,-125,4,3,1,60,0,0
90874,-125,4,3,3,60,0,0
91045,-125,4,3,1,60,0,0
93445,-100,4,3,1,60,0,0
94131,-111.111111111111,4,3,1,60,0,0
103302,-111.111111111111,4,3,1,5,0,0
103388,-66.6666666666667,4,3,1,90,0,0
103559,-66.6666666666667,4,3,1,5,0,0
103617,-66.6666666666667,4,3,1,90,0,0
103788,-66.6666666666667,4,3,1,5,0,0
103845,-66.6666666666667,4,3,1,90,0,0
103959,-66.6666666666667,4,3,1,5,0,0
104074,-400,4,3,1,60,0,0
104417,-400,4,2,2,5,0,0
105102,-200,4,2,2,40,0,0
105788,-200,4,3,1,60,0,0
106131,-100,4,3,1,95,0,0
116759,-100,4,3,2,95,0,0
116931,-100,4,3,3,95,0,0
117017,-100,4,3,4,95,0,0
117102,-100,4,3,1,95,0,0
127731,-142.857142857143,4,3,1,95,0,0
128074,-142.857142857143,4,3,1,60,0,0
133388,-100,4,2,1,60,0,0
133559,-142.857142857143,4,2,1,40,0,0
139045,-111.111111111111,4,2,1,50,0,0
140674,-111.111111111111,4,2,1,5,0,0
140759,-111.111111111111,4,2,1,50,0,0
140931,-111.111111111111,4,2,1,10,0,0
141017,-111.111111111111,4,2,1,15,0,0
141102,-111.111111111111,4,2,1,20,0,0
141188,-111.111111111111,4,2,1,25,0,0
141274,-111.111111111111,4,2,1,30,0,0
141359,-111.111111111111,4,2,1,35,0,0
141445,-111.111111111111,4,2,1,40,0,0
141531,-111.111111111111,4,2,1,45,0,0
141617,-111.111111111111,4,2,1,50,0,0
141702,-111.111111111111,4,2,1,55,0,0
141788,-111.111111111111,4,2,1,50,0,0
142045,-111.111111111111,4,2,1,5,0,0
142131,-111.111111111111,4,2,1,50,0,0
143417,-111.111111111111,4,2,1,5,0,0
143502,-111.111111111111,4,2,1,50,0,0
143845,-111.111111111111,4,2,1,30,0,0
143931,-111.111111111111,4,2,1,35,0,0
144017,-111.111111111111,4,2,1,40,0,0
144102,-111.111111111111,4,2,1,45,0,0
144188,-111.111111111111,4,2,1,50,0,0
144788,-111.111111111111,4,2,1,5,0,0
144874,-111.111111111111,4,2,1,50,0,0
146159,-111.111111111111,4,2,1,5,0,0
146245,-111.111111111111,4,2,1,50,0,0
146417,-111.111111111111,4,2,1,10,0,0
146502,-111.111111111111,4,2,1,15,0,0
146588,-111.111111111111,4,2,1,20,0,0
146674,-111.111111111111,4,2,1,25,0,0
146759,-111.111111111111,4,2,1,30,0,0
146845,-111.111111111111,4,2,1,35,0,0
146931,-111.111111111111,4,2,1,40,0,0
147017,-111.111111111111,4,2,1,45,0,0
147102,-111.111111111111,4,2,1,50,0,0
147188,-111.111111111111,4,2,1,55,0,0
147274,-111.111111111111,4,2,1,50,0,0
147531,-111.111111111111,4,2,1,5,0,0
147617,-111.111111111111,4,2,1,50,0,0
148902,-111.111111111111,4,2,1,5,0,0
148988,-111.111111111111,4,2,1,50,0,0
150017,-100,4,3,1,60,0,0
150274,-100,4,3,1,5,0,0
150359,-100,4,3,1,60,0,0
151645,-100,4,3,1,5,0,0
151731,-100,4,3,1,60,0,0
152331,-100,4,3,1,5,0,0
152417,-100,4,3,1,60,0,0
155759,-100,4,3,1,5,0,0
155845,-100,4,3,1,60,0,0
157131,-100,4,3,1,5,0,0
157217,-100,4,3,1,60,0,0
157817,-100,4,3,1,5,0,0
157902,-100,4,3,1,60,0,0
159874,-100,4,3,1,5,0,0
159959,-100,4,3,1,60,0,0
160474,-200,4,3,6,100,0,0
160645,-200,4,3,4,60,0,0
160988,-100,4,2,2,40,0,0
161502,-100,4,2,2,50,0,0
161674,-100,4,2,2,60,0,0
161845,-100,4,2,2,70,0,0
162017,-100,4,2,2,80,0,0
162188,-100,4,2,2,90,0,0
162359,-100,4,3,1,95,0,0
172645,-100,4,3,2,95,0,0
172988,-100,4,3,3,95,0,0
173331,-100,4,3,1,95,0,0
183617,-100,4,3,2,95,0,0
183788,-100,4,3,3,95,0,0
183959,-100,4,3,4,95,0,0
184302,-100,4,3,1,80,0,0
194931,-142.857142857143,4,3,1,40,0,0

[Colours]
Combo1 : 205,221,237
Combo2 : 225,152,108
Combo3 : 237,217,148
Combo4 : 86,128,177
Combo5 : 248,92,92
Combo6 : 219,219,219

[HitObjects]
206,368,15617,6,0,L|150:377,2,56.6666666666667,8|2|2,0:0|0:0|0:0,0:0:0:0:
326,304,15959,2,0,L|367:311,2,42.5000016212464,8|2|2,0:0|0:0|0:0,0:0:0:0:
226,194,16302,54,0,L|237:267,1,74.375,8|0,0:0|0:0,0:0:0:0:
169,321,16988,53,4,0:0:0:0:
325,240,17159,1,0,0:0:0:0:
138,170,17331,1,8,0:0:0:0:
357,108,17502,2,0,P|316:112|276:97,1,85
103,258,17845,2,0,P|145:247|187:246,1,85,0|8,0:0|0:0,0:0:0:0:
340,331,18188,1,0,0:0:0:0:
349,345,18274,1,0,0:0:0:0:
341,359,18359,5,0,0:0:0:0:
265,169,18531,1,0,0:0:0:0:
506,289,18702,2,0,P|464:280|422:273,1,85,8|0,0:0|0:0,0:0:0:0:
266,383,19045,2,0,P|255:343|274:306,1,85,0|2,0:0|0:0,0:0:0:0:
335,246,19302,1,2,0:0:0:0:
329,220,19388,1,8,0:0:0:0:
324,194,19474,1,2,0:0:0:0:
319,169,19559,1,2,0:0:0:0:
314,143,19645,1,2,0:0:0:0:
307,118,19731,69,0,0:0:0:0:
422,273,19902,1,0,0:0:0:0:
205,210,20074,1,8,0:0:0:0:
411,97,20245,2,0,P|436:131|428:172,1,85
283,95,20588,1,2,0:0:0:0:
500,20,20759,1,8,0:0:0:0:
422,273,20931,1,0,0:0:0:0:
224,19,21102,5,0,0:0:0:0:
429,172,21274,1,0,0:0:0:0:
185,278,21445,1,8,0:0:0:0:
447,163,21617,1,0,0:0:0:0:
125,113,21788,69,0,0:0:0:0:
301,347,21959,1,2,0:0:0:0:
337,367,22044,1,2,0:0:0:0:
379,375,22130,1,4,0:0:0:0:
420,367,22216,1,4,0:0:0:0:
457,346,22301,1,4,0:0:0:0:
484,314,22387,1,4,0:0:0:0:
499,274,22474,5,4,0:0:0:0:
326,60,22645,1,0,0:0:0:0:
511,161,22817,1,8,0:0:0:0:
311,239,22988,2,0,P|294:202|302:161,1,85
511,339,23331,2,0,P|470:328|427:330,1,85,0|8,0:0|0:0,0:0:0:0:
224,384,23674,1,0,0:0:0:0:
219,372,23759,1,0,0:0:0:0:
226,361,23845,70,0,P|268:365|310:370,1,85
106,246,24188,2,0,P|68:263|24:265,1,85,8|0,0:0|0:0,0:0:0:0:
232,129,24531,2,0,L|214:212,1,85,0|2,0:0|0:0,0:0:0:0:
277,270,24788,1,2,0:0:0:0:
300,288,24874,1,8,0:0:0:0:
328,295,24959,1,2,0:0:0:0:
357,295,25045,1,2,0:0:0:0:
385,287,25131,1,2,0:0:0:0:
405,265,25217,5,0,0:0:0:0:
173,340,25388,1,0,0:0:0:0:
379,160,25559,1,8,0:0:0:0:
315,369,25731,1,0,0:0:0:0:
163,132,25902,69,0,0:0:0:0:
405,265,26074,1,2,0:0:0:0:
173,340,26245,1,8,0:0:0:0:
422,257,26417,1,0,0:0:0:0:
332,61,26588,5,0,0:0:0:0:
259,308,26759,1,0,0:0:0:0:
332,61,26931,1,8,0:0:0:0:
125,186,27102,69,0,0:0:0:0:
108,183,27188,1,0,0:0:0:0:
91,180,27274,5,0,0:0:0:0:
241,143,27445,1,0,0:0:0:0:
129,95,27617,69,12,0:0:0:0:
223,133,27788,1,4,0:0:0:0:
65,25,27959,37,0,0:0:0:0:
65,25,28131,1,0,0:0:0:0:
46,114,28302,2,0,P|33:82|40:50,1,68,8|0,0:0|0:0,0:0:0:0:
142,128,28645,1,0,0:0:0:0:
76,199,28817,2,0,P|43:192|10:189,1,68,8|0,0:0|0:0,0:0:0:0:
157,273,29159,70,0,B|224:264,1,68,8|0,0:0|0:0,0:0:0:0:
341,217,29502,2,0,P|358:248|350:297,1,68,0|8,0:0|0:0,0:0:0:0:
256,180,29845,1,0,0:0:0:0:
293,97,30017,1,0,0:0:0:0:
175,144,30188,1,0,0:0:0:0:
341,217,30359,1,8,0:0:0:0:
211,42,30531,1,2,0:2:0:0:
197,43,30617,1,2,0:2:0:0:
183,45,30702,5,2,0:2:0:0:
329,113,30874,1,0,0:0:0:0:
177,194,31045,1,8,0:0:0:0:
354,254,31217,1,0,0:0:0:0:
228,112,31388,69,0,0:0:0:0:
96,142,31559,1,8,0:0:0:0:
118,277,31731,1,0,0:0:0:0:
250,247,31902,1,8,0:0:0:0:
130,53,32074,5,0,0:0:0:0:
300,169,32246,1,4,0:0:0:0:
316,165,32331,1,4,0:0:0:0:
333,162,32417,1,12,0:0:0:0:
350,159,32502,1,6,0:0:0:0:
366,156,32588,1,6,0:0:0:0:
383,153,32674,1,6,0:0:0:0:
400,150,32759,69,4,0:0:0:0:
499,265,32931,1,6,0:0:0:0:
495,278,33017,1,6,0:0:0:0:
490,290,33102,2,0,P|458:277|424:276,1,68,12|4,0:0|0:0,0:0:0:0:
412,280,33359,1,4,0:0:0:0:
401,288,33445,6,0,L|410:355,1,68
285,284,33788,1,8,0:0:0:0:
423,212,33959,1,0,0:0:0:0:
348,166,34131,2,0,L|342:234,1,68,0|8,0:0|0:0,0:0:0:0:
323,379,34474,1,0,0:0:0:0:
381,305,34645,70,0,P|418:303|447:314,1,68,8|0,0:0|0:0,0:0:0:0:
314,225,34988,2,0,L|246:235,1,68,0|8,0:0|0:0,0:0:0:0:
416,140,35331,1,0,0:0:0:0:
395,232,35502,1,0,0:0:0:0:
329,142,35674,1,0,0:0:0:0:
512,252,35845,1,8,0:0:0:0:
358,338,36017,1,2,0:2:0:0:
344,336,36102,1,2,0:2:0:0:
330,333,36188,5,4,0:2:0:0:
157,226,36359,1,0,0:0:0:0:
329,142,36531,1,8,0:0:0:0:
226,358,36702,1,0,0:0:0:0:
375,246,36874,69,0,0:0:0:0:
157,226,37045,1,8,0:0:0:0:
167,117,37217,5,2,0:0:0:0:
385,137,37388,1,8,0:0:0:0:
301,5,37559,69,0,0:0:0:0:
279,118,37731,1,0,0:0:0:0:
254,230,37902,1,12,0:2:0:0:
230,343,38074,1,0,0:0:0:0:
347,147,38245,37,2,0:0:0:0:
380,151,38331,1,2,0:0:0:0:
413,155,38417,1,2,0:0:0:0:
446,159,38502,1,2,0:0:0:0:
474,166,38588,38,0,P|493:134|464:146,1,89.2499972763062,8|0,0:0|0:0,0:0:0:0:
397,224,38931,6,0,L|408:300,1,76.4999976654053,4|0,0:0|0:0,0:0:0:0:
226,380,39274,2,0,P|223:333|266:296,1,76.4999976654053,8|0,0:0|0:0,0:0:0:0:
351,369,39617,1,0,0:0:0:0:
192,225,39788,1,8,0:0:0:0:
382,161,39959,2,0,P|376:195|369:236,1,76.4999976654053,0|8,0:0|0:0,0:0:0:0:
511,375,40302,22,0,P|466:344|431:353,1,76.4999976654053
275,196,40645,1,8,0:0:0:0:
294,288,40817,1,0,0:0:0:0:
309,381,40988,1,0,0:0:0:0:
404,225,41159,1,0,0:0:0:0:
187,299,41331,2,0,P|149:292|111:286,1,76.4999976654053,8|0,0:0|0:0,0:0:0:0:
97,292,41588,1,0,0:0:0:0:
82,297,41674,54,0,P|62:334|71:374,1,76.4999976654053
268,237,42017,2,0,P|232:248|195:245,1,76.4999976654053,8|0,0:0|0:0,0:0:0:0:
42,95,42359,1,0,0:0:0:0:
222,158,42531,1,8,0:0:0:0:
81,297,42702,2,0,P|75:259|70:221,1,76.4999976654053,0|8,0:0|0:0,0:0:0:0:
204,60,43045,21,0,0:0:0:0:
422,179,43217,2,0,P|397:174|367:176,1,38.2499988327027,0|0,0:0|0:0,0:0:0:0:
302,214,43388,1,8,0:0:0:0:
304,187,43474,1,2,0:0:0:0:
305,160,43559,1,2,0:0:0:0:
308,133,43645,1,0,0:0:0:0:
311,106,43731,1,0,0:0:0:0:
430,287,43902,1,0,0:0:0:0:
437,300,43988,1,0,0:0:0:0:
442,314,44074,2,0,P|406:296|342:313,1,76.4999976654053,8|0,0:0|0:0,0:0:0:0:
356,302,44331,1,0,0:0:0:0:
342,309,44417,54,0,P|304:302|266:295,1,76.4999976654053
171,205,44759,1,8,0:0:0:0:
236,366,44931,1,0,0:0:0:0:
347,207,45102,1,0,0:0:0:0:
152,287,45274,2,0,L|57:275,1,76.4999976654053,8|0,0:0|0:0,0:0:0:0:
341,368,45617,1,8,0:0:0:0:
356,366,45702,1,0,0:0:0:0:
371,364,45788,21,0,0:0:0:0:
512,304,45959,2,0,P|481:277|423:289,1,76.4999976654053,0|8,0:0|0:0,0:0:0:0:
283,160,46302,1,0,0:0:0:0:
371,364,46474,1,0,0:0:0:0:
512,206,46645,1,0,0:0:0:0:
239,287,46817,2,0,P|182:278|140:274,1,76.4999976654053,12|0,0:2|0:0,0:0:0:0:
147,276,47074,1,0,0:0:0:0:
133,282,47159,54,0,P|113:319|124:365,1,76.4999976654053
216,192,47502,2,0,P|209:154|202:116,1,76.4999976654053,8|0,0:0|0:0,0:0:0:0:
316,258,47845,1,0,0:0:0:0:
96,186,48017,1,0,0:0:0:0:
299,80,48188,2,0,P|351:60|406:81,1,114.749996498108,8|0,0:0|0:0,0:0:0:0:
471,141,48531,6,0,B|494:82|494:82|470:22,1,127.500004863739,8|0,0:0|0:0,0:0:0:0:
357,240,48759,2,0,B|418:219|418:219|475:244,1,127.500004863739,8|0,0:0|0:0,0:0:0:0:
313,123,48988,2,0,L|226:138,1,85.0000032424928,8|0,0:0|0:0,0:0:0:0:
167,250,49217,54,0,L|93:241,1,74.375,8|0,0:0|0:0,0:0:0:0:
67,266,49902,54,0,P|35:192|82:126,1,170,4|8,0:0|0:0,0:0:0:0:
195,360,50417,2,0,B|85:337|85:337|45:351|48:390,1,170,0|0,0:0|0:0,0:0:0:0:
201,249,50931,2,0,P|250:231|306:241,1,85,8|0,0:0|0:0,0:0:0:0:
432,331,51274,6,0,B|473:353|473:353|512:291|457:238,1,170,0|8,0:0|0:0,0:0:0:0:
291,152,51788,2,0,P|374:134|457:116,1,170,0|0,0:0|0:0,0:0:0:0:
308,266,52302,2,0,P|261:270|223:254,1,85,8|0,0:0|0:0,0:0:0:0:
0,157,52645,70,0,B|98:131|98:131|137:144|136:184,1,170,0|8,0:0|0:0,0:0:0:0:
331,92,53159,1,0,0:0:0:0:
242,19,53331,2,0,P|221:57|224:118,1,85
392,224,53674,2,0,P|413:186|410:125,1,85,8|0,0:0|0:0,0:0:0:0:
229,270,54017,6,0,P|236:311|243:353,1,85
318,153,54359,1,8,0:0:0:0:
88,265,54531,1,0,0:0:0:0:
340,335,54702,1,12,0:0:0:0:
357,335,54788,1,2,0:0:0:0:
374,336,54874,1,2,0:0:0:0:
390,336,54959,1,2,0:0:0:0:
407,336,55045,69,8,0:0:0:0:
451,320,55131,1,2,0:0:0:0:
470,277,55217,1,2,0:0:0:0:
459,231,55302,1,2,0:0:0:0:
416,212,55388,6,0,B|325:192|350:268|245:242,1,170,4|8,0:0|0:0,0:0:0:0:
69,117,55902,2,0,B|186:141|186:141|255:105,1,170
369,14,56417,2,0,L|354:97,1,85,8|0,0:0|0:0,0:0:0:0:
201,273,56759,70,0,B|138:264|138:264|101:286|101:286|38:280,1,170,0|8,0:0|0:0,0:0:0:0:
307,206,57274,1,0,0:0:0:0:
180,375,57445,1,0,0:0:0:0:
81,178,57617,1,0,0:0:0:0:
344,295,57788,2,0,P|385:280|427:282,1,85,8|0,0:0|0:0,0:0:0:0:
183,102,58131,6,0,B|153:215|153:215|194:261,1,170,0|8,0:0|0:0,0:0:0:0:
357,168,58645,1,0,0:0:0:0:
255,19,58817,2,0,P|263:56|269:105,1,85,0|0,0:0|0:0,0:0:0:0:
479,257,59159,2,0,P|484:212|492:173,1,85,8|0,0:0|0:0,0:0:0:0:
387,361,59502,69,4,0:0:0:0:
212,279,59674,1,2,0:0:0:0:
182,283,59759,1,2,0:0:0:0:
152,287,59845,1,8,0:0:0:0:
309,159,60017,5,2,0:0:0:0:
339,163,60102,1,2,0:0:0:0:
369,167,60188,1,8,0:0:0:0:
190,57,60359,69,2,0:0:0:0:
160,61,60444,1,2,0:0:0:0:
130,65,60531,21,0,0:0:0:0:
113,63,60617,1,0,0:0:0:0:
96,61,60702,1,0,0:0:0:0:
78,59,60788,1,0,0:0:0:0:
60,57,60874,69,4,0:0:0:0:
211,229,61045,2,0,P|252:221|294:213,1,85,0|8,0:0|0:0,0:0:0:0:
226,32,61388,69,0,0:0:0:0:
84,242,61559,2,0,P|66:196|99:142,1,85
226,32,61902,5,8,0:0:0:0:
384,181,62074,2,0,P|425:172|467:164,1,85,0|0,0:0|0:0,0:0:0:0:
246,302,62417,69,0,0:0:0:0:
326,36,62588,2,0,P|355:67|349:122,1,85,8|0,0:0|0:0,0:0:0:0:
90,140,62931,6,0,P|133:136|174:125,1,85,0|0,0:0|0:0,0:0:0:0:
429,280,63274,2,0,P|386:283|345:294,1,85,8|0,0:0|0:0,0:0:0:0:
355,64,63617,69,0,0:0:0:0:
192,222,63788,2,0,P|128:216|96:194,1,85,0|8,0:0|0:0,0:0:0:0:
355,64,64131,5,0,0:0:0:0:
293,337,64302,2,0,L|276:240,1,85
486,156,64645,69,8,0:0:0:0:
290,5,64817,2,0,P|266:49|270:94,1,85,0|0,0:0|0:0,0:0:0:0:
448,229,65159,5,0,0:0:0:0:
168,74,65331,1,8,0:0:0:0:
298,338,65502,1,0,0:0:0:0:
436,80,65674,69,4,0:0:0:0:
203,174,65845,1,2,0:0:0:0:
173,171,65931,1,2,0:0:0:0:
143,168,66017,1,8,0:0:0:0:
113,165,66102,1,2,0:0:0:0:
83,160,66188,1,2,0:0:0:0:
53,156,66274,1,2,0:0:0:0:
23,152,66359,6,0,B|137:130|137:130|158:98|114:53,1,170,4|8,0:0|0:0,0:0:0:0:
306,272,66874,2,0,P|229:276|137:293,1,170,0|0,0:0|0:0,0:0:0:0:
311,163,67388,2,0,P|344:160|407:203,1,85,8|0,0:0|0:0,0:0:0:0:
147,40,67731,70,0,B|167:163|167:163|177:137|196:128,1,170,0|8,0:0|0:0,0:0:0:0:
381,352,68245,1,0,0:0:0:0:
185,264,68417,1,0,0:0:0:0:
365,139,68588,1,0,0:0:0:0:
279,384,68760,2,0,P|274:341|267:300,1,85,8|0,0:0|0:0,0:0:0:0:
100,95,69102,5,0,0:0:0:0:
364,234,69274,1,0,0:0:0:0:
81,356,69445,1,8,0:0:0:0:
144,17,69788,70,0,P|152:58|160:100,1,85,0|0,0:0|0:0,0:0:0:0:
8,256,70131,2,0,P|1:223|37:171,1,85,8|0,0:0|0:0,0:0:0:0:
176,323,70474,5,0,0:0:0:0:
478,221,70645,1,2,0:0:0:0:
432,211,70731,1,2,0:0:0:0:
386,201,70817,1,8,0:0:0:0:
340,193,70902,1,2,0:0:0:0:
293,185,70988,1,2,0:0:0:0:
246,177,71074,1,2,0:0:0:0:
201,165,71159,6,0,B|169:116|131:41|203:-13|251:3|265:74|226:103|186:69,1,255.000009727478,8|4,0:0|0:0,0:0:0:0:
256,192,71931,12,0,73217,0:0:0:0:
114,92,81445,38,0,L|131:176,1,85,4|2,0:0|0:0,0:0:0:0:
83,242,81702,1,2,0:0:0:0:
63,251,81788,1,2,0:0:0:0:
41,249,81874,1,2,0:0:0:0:
24,235,81959,1,2,0:0:0:0:
138,350,82131,2,0,P|177:335|247:336,1,85,8|0,0:0|0:0,0:0:0:0:
381,209,82474,2,2,P|320:229|255:183,1,127.5,0|0,0:0|0:0,0:2:0:0:
249,172,82817,53,0,0:0:0:0:
249,172,82988,1,0,0:0:0:0:
340,79,83159,2,0,L|327:145,1,68,8|0,0:0|0:0,0:0:0:0:
389,217,83502,1,0,0:0:0:0:
235,255,83674,2,0,P|267:244|304:248,1,68,8|0,0:0|0:0,0:0:0:0:
465,345,84017,70,0,L|387:334,1,68,8|0,0:0|0:0,0:0:0:0:
286,213,84359,1,0,0:0:0:0:
308,326,84531,1,8,0:0:0:0:
276,199,84702,1,0,0:0:0:0:
377,265,84874,1,0,0:0:0:0:
217,321,85045,1,0,0:0:0:0:
390,263,85217,1,8,0:0:0:0:
193,162,85388,1,2,0:2:0:0:
179,164,85474,1,2,0:2:0:0:
165,166,85559,5,2,0:2:0:0:
315,212,85731,1,0,0:0:0:0:
269,362,85902,1,8,0:0:0:0:
120,315,86074,1,0,0:0:0:0:
120,315,86417,69,8,0:0:0:0:
315,212,86588,1,0,0:0:0:0:
127,97,86759,1,8,0:0:0:0:
246,297,86931,5,4,0:0:0:0:
333,61,87102,1,4,0:0:0:0:
336,84,87188,1,4,0:0:0:0:
339,107,87274,1,6,0:0:0:0:
342,130,87359,1,6,0:0:0:0:
346,153,87445,1,6,0:0:0:0:
350,176,87531,1,4,0:0:0:0:
353,199,87617,69,4,0:0:0:0:
512,317,87788,1,4,0:0:0:0:
484,296,87874,1,4,0:0:0:0:
450,298,87959,1,12,0:0:0:0:
314,384,88131,1,4,0:0:0:0:
314,384,88217,1,4,0:0:0:0:
314,384,88302,6,0,P|313:354|303:316,1,68
189,185,88645,1,8,0:0:0:0:
208,274,88817,1,0,0:0:0:0:
312,189,88988,1,0,0:0:0:0:
85,238,89159,2,0,P|54:224|0:231,1,68,8|0,0:0|0:0,0:0:0:0:
126,365,89502,70,0,L|199:359,1,68,8|0,0:0|0:0,0:0:0:0:
352,292,89845,2,0,P|369:326|351:375,1,68,0|8,0:0|0:0,0:0:0:0:
245,259,90188,1,0,0:0:0:0:
373,195,90359,1,0,0:0:0:0:
271,96,90531,2,0,L|280:163,1,68,0|8,0:0|0:0,0:0:0:0:
101,251,90874,1,2,0:2:0:0:
87,248,90959,1,2,0:2:0:0:
73,245,91045,5,4,0:2:0:0:
244,340,91217,1,0,0:0:0:0:
373,195,91388,1,8,0:0:0:0:
251,359,91559,1,0,0:0:0:0:
251,359,91902,69,8,0:0:0:0:
279,218,92074,1,0,0:0:0:0:
303,77,92245,1,8,0:0:0:0:
175,215,92417,5,0,0:0:0:0:
375,166,92588,1,0,0:0:0:0:
159,207,92759,1,8,0:0:0:0:
389,173,92931,1,0,0:0:0:0:
96,47,93102,21,2,0:0:0:0:
92,80,93188,1,2,0:0:0:0:
88,113,93274,1,2,0:0:0:0:
84,146,93359,1,2,0:0:0:0:
79,179,93445,54,0,P|60:175|36:170,1,42.5
167,245,93617,2,0,P|150:247|119:253,1,42.5
31,262,93788,21,4,0:0:0:0:
168,169,93959,1,0,0:0:0:0:
0,125,94131,2,0,P|45:127|89:104,1,76.4999976654053,8|0,0:0|0:0,0:0:0:0:
196,4,94474,2,0,P|189:38|180:94,1,76.4999976654053,0|8,0:0|0:0,0:0:0:0:
285,58,94817,1,0,0:0:0:0:
93,25,94988,1,8,0:0:0:0:
244,161,95159,54,0,P|281:163|315:146,1,76.4999976654053,0|0,0:0|0:0,0:0:0:0:
504,72,95502,2,0,P|466:64|428:61,1,76.4999976654053,8|0,0:0|0:0,0:0:0:0:
331,231,95845,1,0,0:0:0:0:
489,177,96017,1,0,0:0:0:0:
324,23,96188,2,0,P|331:61|337:99,1,76.4999976654053,8|4,0:0|0:2,0:0:0:0:
331,113,96445,1,0,0:0:0:0:
322,125,96531,22,0,P|286:108|231:108,1,76.4999976654053,4|0,0:2|0:0,0:0:0:0:
106,236,96874,1,8,0:0:0:0:
265,198,97045,1,0,0:0:0:0:
143,80,97217,1,0,0:0:0:0:
183,178,97388,1,8,0:0:0:0:
0,177,97559,2,0,P|40:148|84:156,1,76.4999976654053,0|8,0:0|0:0,0:0:0:0:
196,270,97902,53,0,0:0:0:0:
326,121,98074,2,0,P|321:102|317:83,1,38.2499988327027,0|0,0:0|0:0,0:0:0:0:
378,24,98245,1,8,0:0:0:0:
412,19,98331,1,2,0:0:0:0:
443,32,98417,1,2,0:0:0:0:
463,59,98502,1,0,0:0:0:0:
465,93,98588,1,0,0:0:0:0:
330,206,98759,1,0,0:0:0:0:
317,215,98845,1,0,0:0:0:0:
305,224,98931,2,0,P|266:217|228:212,1,76.4999976654053,8|0,0:0|0:0,0:0:0:0:
215,218,99188,1,0,0:0:0:0:
202,226,99274,22,0,P|186:258|216:310,1,76.4999976654053,0|0,0:0|0:0,0:0:0:0:
285,116,99617,1,8,0:0:0:0:
89,241,99788,1,0,0:0:0:0:
307,341,99959,2,0,P|347:326|383:333,1,76.4999976654053,0|8,0:0|0:0,0:0:0:0:
249,193,100302,1,0,0:0:0:0:
144,347,100474,1,8,0:0:0:0:
144,347,100559,1,0,0:0:0:0:
144,347,100645,54,0,L|129:256,1,76.4999976654053,0|0,0:0|0:0,0:0:0:0:
291,122,100988,1,8,0:0:0:0:
253,284,101159,1,0,0:0:0:0:
150,152,101331,1,0,0:0:0:0:
408,214,101502,1,0,0:0:0:0:
225,363,101674,2,0,P|188:352|150:350,1,76.4999976654053,8|4,0:0|0:2,0:0:0:0:
135,356,101931,1,0,0:0:0:0:
122,364,102017,22,0,L|29:373,1,76.4999976654053,4|0,0:2|0:0,0:0:0:0:
219,199,102359,2,0,P|235:223|230:278,1,76.4999976654053,8|0,0:0|0:0,0:0:0:0:
121,131,102702,1,0,0:0:0:0:
363,224,102874,1,0,0:0:0:0:
196,363,103045,2,0,P|182:349|81:359,1,114.749996498108,8|0,0:0|0:0,0:0:0:0:
11,369,103388,70,0,B|48:334|48:334|31:259,1,127.500004863739,0|0,0:0|0:0,0:0:0:0:
193,123,103617,2,0,L|175:251,1,127.500004863739,0|0,0:0|0:0,0:0:0:0:
15,155,103845,2,0,B|58:164|58:164|116:122,1,85.0000032424928,0|0,0:0|0:0,0:0:0:0:
264,28,104074,54,0,L|269:71,1,42.5,8|0,0:0|0:0,0:0:0:0:
490,292,105102,6,0,P|439:298|409:273,1,85
161,52,105788,70,0,L|163:66,1,10.625,8|0,0:0|0:0,0:0:0:0:
10,311,106131,54,0,B|106:288|78:359|170:338,1,170,4|8,0:0|0:0,0:0:0:0:
312,191,106645,2,0,B|238:144|238:144|204:223,1,170,0|0,0:0|0:0,0:0:0:0:
382,333,107159,2,0,P|421:315|463:313,1,85,8|0,0:0|0:0,0:0:0:0:
205,219,107502,6,0,B|86:247|86:247|31:205,1,170,0|8,0:0|0:0,0:0:0:0:
277,129,108017,2,0,B|338:133|338:133|372:168|372:168|435:173,1,170
201,37,108531,2,0,P|176:73|182:119,1,85,8|0,0:0|0:0,0:0:0:0:
352,330,108874,70,0,B|455:304|455:304|489:317|488:353,1,170,0|8,0:0|0:0,0:0:0:0:
243,229,109388,1,0,0:0:0:0:
359,160,109559,2,0,P|400:169|441:178,1,85,0|0,0:0|0:0,0:0:0:0:
163,91,109902,2,0,P|121:100|80:109,1,85,8|0,0:0|0:0,0:0:0:0:
266,14,110245,6,0,P|296:56|284:105,1,85,0|0,0:0|0:0,0:0:0:0:
159,242,110588,1,8,0:0:0:0:
417,150,110759,1,0,0:0:0:0:
175,37,110931,1,12,0:0:0:0:
158,40,111017,1,2,0:0:0:0:
141,44,111102,1,2,0:0:0:0:
124,47,111188,1,2,0:0:0:0:
107,51,111274,69,8,0:0:0:0:
68,69,111359,1,2,0:0:0:0:
52,108,111445,1,2,0:0:0:0:
71,145,111531,1,2,0:0:0:0:
107,167,111617,6,0,B|170:158|170:158|207:180|207:180|270:174,1,170,4|8,0:0|0:0,0:0:0:0:
419,50,112131,2,0,B|382:169|382:169|405:207,1,170,0|0,0:0|0:0,0:0:0:0:
217,74,112645,2,0,P|260:81|299:65,1,85,8|0,0:0|0:0,0:0:0:0:
501,177,112988,70,0,B|439:137|371:173|371:173|389:212,1,170,0|8,0:0|0:0,0:0:0:0:
190,380,113502,1,0,0:0:0:0:
366,289,113674,1,0,0:0:0:0:
191,180,113845,1,0,0:0:0:0:
347,376,114017,2,0,P|387:361|430:361,1,85,8|0,0:0|0:0,0:0:0:0:
173,262,114359,6,0,B|61:288|61:288|33:272|45:232,1,170,0|8,0:0|0:0,0:0:0:0:
230,133,114874,1,0,0:0:0:0:
138,66,115045,2,0,P|120:103|119:145,1,85
292,290,115388,2,0,P|309:252|310:210,1,85,8|0,0:0|0:0,0:0:0:0:
177,374,115731,69,4,0:0:0:0:
398,284,115902,1,2,0:0:0:0:
440,289,115988,1,2,0:0:0:0:
477,310,116074,1,8,0:0:0:0:
319,181,116245,5,2,0:0:0:0:
357,164,116331,1,2,0:0:0:0:
400,164,116417,1,8,0:0:0:0:
217,92,116588,69,2,0:0:0:0:
241,58,116674,1,2,0:0:0:0:
278,36,116759,21,0,0:0:0:0:
299,36,116845,1,0,0:0:0:0:
320,39,116931,1,0,0:0:0:0:
341,41,117017,1,0,0:0:0:0:
361,44,117102,69,4,0:0:0:0:
169,205,117274,2,0,P|112:207|79:177,1,85,0|8,0:0|0:0,0:0:0:0:
299,36,117617,69,0,0:0:0:0:
468,222,117788,2,0,P|484:177|438:126,1,85
375,359,118131,5,8,0:0:0:0:
149,284,118302,2,0,P|94:298|63:322,1,85,0|0,0:0|0:0,0:0:0:0:
375,359,118645,69,0,0:0:0:0:
270,78,118817,2,0,P|242:112|241:162,1,85,8|0,0:0|0:0,0:0:0:0:
428,249,119159,6,0,P|501:236|532:237,1,85,0|0,0:0|0:0,0:0:0:0:
130,153,119502,2,0,P|57:166|26:165,1,85,8|0,0:0|0:0,0:0:0:0:
395,42,119845,69,0,0:0:0:0:
260,254,120017,2,0,P|245:211|266:164,1,85,0|8,0:0|0:0,0:0:0:0:
427,384,120359,5,0,0:0:0:0:
197,301,120531,2,0,P|155:303|115:318,1,85,0|0,0:0|0:0,0:0:0:0:
348,218,120874,69,8,0:0:0:0:
229,37,121045,2,0,P|236:78|243:120,1,85,0|0,0:0|0:0,0:0:0:0:
302,377,121388,5,0,0:0:0:0:
118,240,121559,1,8,0:0:0:0:
398,148,121731,1,0,0:0:0:0:
229,37,121902,69,0,0:0:0:0:
16,214,122074,1,2,0:0:0:0:
38,178,122159,1,2,0:0:0:0:
72,152,122245,1,8,0:0:0:0:
113,143,122331,1,2,0:0:0:0:
155,149,122417,1,2,0:0:0:0:
192,168,122502,1,2,0:0:0:0:
223,196,122588,6,0,B|318:166|318:166|365:183|353:251,1,170,4|8,0:0|0:0,0:0:0:0:
144,101,123102,2,0,P|86:159|98:240,1,170,0|0,0:0|0:0,0:0:0:0:
298,89,123617,2,0,P|288:48|278:7,1,85,8|0,0:0|0:0,0:0:0:0:
168,188,123959,70,0,B|124:153|75:167|75:167|51:203|0:206,1,170,0|8,0:0|0:0,0:0:0:0:
275,88,124474,1,0,0:0:0:0:
163,301,124645,1,0,0:0:0:0:
21,101,124817,1,0,0:0:0:0:
280,220,124988,2,0,P|321:205|362:202,1,85,8|0,0:0|0:0,0:0:0:0:
168,75,125331,5,0,0:0:0:0:
218,364,125502,1,0,0:0:0:0:
165,62,125674,1,8,0:0:0:0:
165,62,126017,70,0,P|207:53|249:46,1,85,0|0,0:0|0:0,0:0:0:0:
409,192,126359,2,0,P|368:203|329:180,1,85,8|0,0:0|0:0,0:0:0:0:
457,89,126702,5,0,0:0:0:0:
512,284,126874,1,0,0:0:0:0:
332,183,127045,21,8,0:0:0:0:
319,184,127131,1,2,0:0:0:0:
306,185,127217,1,2,0:0:0:0:
293,186,127302,1,2,0:0:0:0:
280,188,127388,1,2,0:0:0:0:
267,190,127474,1,2,0:0:0:0:
254,191,127559,1,2,0:0:0:0:
241,192,127645,1,2,0:0:0:0:
228,193,127731,70,0,P|196:201|233:199,1,118.999996368408,8|4,0:0|0:0,0:0:0:0:
256,192,128159,12,0,129445,0:0:0:0:
306,156,133388,5,0,0:0:0:0:
306,156,133474,1,0,0:0:0:0:
306,156,133559,2,0,P|335:152|365:149,1,59.4999981842042,4|0,0:0|0:0,0:0:0:0:
251,229,133902,2,0,P|221:225|191:222,1,59.4999981842042,0|0,0:0|0:0,0:0:0:0:
111,276,134245,1,0,0:0:0:0:
153,361,134417,1,0,0:0:0:0:
19,283,134588,1,0,0:0:0:0:
191,222,134759,1,0,0:0:0:0:
94,142,134931,70,0,P|83:164|90:212,1,59.4999981842042,0|0,0:0|0:0,0:0:0:0:
200,280,135274,2,0,L|190:218,1,59.4999981842042
278,162,135617,2,0,P|313:160|357:184,1,59.4999981842042,0|0,0:0|0:0,0:0:0:0:
195,95,135959,2,0,P|166:103|137:100,1,59.4999981842042,0|0,0:0|0:0,0:0:0:0:
59,40,136302,5,0,0:0:0:0:
132,189,136474,1,0,0:0:0:0:
0,146,136645,2,0,P|28:134|65:129,1,59.4999981842042,0|0,0:0|0:0,0:0:0:0:
49,226,136988,1,0,0:0:0:0:
196,129,137159,1,0,0:0:0:0:
78,50,137331,2,0,P|82:79|86:108,1,59.4999981842042,0|0,0:0|0:0,0:0:0:0:
211,277,137674,69,0,0:0:0:0:
49,226,137845,1,0,0:0:0:0:
196,129,138017,1,0,0:0:0:0:
35,219,138188,1,0,0:0:0:0:
225,285,138359,1,0,0:0:0:0:
135,201,138531,1,0,0:0:0:0:
33,359,138702,2,0,P|79:344|113:354,1,59.4999981842042,0|0,0:0|0:0,0:0:0:0:
310,369,139045,37,0,0:0:0:0:
469,278,139217,1,0,0:0:0:0:
315,195,139388,2,0,P|295:217|318:285,1,76.4999976654053,8|0,0:0|0:0,0:0:0:0:
401,206,139731,1,0,0:0:0:0:
206,265,139902,1,8,0:0:0:0:
395,369,140074,2,0,P|437:354|475:364,1,76.4999976654053,0|0,0:0|0:0,0:0:0:0:
312,267,140417,54,0,L|176:248,1,114.749996498108,0|0,0:0|0:0,0:0:0:0:
185,259,140759,2,0,P|172:277|179:335,1,76.4999976654053,8|2,0:0|0:0,0:0:0:0:
164,340,141017,1,2,0:0:0:0:
152,349,141102,69,2,0:0:0:0:
136,348,141188,1,2,0:0:0:0:
120,347,141274,1,2,0:0:0:0:
104,346,141359,1,2,0:0:0:0:
72,361,141445,53,2,0:0:0:0:
44,340,141531,1,2,0:0:0:0:
38,305,141617,1,2,0:0:0:0:
54,275,141702,1,2,0:0:0:0:
82,254,141788,70,0,P|147:267|195:226,1,114.749996498108,0|0,0:0|0:0,0:0:0:0:
195,230,142131,2,0,L|205:305,1,76.4999976654053,8|0,0:0|0:0,0:0:0:0:
338,245,142474,1,0,0:0:0:0:
280,118,142645,2,0,L|269:193,1,76.4999976654053,8|0,0:0|0:0,0:0:0:0:
325,325,142988,1,0,0:0:0:0:
496,249,143159,54,0,P|439:238|383:228,1,114.749996498108,0|0,0:0|0:0,0:0:0:0:
368,234,143502,1,0,0:0:0:0:
258,131,143674,1,0,0:0:0:0:
258,131,143759,1,0,0:0:0:0:
258,131,143845,69,2,0:0:0:0:
272,127,143931,1,2,0:0:0:0:
287,125,144017,1,2,0:0:0:0:
302,123,144102,1,2,0:0:0:0:
328,94,144188,53,0,0:0:0:0:
366,91,144274,1,0,0:0:0:0:
394,116,144359,1,0,0:0:0:0:
392,154,144445,1,0,0:0:0:0:
367,183,144531,70,0,P|421:148|491:177,1,114.749996498108,0|0,0:0|0:0,0:0:0:0:
476,170,144874,2,0,P|481:132|491:95,1,76.4999976654053,8|0,0:0|0:0,0:0:0:0:
358,3,145217,1,0,0:0:0:0:
394,116,145388,1,8,0:0:0:0:
267,72,145559,1,0,0:0:0:0:
480,26,145731,1,0,0:0:0:0:
382,213,145902,54,0,P|324:206|268:199,1,114.749996498108,0|0,0:0|0:0,0:0:0:0:
255,209,146245,2,0,P|232:247|242:291,1,76.4999976654053,8|2,0:0|0:0,0:0:0:0:
243,290,146502,1,2,0:0:0:0:
249,303,146588,69,2,0:0:0:0:
233,306,146674,1,2,0:0:0:0:
218,309,146759,1,2,0:0:0:0:
202,312,146845,1,2,0:0:0:0:
178,299,146931,53,2,0:0:0:0:
163,321,147017,1,2,0:0:0:0:
139,332,147102,1,2,0:0:0:0:
112,329,147188,1,2,0:0:0:0:
89,314,147274,70,0,P|70:263|97:205,1,114.749996498108,0|0,0:0|0:0,0:0:0:0:
103,198,147617,2,0,P|64:197|27:189,1,76.4999976654053,8|0,0:0|0:0,0:0:0:0:
183,144,147959,1,0,0:0:0:0:
126,33,148131,2,0,P|106:63|112:115,1,76.4999976654053,8|0,0:0|0:0,0:0:0:0:
183,144,148474,1,0,0:0:0:0:
99,295,148645,54,0,P|94:237|86:180,1,114.749996498108,0|0,0:0|0:0,0:0:0:0:
75,170,148988,1,8,0:0:0:0:
192,120,149159,1,0,0:0:0:0:
143,17,149331,5,8,0:0:0:0:
118,29,149445,2,0,L|106:104,1,50.9999984436036,2|2,0:0|0:0,0:0:0:0:
256,198,149674,5,8,0:0:0:0:
281,186,149788,2,0,L|290:114,1,50.9999984436036,2|2,0:0|0:0,0:0:0:0:
411,57,150017,6,0,P|467:44|510:119,1,127.5,4|0,0:0|0:0,0:0:0:0:
446,153,150359,2,0,P|404:143|362:136,1,85,0|0,0:0|0:0,0:0:0:0:
205,279,150702,1,8,0:0:0:0:
385,227,150874,1,0,0:0:0:0:
241,149,151045,1,0,0:0:0:0:
319,356,151217,1,8,0:0:0:0:
129,197,151388,70,0,B|111:162|111:162|132:63,1,127.5,0|0,0:0|0:0,0:0:0:0:
42,19,151731,2,0,P|49:60|52:103,1,85,0|0,0:0|0:0,0:0:0:0:
241,149,152074,2,0,B|314:127|304:171|376:153,1,127.5,8|0,0:0|0:0,0:0:0:0:
432,101,152417,2,0,P|451:139|450:181,1,85,0|0,0:0|0:0,0:0:0:0:
244,373,152759,5,0,0:0:0:0:
297,13,153102,1,0,0:0:0:0:
19,211,153445,69,8,0:0:0:0:
139,62,153617,2,0,B|121:23|121:23|61:69|95:148,1,170,0|2,0:0|0:0,0:0:0:0:
239,235,154131,2,0,B|331:256|306:188|402:211,1,170,0|0,0:0|0:0,0:0:0:0:
401,211,154645,1,0,0:0:0:0:
265,91,154817,5,8,0:0:0:0:
342,340,154988,1,0,0:0:0:0:
277,79,155159,69,8,0:0:0:0:
157,264,155331,1,0,0:0:0:0:
344,188,155502,6,0,B|408:166|408:166|476:201,1,127.5,4|0,0:0|0:0,0:0:0:0:
512,128,155845,2,0,P|507:67|477:30,1,85,0|0,0:0|0:0,0:0:0:0:
344,188,156188,1,8,0:0:0:0:
507,278,156359,1,0,0:0:0:0:
424,102,156531,1,0,0:0:0:0:
340,351,156702,1,8,0:0:0:0:
172,213,156874,70,0,P|178:149|187:86,1,127.5,0|0,0:0|0:0,0:0:0:0:
128,26,157217,2,0,P|101:50|107:103,1,85,0|0,0:0|0:0,0:0:0:0:
329,169,157559,2,0,P|381:133|459:151,1,127.5,8|0,0:0|0:0,0:0:0:0:
505,198,157902,2,0,P|511:153|521:102,1,85,0|0,0:0|0:0,0:0:0:0:
389,7,158245,5,0,0:0:0:0:
459,373,158588,1,0,0:0:0:0:
79,236,158931,69,8,0:0:0:0:
26,34,159102,2,0,B|54:150|54:150|25:159|-6:197,1,170,0|2,0:0|0:0,0:0:0:0:
185,58,159617,2,0,P|247:32|312:63,1,127.5,0|0,0:0|0:0,0:0:0:0:
319,71,159959,1,0,0:0:0:0:
320,346,160302,5,8,0:0:0:0:
431,182,160474,1,6,0:0:0:0:
338,236,160645,1,4,0:0:0:0:
83,52,160988,21,0,0:0:0:0:
84,56,161074,1,0,0:0:0:0:
85,60,161159,1,0,0:0:0:0:
86,64,161245,1,0,0:0:0:0:
87,68,161331,1,0,0:0:0:0:
88,72,161417,1,0,0:0:0:0:
89,76,161502,1,0,0:0:0:0:
90,80,161588,1,0,0:0:0:0:
91,84,161674,5,2,0:3:0:0:
88,113,161759,1,2,0:3:0:0:
85,142,161845,1,2,0:3:0:0:
82,171,161931,1,2,0:3:0:0:
79,200,162017,22,0,L|64:169,1,21.25,2|2,0:3|0:3,0:3:0:0:
75,229,162102,2,0,L|96:205,1,21.25,2|2,0:3|0:3,0:3:0:0:
72,258,162188,2,0,L|55:222,1,21.25,2|2,0:3|0:3,0:3:0:0:
69,287,162274,2,0,L|95:266,1,21.25,2|2,0:3|0:3,0:3:0:0:
66,326,162359,6,0,B|163:297|163:297|205:309|208:353,1,170,4|8,0:0|0:0,0:0:0:0:
414,199,162874,2,0,P|313:222|254:159,1,170,0|0,0:0|0:0,0:0:0:0:
114,64,163388,2,0,P|152:43|217:49,1,85,8|0,0:0|0:0,0:0:0:0:
163,281,163731,6,0,B|100:272|100:272|63:294|63:294|0:288,1,170,0|8,0:0|0:0,0:0:0:0:
268,368,164245,2,0,B|297:323|297:323|270:207,1,170,0|0,0:0|0:0,0:0:0:0:
416,63,164759,2,0,P|404:127|403:176,1,85,8|0,0:0|0:0,0:0:0:0:
226,50,165102,70,0,B|129:32|158:100|61:81,1,170,0|8,0:0|0:0,0:0:0:0:
255,155,165617,1,0,0:0:0:0:
164,264,165788,2,0,P|149:224|162:181,1,85
363,116,166131,2,0,P|377:155|367:195,1,85,8|0,0:0|0:0,0:0:0:0:
476,364,166474,5,0,0:0:0:0:
273,237,166645,1,0,0:0:0:0:
486,127,166817,2,0,P|508:149|490:215,1,85,8|0,0:0|0:0,0:0:0:0:
322,335,167159,1,12,0:0:0:0:
305,331,167245,1,2,0:0:0:0:
288,328,167331,1,2,0:0:0:0:
271,324,167417,1,2,0:0:0:0:
254,320,167502,69,8,0:0:0:0:
222,290,167588,1,2,0:0:0:0:
179,283,167674,1,2,0:0:0:0:
145,307,167759,1,2,0:0:0:0:
144,349,167845,6,0,P|117:271|173:203,1,170,4|8,0:0|0:0,0:0:0:0:
411,315,168359,2,0,B|360:347|360:347|253:319,1,170,0|0,0:0|0:0,0:0:0:0:
429,200,168874,2,0,P|471:206|512:213,1,85,8|0,0:0|0:0,0:0:0:0:
316,89,169217,70,0,B|265:106|251:172|287:206|287:206|330:190,1,170,0|8,0:0|0:0,0:0:0:0:
408,71,169731,1,0,0:0:0:0:
152,179,169902,1,0,0:0:0:0:
395,290,170074,1,0,0:0:0:0:
244,33,170245,2,0,P|248:75|253:117,1,85,8|0,0:0|0:0,0:0:0:0:
150,307,170588,6,0,B|106:272|57:286|57:286|33:322|-18:325,1,170,0|8,0:0|0:0,0:0:0:0:
116,187,171102,1,0,0:0:0:0:
242,269,171274,2,0,P|289:263|327:260,1,85,0|0,0:0|0:0,0:0:0:0:
105,381,171617,2,0,P|88:330|115:284,1,85,8|0,0:0|0:0,0:0:0:0:
259,176,171959,69,8,0:0:0:0:
95,30,172131,1,2,0:0:0:0:
57,49,172217,1,2,0:0:0:0:
37,86,172302,1,8,0:0:0:0:
36,128,172388,1,2,0:0:0:0:
57,164,172474,1,2,0:0:0:0:
92,186,172559,1,2,0:0:0:0:
123,214,172645,1,4,0:0:0:0:
126,256,172731,1,4,0:0:0:0:
106,293,172817,1,4,0:0:0:0:
67,310,172902,1,4,0:0:0:0:
27,294,172988,69,4,0:0:0:0:
32,273,173074,1,4,0:0:0:0:
37,252,173159,1,4,0:0:0:0:
43,231,173245,1,4,0:0:0:0:
49,210,173331,21,4,0:0:0:0:
211,137,173502,1,0,0:0:0:0:
73,39,173674,1,8,0:0:0:0:
228,284,173845,69,0,0:0:0:0:
353,21,174017,2,0,P|375:47|376:108,1,85,0|0,0:0|0:0,0:0:0:0:
153,349,174359,5,8,0:0:0:0:
299,84,174531,1,0,0:0:0:0:
336,384,174702,1,0,0:0:0:0:
130,163,174874,1,0,0:0:0:0:
427,221,175045,2,0,P|486:215|519:186,1,85,8|0,0:0|0:0,0:0:0:0:
204,9,175388,70,0,P|190:62|184:99,1,85,0|0,0:0|0:0,0:0:0:0:
336,384,175731,2,0,P|350:331|356:294,1,85,8|0,0:0|0:0,0:0:0:0:
109,301,176074,5,0,0:0:0:0:
327,178,176245,1,0,0:0:0:0:
117,60,176417,1,8,0:0:0:0:
248,368,176588,69,0,0:0:0:0:
0,221,176759,2,0,P|51:194|106:201,1,85,0|0,0:0|0:0,0:0:0:0:
309,313,177102,5,8,0:0:0:0:
199,40,177274,1,0,0:0:0:0:
409,198,177445,1,0,0:0:0:0:
158,271,177617,1,0,0:0:0:0:
426,205,177788,1,8,0:0:0:0:
221,133,177959,1,0,0:0:0:0:
428,367,178131,69,0,0:0:0:0:
331,15,178302,1,2,0:0:0:0:
327,48,178388,1,2,0:0:0:0:
324,81,178474,1,8,0:0:0:0:
321,114,178559,1,2,0:0:0:0:
317,147,178645,1,2,0:0:0:0:
313,180,178731,1,2,0:0:0:0:
309,213,178817,6,0,B|362:187|413:212|413:212|452:190|425:145,1,170,4|8,0:0|0:0,0:0:0:0:
220,29,179331,2,0,P|167:72|205:188,1,170,0|0,0:0|0:0,0:0:0:0:
437,55,179845,2,0,P|392:54|343:40,1,85,8|0,0:0|0:0,0:0:0:0:
176,165,180188,70,0,B|196:288|196:288|206:262|225:253,1,170,0|8,0:0|0:0,0:0:0:0:
264,117,180702,1,0,0:0:0:0:
80,258,180874,1,0,0:0:0:0:
312,357,181045,1,0,0:0:0:0:
176,165,181217,2,0,P|184:114|194:51,1,85,8|0,0:0|0:0,0:0:0:0:
395,153,181559,5,0,0:0:0:0:
80,258,181731,1,0,0:0:0:0:
395,376,181902,1,8,0:0:0:0:
242,15,182245,70,0,P|248:56|256:119,1,85,0|0,0:0|0:0,0:0:0:0:
80,258,182588,2,0,P|79:209|125:171,1,85,8|0,0:0|0:0,0:0:0:0:
304,351,182931,5,8,0:0:0:0:
494,177,183102,1,2,0:0:0:0:
469,153,183188,1,2,0:0:0:0:
435,147,183274,1,8,0:0:0:0:
401,152,183359,1,2,0:0:0:0:
373,172,183445,1,2,0:0:0:0:
351,198,183531,1,2,0:0:0:0:
318,207,183617,1,12,0:0:0:0:
284,200,183702,1,4,0:0:0:0:
247,177,183788,53,4,0:0:0:0:
230,137,183874,1,4,0:0:0:0:
250,100,183959,1,12,0:0:0:0:
249,117,184045,53,6,0:0:0:0:
249,134,184131,1,6,0:0:0:0:
247,150,184217,1,6,0:0:0:0:
246,166,184302,37,4,0:0:0:0:
365,68,184474,1,0,0:0:0:0:
131,200,184645,1,8,0:0:0:0:
370,301,184817,1,0,0:0:0:0:
186,56,184988,5,0,0:0:0:0:
281,308,185159,1,8,0:0:0:0:
294,0,185331,69,0,0:0:0:0:
199,252,185502,1,8,0:0:0:0:
392,155,185674,6,0,P|441:133|490:149,1,85,0|0,0:0|0:0,0:0:0:0:
280,289,186017,2,0,L|196:274,1,85,8|0,0:0|0:0,0:0:0:0:
446,381,186359,2,0,P|460:338|437:285,1,85,0|8,0:0|0:0,0:0:0:0:
391,244,186617,1,2,0:0:0:0:
399,229,186702,1,0,0:0:0:0:
248,94,186874,1,8,0:0:0:0:
256,108,186959,1,2,0:0:0:0:
251,124,187045,70,0,P|207:119|149:115,1,85
343,16,187388,1,8,0:0:0:0:
277,255,187559,1,0,0:0:0:0:
507,173,187731,2,0,P|442:160|405:160,1,85,0|8,0:0|0:0,0:0:0:0:
273,19,188074,1,0,0:0:0:0:
473,75,188245,1,8,0:0:0:0:
294,232,188417,6,0,P|285:185|278:148,1,85,0|0,0:0|0:0,0:0:0:0:
511,315,188759,2,0,P|478:288|436:286,1,85,8|0,0:0|0:0,0:0:0:0:
237,363,189102,1,8,0:0:0:0:
182,353,189188,1,2,0:0:0:0:
127,344,189274,1,2,0:0:0:0:
72,336,189359,1,2,0:0:0:0:
17,326,189445,1,8,0:0:0:0:
447,40,189788,37,4,0:0:0:0:
230,211,189959,1,0,0:0:0:0:
457,312,190131,1,8,0:0:0:0:
280,21,190302,1,0,0:0:0:0:
500,199,190474,5,0,0:0:0:0:
215,356,190645,1,8,0:0:0:0:
374,91,190817,1,0,0:0:0:0:
490,384,190988,1,8,0:0:0:0:
110,127,191159,5,0,0:0:0:0:
407,227,191331,1,0,0:0:0:0:
96,122,191502,1,8,0:0:0:0:
387,10,191674,1,0,0:0:0:0:
243,356,191845,5,0,0:0:0:0:
394,90,192017,1,2,0:0:0:0:
430,79,192102,1,2,0:0:0:0:
467,86,192188,1,8,0:0:0:0:
497,109,192274,1,2,0:0:0:0:
512,143,192359,1,2,0:0:0:0:
508,181,192445,1,2,0:0:0:0:
484,211,192531,37,4,0:0:0:0:
325,24,192702,1,0,0:0:0:0:
175,185,192874,2,0,P|254:165|294:165,1,85,8|0,0:0|0:0,0:0:0:0:
437,330,193217,2,0,P|382:337|344:311,1,85,0|8,0:0|0:0,0:0:0:0:
257,164,193559,1,0,0:0:0:0:
512,284,193731,1,8,0:0:0:0:
231,377,193902,5,0,0:0:0:0:
374,224,194074,1,2,0:0:0:0:
370,203,194159,1,2,0:0:0:0:
366,181,194245,1,8,0:0:0:0:
362,159,194331,1,2,0:0:0:0:
359,137,194417,1,2,0:0:0:0:
354,116,194502,1,2,0:0:0:0:
349,95,194588,37,4,0:2:0:0:
161,191,194759,1,4,0:2:0:0:
430,286,194931,1,4,0:2:0:0:
