osu file format v14

[General]
AudioFilename: audio.mp3
AudioLeadIn: 0
PreviewTime: -1
Countdown: 1
SampleSet: None
StackLeniency: 0.7
Mode: 0
LetterboxInBreaks: 0
WidescreenStoryboard: 0

[Editor]
Bookmarks: 27385,32218,41552,74552,106218
DistanceSpacing: 0.9
BeatDivisor: 4
GridSize: 4
TimelineZoom: 1.5

[Metadata]
Title:Melody Line
TitleUnicode:Melody Lineの死亡率
Artist:ONE OK ROCK
ArtistUnicode:ONE OK ROCK
Creator:Bukkake Blast
Version:Extra
Source:
Tags:
BeatmapID:921332
BeatmapSetID:426738

[Difficulty]
HPDrainRate:6
CircleSize:4
OverallDifficulty:8.5
ApproachRate:9.2
SliderMultiplier:1.7
SliderTickRate:1

[Events]
//Background and Video events
//Break Periods
//Storyboard Layer 0 (Background)
//Storyboard Layer 1 (Fail)
//Storyboard Layer 2 (Pass)
//Storyboard Layer 3 (Foreground)
//Storyboard Sound Samples

[TimingPoints]
218.973869963459,333.333333333333,4,2,0,70,1,0
2302,-100,4,3,0,80,0,0
2802,-100,4,2,0,80,0,0
4968,-100,4,3,0,80,0,0
5468,-100,4,2,0,80,0,0
7635,-100,4,3,0,80,0,0
8135,-100,4,2,0,80,0,0
10218,-100,4,3,0,50,0,0
10885,-100,4,1,0,80,0,0
11552,-100,4,2,0,80,0,0
13552,-100,4,1,0,80,0,0
14302,-100,4,2,0,80,0,0
16218,-100,4,1,0,80,0,0
16885,-100,4,2,0,80,0,0
18885,-100,4,1,0,80,0,0
19468,-100,4,2,0,80,0,0
23385,-100,4,3,0,80,0,0
24385,-100,4,2,0,80,0,0
30552,-200,4,2,0,80,0,0
31468,-100,4,2,0,80,0,0
32635,-100,4,3,0,80,0,0
32802,-100,4,2,0,80,0,0
32968,-100,4,3,0,80,0,0
33135,-100,4,2,0,80,0,0
33468,-100,4,3,0,80,0,0
33635,-100,4,2,0,80,0,0
33968,-100,4,3,0,80,0,0
34135,-100,4,2,0,80,0,0
34302,-100,4,3,0,80,0,0
34802,-100,4,2,0,80,0,0
35135,-100,4,3,0,80,0,0
35302,-100,4,2,0,80,0,0
35635,-100,4,3,0,80,0,0
35802,-100,4,2,0,80,0,0
36135,-100,4,3,0,80,0,0
36302,-100,4,2,0,80,0,0
36635,-100,4,2,0,80,0,0
36885,-100,4,3,0,80,0,0
37468,-100,4,2,0,80,0,0
38302,-100,4,3,0,80,0,0
38468,-100,4,2,0,80,0,0
38802,-100,4,3,0,80,0,0
38968,-100,4,2,0,80,0,0
39635,-100,4,3,0,80,0,0
40135,-100,4,2,0,80,0,0
40635,-100,4,3,0,80,0,0
41552,-100,4,2,0,80,0,0
42214,-100,4,2,0,80,0,1
52802,-100,4,1,0,80,0,1
53218,-100,4,2,0,80,0,1
64218,-100,4,2,0,80,0,1
65135,-100,4,2,0,80,0,1
65302,-100,4,2,0,80,0,1
65468,-100,4,3,0,80,0,1
65635,-100,4,2,0,80,0,1
67468,-100,4,3,0,80,0,1
67802,-100,4,2,0,80,0,1
67968,-100,4,2,0,80,0,1
68135,-100,4,3,0,80,0,1
68302,-100,4,2,0,80,0,1
68802,-100,4,3,0,80,0,1
69135,-100,4,2,0,80,0,1
70135,-100,4,3,0,80,0,1
70468,-100,4,2,0,80,0,1
70802,-100,4,3,0,80,0,1
70968,-100,4,2,0,80,0,1
71468,-100,4,3,0,80,0,1
71802,-100,4,2,0,80,0,1
72635,-100,4,3,0,80,0,1
72968,-100,4,2,0,80,0,1
73302,-100,4,3,0,80,0,1
74381,-100,4,3,0,80,0,0
74885,-100,4,1,0,80,0,0
75552,-100,4,2,0,80,0,0
76802,-100,4,2,0,80,0,0
85552,-125,4,2,0,80,0,0
88218,-200,4,2,0,80,0,0
89218,-125,4,2,0,80,0,0
92885,-100,4,2,0,80,0,0
94718,-125,4,2,0,80,0,0
96218,-100,4,2,0,80,0,0
96468,-100,4,3,0,80,0,0
96635,-100,4,2,0,80,0,0
96968,-100,4,3,0,80,0,0
97135,-100,4,2,0,80,0,0
97468,-100,4,3,0,80,0,0
97635,-100,4,2,0,80,0,0
98548,-100,4,3,0,80,0,0
98964,-100,4,2,0,80,0,0
99131,-100,4,3,0,80,0,0
99298,-100,4,2,0,80,0,0
99631,-100,4,3,0,80,0,0
99798,-100,4,2,0,80,0,0
100131,-100,4,3,0,80,0,0
100298,-100,4,2,0,80,0,0
100631,-100,4,3,0,80,0,0
100798,-100,4,2,0,80,0,0
101131,-100,4,3,0,80,0,0
101631,-100,4,2,0,80,0,0
101798,-100,4,3,0,80,0,0
101964,-100,4,2,0,80,0,0
102298,-100,4,3,0,80,0,0
102464,-100,4,2,0,80,0,0
102798,-100,4,3,0,80,0,0
102964,-100,4,2,0,80,0,0
103798,-100,4,3,0,80,0,0

[HitObjects]
152,232,214,6,0,B|152:200|152:200|168:172|176:136,1,85
40,120,552,1,0,0:0:0:0:
168,76,718,2,0,B|220:80|252:120|244:164|244:164|300:196,1,170
56,272,1385,6,0,P|124:284|228:232,1,170
340,256,1885,2,0,B|384:224|360:148|360:148|400:76,1,170
272,188,2385,1,8,0:0:0:0:
196,340,2552,1,8,0:0:0:0:
137,181,2718,1,8,0:0:0:0:
104,56,2885,6,0,P|164:59|192:72,1,85
128,184,3218,1,0,0:0:0:0:
245,115,3385,2,0,B|220:157|220:157|274:230|247:296,1,170
124,127,4052,2,0,B|99:169|99:169|153:242|126:308,1,170
143,312,4552,2,0,B|192:306|192:306|278:360|333:297,1,170,0|0,0:3|0:0,0:0:0:0:
260,217,5052,2,4,L|260:128,2,85
310,66,5552,6,0,P|343:107|340:170,2,85
445,50,6052,2,0,P|471:127|460:228,1,170
231,74,6718,2,0,P|253:124|236:243,1,170
169,119,7218,2,0,P|241:109|368:141,1,170
246,229,7718,2,8,L|246:327,2,85
121,173,8218,5,0,0:0:0:0:
198,60,8385,1,0,0:0:0:0:
121,173,8552,1,0,0:0:0:0:
121,173,8718,2,0,B|171:268|65:285|154:358,1,170
304,124,9385,5,0,0:0:0:0:
131,200,9718,2,0,B|213:194|167:271|288:279,1,170
269,108,10218,1,4,0:0:0:0:
306,127,10302,1,4,0:0:0:0:
336,158,10385,1,4,0:0:0:0:
360,193,10468,1,4,0:0:0:0:
375,233,10552,1,4,0:0:0:0:
367,274,10635,1,4,0:0:0:0:
343,309,10718,1,4,0:0:0:0:
172,303,10885,5,0,0:0:0:0:
141,272,10968,1,0,0:0:0:0:
111,241,11052,1,0,0:0:0:0:
87,206,11135,1,0,0:0:0:0:
72,166,11218,1,0,0:0:0:0:
80,125,11302,1,0,0:0:0:0:
104,90,11385,1,0,0:0:0:0:
271,56,11552,6,0,P|239:91|242:156,1,85
400,160,11885,1,0,0:0:0:0:
317,309,12052,1,0,0:0:0:0:
357,101,12218,1,0,0:0:0:0:
276,251,12385,1,0,0:0:0:0:
138,88,12552,1,0,0:0:0:0:
31,219,12718,2,0,P|68:249|206:232,1,170,4|0,0:0|0:0,0:0:0:0:
138,88,13218,1,4,0:0:0:0:
400,47,13552,6,0,L|332:72,1,42.5
418,123,13718,2,0,L|472:156,1,42.5
357,198,13885,1,0,0:0:0:0:
319,218,13968,1,0,0:0:0:0:
277,229,14052,1,0,0:0:0:0:
234,233,14135,1,0,0:0:0:0:
191,230,14218,1,0,0:0:0:0:
178,60,14385,6,0,L|285:40,1,85
137,161,14718,1,0,0:0:0:0:
302,120,14885,1,0,0:0:0:0:
123,235,15052,1,0,0:0:0:0:
172,120,15218,2,0,P|148:76|112:63,1,85
68,178,15552,2,0,P|92:222|128:235,1,85
248,256,15885,2,0,P|224:212|188:199,1,85,4|0,0:0|0:0,0:0:0:0:
232,80,16218,5,0,0:0:0:0:
273,89,16302,1,0,0:0:0:0:
311,106,16385,1,0,0:0:0:0:
346,129,16468,1,0,0:0:0:0:
371,163,16552,1,0,0:0:0:0:
392,199,16635,1,0,0:0:0:0:
409,237,16718,1,0,0:0:0:0:
417,278,16802,1,0,0:0:0:0:
415,320,16885,1,0,0:0:0:0:
247,286,17052,6,0,L|169:228,2,85
211,119,17552,2,0,L|296:181,1,85
400,132,17885,2,0,L|320:76,1,85
398,134,18218,1,0,0:0:0:0:
244,176,18385,1,0,0:0:0:0:
160,264,18552,2,0,L|232:188,1,85,4|0,0:0|0:0,0:0:0:0:
226,55,18885,6,0,L|227:126,1,42.5
168,71,19052,2,0,L|167:149,1,42.5
106,130,19218,1,0,0:0:0:0:
87,168,19302,1,0,0:0:0:0:
76,208,19385,1,0,0:0:0:0:
261,208,19552,5,0,0:0:0:0:
361,71,19718,1,0,0:0:0:0:
421,230,19885,2,0,P|379:282|361:288,1,85
276,141,20218,1,0,0:0:0:0:
403,142,20385,1,0,0:0:0:0:
298,214,20552,2,0,B|255:256|255:256|201:223|135:259,1,170,4|0,0:0|0:0,0:0:0:0:
198,353,21052,1,0,0:0:0:0:
149,250,21218,2,0,L|149:147,1,85
258,71,21552,6,0,L|258:186,1,85
87,105,23385,5,4,0:0:0:0:
111,139,23468,1,4,0:0:0:0:
141,169,23552,1,4,0:0:0:0:
179,185,23635,1,4,0:0:0:0:
216,164,23718,1,4,0:0:0:0:
247,135,23802,1,4,0:0:0:0:
280,109,23885,1,4,0:0:0:0:
309,139,23968,1,4,0:0:0:0:
332,174,24052,1,4,0:0:0:0:
358,207,24135,1,4,0:0:0:0:
379,243,24218,2,0,B|343:340|343:340|245:307,1,170
191,226,24718,5,0,0:0:0:0:
166,100,24885,2,0,P|210:99|256:117,1,85
271,237,25218,1,0,0:0:0:0:
327,122,25385,1,0,0:0:0:0:
479,46,25552,2,0,B|416:71|416:71|436:132|402:200,1,170
248,112,26052,6,0,L|167:20,2,85
82,154,26552,1,0,0:0:0:0:
247,188,26718,1,0,0:0:0:0:
83,235,26885,1,0,0:0:0:0:
308,116,27385,6,0,L|389:208,2,85
139,139,27885,1,0,0:0:0:0:
284,49,28052,1,0,0:0:0:0:
194,192,28218,1,0,0:0:0:0:
142,114,28718,2,0,P|183:122|234:157,1,85
292,188,29052,2,0,P|330:222|340:261,1,85
223,222,29385,1,0,0:0:0:0:
141,248,29552,2,0,B|103:204|184:142|131:68,1,170
67,130,30052,2,0,B|64:167|34:199|46:218,2,85
42,48,30552,2,0,B|81:29|154:32|169:122|152:146,1,170
172,244,31552,5,0,0:0:0:0:
324,316,31718,1,0,0:0:0:0:
251,161,31885,2,0,L|251:271,1,85
124,132,32218,5,0,0:0:0:0:
329,74,32385,1,0,0:0:0:0:
332,286,32552,1,0,0:0:0:0:
413,137,32718,5,0,0:0:0:0:
266,223,32885,1,0,0:0:0:0:
214,60,33052,1,4,0:0:0:0:
155,166,33218,5,0,0:0:0:0:
403,226,33385,1,0,0:0:0:0:
175,343,33552,1,4,0:0:0:0:
313,130,33718,5,0,0:0:0:0:
112,59,33885,1,0,0:0:0:0:
118,271,34052,1,4,0:0:0:0:
209,80,34218,5,0,0:0:0:0:
379,79,34385,1,4,0:0:0:0:
360,117,34468,1,4,0:0:0:0:
336,152,34552,1,4,0:0:0:0:
308,184,34635,1,4,0:0:0:0:
282,217,34718,1,4,0:0:0:0:
121,160,34885,5,0,0:0:0:0:
138,329,35052,1,0,0:0:0:0:
201,172,35218,1,4,0:0:0:0:
25,292,35385,5,0,0:0:0:0:
61,82,35552,1,0,0:0:0:0:
189,250,35718,1,0,0:0:0:0:
269,52,35885,5,0,0:0:0:0:
376,184,36052,1,0,0:0:0:0:
206,188,36218,1,0,0:0:0:0:
284,338,36385,5,0,0:0:0:0:
206,186,36552,1,0,0:0:0:0:
376,184,36718,1,0,0:0:0:0:
269,52,36885,6,0,P|219:60|171:97,1,85,0|4,0:0|0:0,0:0:0:0:
159,107,37135,1,4,0:0:0:0:
138,143,37218,1,4,0:0:0:0:
121,182,37302,1,4,0:0:0:0:
110,222,37385,1,4,0:0:0:0:
270,165,37552,2,0,P|251:205|251:277,2,85
414,255,38052,1,0,0:0:0:0:
414,255,38218,1,0,0:0:0:0:
386,86,38385,2,0,P|331:57|278:51,2,85,4|0|0,0:0|0:0|0:0,0:0:0:0:
302,179,38885,1,4,0:0:0:0:
70,179,39052,6,0,P|59:219|74:284,1,85
187,229,39385,1,0,0:0:0:0:
137,111,39552,1,0,0:0:0:0:
245,177,39718,1,4,0:0:0:0:
229,137,39802,1,4,0:0:0:0:
226,94,39885,1,4,0:0:0:0:
239,53,39968,1,4,0:0:0:0:
272,25,40052,1,4,0:0:0:0:
356,119,40218,6,0,B|384:181|408:213|408:213|369:293,1,170
260,224,40718,1,4,0:0:0:0:
106,75,40885,1,4,0:0:0:0:
317,46,41052,1,4,0:0:0:0:
149,175,41218,1,4,0:0:0:0:
361,180,41385,1,4,0:0:0:0:
250,362,41552,2,0,L|250:252,1,85,4|0,0:0|0:0,0:0:0:0:
78,84,42218,5,0,0:0:0:0:
290,66,42385,1,0,0:0:0:0:
180,66,42885,5,0,0:0:0:0:
224,317,43052,1,0,0:0:0:0:
83,158,43218,1,0,0:0:0:0:
295,166,43385,1,0,0:0:0:0:
122,291,43552,2,0,P|144:244|143:123,1,170
244,315,44052,1,0,0:0:0:0:
443,243,44218,2,0,P|438:205|396:142,1,85
317,245,44552,1,0,0:0:0:0:
351,79,44718,1,0,0:0:0:0:
142,124,44885,2,0,P|122:183|124:246,2,85
336,211,45385,1,0,0:0:0:0:
157,326,45552,6,0,P|244:330|333:294,1,170
216,116,46052,1,0,0:0:0:0:
65,264,46218,1,0,0:0:0:0:
151,23,46385,1,0,0:0:0:0:
405,48,46552,2,0,P|422:112|413:155,1,85
167,94,46885,2,0,P|236:171|248:269,1,170
80,240,47385,1,0,0:0:0:0:
256,121,47552,2,0,B|325:125|326:177|413:192,1,170
232,277,48052,1,0,0:0:0:0:
390,78,48218,5,0,0:0:0:0:
137,116,48385,1,0,0:0:0:0:
347,149,48552,1,0,0:0:0:0:
96,188,48718,1,0,0:0:0:0:
348,225,48885,2,0,P|295:248|172:256,1,170
246,99,49385,1,0,0:0:0:0:
275,309,49552,5,0,0:0:0:0:
351,111,49718,1,0,0:0:0:0:
148,178,49885,1,0,0:0:0:0:
353,234,50052,1,0,0:0:0:0:
160,321,50218,2,0,B|153:274|153:274|119:219|176:162,1,170
360,266,50718,1,0,0:0:0:0:
261,77,50885,1,0,0:0:0:0:
261,77,51052,1,0,0:0:0:0:
459,235,51218,1,0,0:0:0:0:
459,235,51385,1,0,0:0:0:0:
210,175,51552,6,0,P|248:214|261:257,1,85
62,77,51885,2,0,P|113:38|137:30,1,85
108,285,52218,1,0,0:0:0:0:
108,285,52385,1,0,0:0:0:0:
191,43,52552,2,0,P|234:56|273:89,1,85
181,140,52802,2,0,L|233:176,1,42.5
306,253,52968,2,0,L|261:223,1,42.5
159,294,53135,1,0,0:0:0:0:
80,194,53218,2,0,P|70:127|90:89,1,85
330,143,53552,6,0,B|371:181|371:181|269:232|310:299,1,170
438,323,54052,1,0,0:0:0:0:
224,185,54218,1,0,0:0:0:0:
430,236,54385,1,0,0:0:0:0:
209,107,54552,1,0,0:0:0:0:
412,164,54718,1,0,0:0:0:0:
191,35,54885,2,0,P|146:69|174:171,1,170
335,129,55385,1,0,0:0:0:0:
487,242,55552,1,0,0:0:0:0:
322,202,55718,1,0,0:0:0:0:
451,312,55885,1,0,0:0:0:0:
287,262,56052,1,0,0:0:0:0:
162,173,56218,6,0,P|146:133|154:79,1,85
361,122,56552,1,0,0:0:0:0:
189,245,56718,1,0,0:0:0:0:
394,190,56885,1,0,0:0:0:0:
175,322,57052,1,0,0:0:0:0:
368,236,57218,1,0,0:0:0:0:
116,279,57385,1,0,0:0:0:0:
256,65,57552,2,0,L|256:241,1,170
58,73,58052,5,0,0:0:0:0:
135,270,58218,1,0,0:0:0:0:
219,74,58385,1,0,0:0:0:0:
52,206,58552,1,0,0:0:0:0:
287,110,58718,1,0,0:0:0:0:
116,236,58885,2,0,L|222:236,1,85
376,115,59218,1,0,0:0:0:0:
279,255,59385,1,0,0:0:0:0:
201,103,59552,2,0,P|272:144|358:193,1,170
194,259,60052,1,0,0:0:0:0:
386,93,60218,6,0,P|437:152|442:192,1,85
277,214,60552,1,0,0:0:0:0:
291,45,60718,1,0,0:0:0:0:
149,139,60885,1,0,0:0:0:0:
319,129,61052,1,0,0:0:0:0:
125,213,61218,1,0,0:0:0:0:
377,175,61385,1,0,0:0:0:0:
147,286,61552,2,0,P|204:273|330:268,1,170
315,266,62052,1,0,0:0:0:0:
157,67,62218,2,0,P|162:141|206:236,1,170
200,227,62718,1,0,0:0:0:0:
417,92,62885,1,0,0:0:0:0:
252,44,63052,5,0,0:0:0:0:
280,64,63135,1,0,0:0:0:0:
308,84,63218,1,0,0:0:0:0:
276,108,63302,1,0,0:0:0:0:
244,132,63385,1,0,0:0:0:0:
276,160,63468,1,0,0:0:0:0:
304,192,63552,1,0,0:0:0:0:
336,220,63635,1,0,0:0:0:0:
300,248,63718,1,0,0:0:0:0:
260,272,63802,1,0,0:0:0:0:
140,312,63885,2,0,L|112:252,1,42.5
92,196,64052,1,0,0:0:0:0:
197,99,64218,6,0,P|187:161|164:206,1,85
71,109,64552,1,4,0:0:0:0:
103,231,64718,1,0,0:0:0:0:
209,301,64885,1,0,0:0:0:0:
265,186,65052,1,0,0:0:0:0:
274,355,65218,2,0,P|347:321|362:288,1,85,4|0,0:0|0:0,0:0:0:0:
432,171,65552,1,4,0:0:0:0:
305,58,65718,1,0,0:0:0:0:
369,215,65885,2,0,L|275:215,2,85,4|0|0,0:0|0:0|0:0,0:0:0:0:
198,217,66385,1,0,0:0:0:0:
119,65,66552,2,0,P|97:109|119:160,1,85,4|0,0:0|0:0,0:0:0:0:
274,129,66885,5,0,0:0:0:0:
206,285,67052,1,0,0:0:0:0:
375,291,67218,1,4,0:0:0:0:
274,129,67385,1,0,0:0:0:0:
114,192,67552,1,4,0:0:0:0:
114,192,67718,1,4,0:0:0:0:
224,62,67885,1,4,0:0:0:0:
220,232,68052,1,0,0:0:0:0:
300,83,68218,6,0,L|301:183,1,85,4|0,0:0|0:0,0:0:0:0:
134,127,68552,1,4,0:0:0:0:
269,228,68718,1,0,0:0:0:0:
63,171,68885,1,4,0:0:0:0:
63,171,69052,1,4,0:0:0:0:
215,95,69218,2,0,L|214:213,1,85,4|0,0:0|0:0,0:0:0:0:
91,299,69552,5,0,0:0:0:0:
254,256,69718,1,0,0:0:0:0:
128,141,69885,2,0,L|127:232,1,85,4|0,0:0|0:0,0:0:0:0:
261,121,70218,1,4,0:0:0:0:
261,121,70385,1,4,0:0:0:0:
261,291,70552,2,0,L|261:192,1,85,4|0,0:0|0:0,0:0:0:0:
99,152,70885,5,0,0:0:0:0:
101,279,71052,2,0,P|123:329|159:346,1,85,0|4,0:0|0:0,0:0:0:0:
210,231,71385,1,0,0:0:0:0:
260,348,71552,1,4,0:0:0:0:
260,348,71718,1,4,0:0:0:0:
287,223,71885,1,4,0:0:0:0:
206,124,72052,2,0,P|251:83|429:108,1,255,0|4,0:0|0:0,0:0:0:0:
146,135,72718,5,4,0:0:0:0:
146,135,72885,1,4,0:0:0:0:
122,346,73052,1,0,0:0:0:0:
242,171,73218,1,4,0:0:0:0:
38,234,73385,1,4,0:0:0:0:
239,301,73552,1,4,0:0:0:0:
128,120,73718,1,0,0:0:0:0:
99,331,73885,1,4,0:0:0:0:
241,173,74052,1,0,0:0:0:0:
38,235,74218,1,0,0:0:0:0:
249,90,74385,6,4,L|305:139,1,42.5
177,226,74552,2,4,L|247:239,1,42.5
315,191,74718,1,4,0:0:0:0:
406,82,74885,5,0,0:0:0:0:
410,124,74968,1,0,0:0:0:0:
401,166,75052,1,0,0:0:0:0:
379,202,75135,1,0,0:0:0:0:
350,233,75218,1,0,0:0:0:0:
315,258,75302,1,0,0:0:0:0:
275,273,75385,1,0,0:0:0:0:
232,276,75468,1,0,0:0:0:0:
189,268,75552,6,0,P|148:256|112:224,1,85
196,128,75885,2,0,P|160:92|116:76,1,85
252,40,76218,2,0,P|292:72|316:120,1,85
252,216,76552,1,4,0:0:0:0:
364,156,76718,1,0,0:0:0:0:
452,64,76885,2,0,B|468:104|468:104|496:176|452:232,1,170,0|4,0:0|0:0,0:0:0:0:
276,44,77552,5,0,0:0:0:0:
244,68,77635,1,0,0:0:0:0:
212,92,77718,1,0,0:0:0:0:
180,116,77802,1,0,0:0:0:0:
204,144,77885,1,0,0:0:0:0:
228,172,77968,1,0,0:0:0:0:
256,200,78052,1,0,0:0:0:0:
284,228,78135,1,0,0:0:0:0:
308,256,78218,1,0,0:0:0:0:
336,232,78302,1,0,0:0:0:0:
368,212,78385,1,0,0:0:0:0:
372,76,78552,6,0,L|372:168,1,85
260,104,78885,2,0,L|260:200,1,85
192,296,79218,1,4,0:0:0:0:
188,168,79385,1,0,0:0:0:0:
100,264,79552,2,0,L|100:164,1,85
102,51,79885,1,4,0:0:0:0:
354,85,80218,6,0,L|424:84,1,42.5
312,108,80385,2,0,L|252:108,1,42.5
184,120,80552,1,0,0:0:0:0:
216,148,80635,1,0,0:0:0:0:
248,176,80718,1,0,0:0:0:0:
276,208,80802,1,0,0:0:0:0:
308,236,80885,2,0,P|280:276|240:296,1,85
228,212,81218,2,0,L|228:121,1,85
275,62,81552,6,0,P|339:69|428:163,1,170,0|4,0:0|0:0,0:0:0:0:
298,184,82052,1,0,0:0:0:0:
174,213,82218,2,0,P|212:285|323:321,1,170,0|4,0:0|0:0,0:0:0:0:
288,92,82885,2,0,P|264:95|236:107,2,42.5
312,107,83135,1,0,0:0:0:0:
348,128,83218,1,0,0:0:0:0:
381,154,83302,1,0,0:0:0:0:
408,186,83385,1,0,0:0:0:0:
429,222,83468,1,0,0:0:0:0:
452,260,83552,2,0,P|480:324|480:352,1,85
396,328,83885,2,0,L|308:328,1,85
260,260,84218,2,0,P|232:324|232:352,2,85
153,169,84718,5,0,0:0:0:0:
146,84,84885,2,0,L|63:148,2,85,0|0|4,0:0|0:0|0:0,0:0:0:0:
264,112,85552,6,0,L|279:196,1,68
202,140,85885,2,0,L|265:80,1,68
177,164,86218,2,0,L|117:223,1,68
223,250,86552,1,0,0:0:0:0:
292,175,86718,1,0,0:0:0:0:
379,227,86885,2,0,L|423:156,1,68
461,95,87218,2,0,L|417:166,1,68
322,155,87552,2,0,L|375:80,2,68
265,240,88052,1,0,0:0:0:0:
135,101,88218,6,0,B|212:97|212:97|264:155|264:155|333:155,1,212.5
197,211,89218,1,0,0:0:0:0:
358,266,89385,1,0,0:0:0:0:
203,132,89552,2,0,B|352:56,1,136
369,91,90052,2,0,L|307:124,1,68
313,225,90385,2,0,L|390:186,2,68
223,274,90885,1,0,0:0:0:0:
131,88,91218,6,0,P|108:123|103:161,1,68
150,239,91552,2,0,P|190:248|228:240,1,68
273,160,91885,2,0,P|296:125|301:87,1,68
399,70,92218,2,0,B|429:149|429:149|507:187|498:263,1,204
376,267,92885,2,0,L|304:324,1,85
227,221,93218,2,0,L|299:161,1,85
396,241,93552,6,0,P|419:206|421:159,1,85
343,50,93885,2,0,P|303:41|246:52,1,85
126,117,94218,2,0,P|103:152|99:202,2,85
225,195,94718,2,0,B|335:274|335:274|359:138,1,272
356,119,95468,2,0,B|276:60|276:60|232:146,1,170,0|4,0:0|0:0,0:0:0:0:
258,276,96218,5,0,0:0:0:0:
298,154,96385,1,0,0:0:0:0:
337,319,96552,1,4,0:0:0:0:
384,112,96718,1,0,0:0:0:0:
391,239,96885,1,0,0:0:0:0:
270,256,97052,5,4,0:0:0:0:
113,113,97218,1,0,0:0:0:0:
235,231,97385,1,0,0:0:0:0:
123,49,97552,1,4,0:0:0:0:
105,276,97718,1,0,0:0:0:0:
229,52,97885,2,0,P|272:89|286:121,1,85
167,165,98218,2,0,L|167:235,1,42.5
167,261,98385,5,0,0:0:0:0:
281,287,98552,2,4,L|325:238,1,42.5
256,140,98718,2,4,L|200:196,1,42.5
136,262,98885,1,4,0:0:0:0:
126,121,99052,5,0,0:0:0:0:
126,121,99218,1,4,0:0:0:0:
291,316,99385,1,0,0:0:0:0:
387,79,99552,5,0,0:0:0:0:
387,79,99718,1,0,0:0:0:0:
193,245,99885,1,0,0:0:0:0:
241,69,100052,1,0,0:0:0:0:
346,300,100218,1,0,0:0:0:0:
132,159,100385,1,0,0:0:0:0:
132,159,100552,1,0,0:0:0:0:
302,161,100718,1,4,0:0:0:0:
147,231,100885,6,0,L|197:324,1,85
357,311,101218,1,4,0:0:0:0:
334,285,101302,1,4,0:0:0:0:
314,257,101385,1,4,0:0:0:0:
299,226,101468,1,4,0:0:0:0:
288,193,101552,1,4,0:0:0:0:
255,51,101718,5,0,0:0:0:0:
439,224,101885,1,0,0:0:0:0:
414,178,102052,2,0,L|364:85,1,85
172,148,102385,2,0,L|222:241,2,85,4|0|0,0:0|0:0|0:0,0:0:0:0:
296,120,102885,2,0,L|385:276,1,170,4|0,0:0|0:0,0:0:0:0:
131,325,103552,5,0,0:0:0:0:
133,198,103718,1,0,0:0:0:0:
303,198,103885,2,4,L|356:242,1,42.5
364,144,104052,2,4,L|307:102,1,42.5
253,83,104218,2,0,L|402:194,1,170,4|0,0:0|0:0,0:0:0:0:
227,237,104718,5,4,0:0:0:0:
63,40,104885,1,4,0:0:0:0:
318,45,105052,1,4,0:0:0:0:
92,162,105218,1,4,0:0:0:0:
347,170,105385,1,4,0:0:0:0:
122,291,105552,1,4,0:0:0:0:
