osu file format v14

[General]
AudioFilename: audio.mp3
AudioLeadIn: 0
PreviewTime: 60690
Countdown: 0
SampleSet: Soft
StackLeniency: 0.7
Mode: 0
LetterboxInBreaks: 0
WidescreenStoryboard: 1

[Editor]
DistanceSpacing: 1
BeatDivisor: 4
GridSize: 16
TimelineZoom: 3.299999

[Metadata]
Title:Liar (Cut Ver.)
TitleUnicode:Liar (Cut Ver.)
Artist:ONE OK ROCK
ArtistUnicode:ONE OK ROCK
Creator:MiracleE
Version:Expert
Source:
Tags:うそつき Niche Syndrome シンドローム female vocal japanese rock akitoshi -laura- corinn xzbidit liar lyric miraclee 619 pantydev daycore sotarks smokelind a_r_m_i_n
BeatmapID:2219294
BeatmapSetID:893340

[Difficulty]
HPDrainRate:5.3
CircleSize:3.7
OverallDifficulty:8
ApproachRate:9.2
SliderMultiplier:1.92
SliderTickRate:1

[Events]
//Background and Video events
0,0,"bg.png",0,0
//Break Periods
2,84224,92729
//Storyboard Layer 0 (Background)
//Storyboard Layer 1 (Fail)
//Storyboard Layer 2 (Pass)
//Storyboard Layer 3 (Foreground)
//Storyboard Layer 4 (Overlay)
//Storyboard Sound Samples

[TimingPoints]
14459,289.855072463768,4,2,22,40,1,0
14459,-161.290322580645,4,2,22,40,0,0
33009,-138.888888888889,4,2,22,60,0,0
42285,-121.951219512195,4,2,22,65,0,0
51560,-138.888888888889,4,2,22,50,0,0
56198,-121.951219512195,4,2,22,65,0,0
64024,-121.951219512195,4,2,22,70,0,0
65473,-108.695652173913,4,2,22,80,0,1
74169,-98.0392156862745,4,2,22,80,0,1
74748,-108.695652173913,4,2,22,80,0,1
84024,-138.888888888889,4,2,22,60,0,0
93299,-138.888888888889,4,2,22,60,0,0
101415,-121.951219512195,4,2,22,70,0,0
102574,-98.0392156862745,4,2,22,80,0,0
109531,-98.0392156862745,4,2,22,80,0,1
109821,-161.290322580645,4,2,22,65,0,0
110111,-138.888888888889,4,2,22,70,0,0
110401,-121.951219512195,4,2,22,75,0,0
110690,-98.0392156862745,4,2,22,80,0,0
111850,-108.695652173913,4,2,22,80,0,1
120545,-98.0392156862745,4,2,22,80,0,1
121125,-108.695652173913,4,2,22,80,0,1
130111,-108.695652173913,4,2,22,80,0,0
130401,-98.0392156862745,4,2,22,80,0,1
144314,-98.0392156862745,4,2,22,80,0,0
146632,-161.290322580645,4,2,22,70,0,0
148951,-714.285714285714,4,2,22,60,0,0
151270,-714.285714285714,4,2,22,45,0,0
152430,-714.285714285714,4,2,22,35,0,0
153589,-714.285714285714,4,2,22,25,0,0
154458,-714.285714285714,4,2,22,25,0,0
154748,-714.285714285714,4,2,22,5,0,0

[Colours]
Combo1 : 158,158,158
Combo2 : 159,64,255
Combo3 : 191,0,191

[HitObjects]
384,66,14459,5,2,0:2:0:0:
384,66,14603,2,0,P|369:115|368:130,1,59.519997638672,2|0,0:2|0:0,0:0:0:0:
233,117,14893,1,2,0:2:0:0:
233,118,15038,2,0,P|248:166|249:181,1,59.519997638672,2|0,0:2|0:0,0:0:0:0:
201,309,15328,1,2,0:2:0:0:
201,309,15473,2,0,P|235:263|305:290,1,119.039995277344,2|2,0:2|0:2,0:0:0:0:
365,345,15908,2,0,P|336:313|329:282,1,59.519997638672,2|0,0:2|0:0,0:0:0:0:
478,210,16198,6,0,P|460:276|455:331,1,119.039995277344,2|2,0:2|0:2,0:0:0:0:
176,295,16777,5,2,0:2:0:0:
176,295,16922,2,0,P|158:253|156:232,1,59.519997638672,2|0,0:2|0:0,0:0:0:0:
267,140,17212,1,2,0:2:0:0:
267,140,17357,2,0,P|260:169|247:195,1,59.519997638672,2|0,0:2|0:0,0:0:0:0:
136,80,17647,1,2,0:2:0:0:
136,80,17792,2,0,P|182:24|235:37,1,119.039995277344,2|2,0:2|0:2,0:0:0:0:
345,130,18227,2,0,P|298:113|283:112,1,59.519997638672,2|0,0:2|0:0,0:0:0:0:
156,239,18516,6,0,P|202:290|261:284,1,119.039995277344,2|2,0:2|0:2,0:0:0:0:
445,229,19096,5,2,0:2:0:0:
445,229,19241,2,0,P|456:180|464:163,1,59.519997638672,2|0,0:2|0:0,0:0:0:0:
364,288,19531,1,2,0:2:0:0:
364,288,19676,2,0,P|352:239|352:220,1,59.519997638672,2|0,0:2|0:0,0:0:0:0:
361,87,19966,1,2,0:2:0:0:
361,87,20111,2,0,P|313:143|272:134,1,119.039995277344,2|2,0:2|0:2,0:0:0:0:
155,58,20545,2,0,P|190:59|217:78,1,59.519997638672,2|0,0:2|0:0,0:0:0:0:
248,235,20835,6,0,P|191:267|138:254,1,119.039995277344,2|2,0:2|0:2,0:0:0:0:
335,360,21415,5,2,0:2:0:0:
335,360,21560,2,0,P|343:315|350:297,1,59.519997638672,2|0,0:2|0:0,0:0:0:0:
248,235,21850,1,2,0:2:0:0:
248,235,21995,2,0,P|256:263|260:292,1,59.519997638672,2|0,0:2|0:0,0:0:0:0:
354,165,22285,1,2,0:2:0:0:
354,165,22430,2,0,P|417:191|470:194,1,119.039995277344,2|2,0:2|0:2,0:0:0:0:
480,83,22864,2,0,P|443:86|416:95,1,59.519997638672,2|0,0:2|0:0,0:0:0:0:
272,217,23154,6,0,P|258:154|253:99,1,119.039995277344,2|2,0:2|0:2,0:0:0:0:
117,280,23734,6,0,P|157:337|211:338,2,119.039995277344,2|2|2,0:2|0:2|0:2,0:0:0:0:
42,156,24603,2,0,P|128:127|148:211,1,178.559992916016,2|0,0:2|0:0,0:0:0:0:
255,274,25183,2,0,P|295:203|368:237,1,178.559992916016,2|0,0:2|0:0,0:0:0:0:
436,349,25763,2,0,P|421:300|423:285,1,59.519997638672,2|0,0:2|0:0,0:0:0:0:
471,97,26053,5,2,0:2:0:0:
471,97,26198,1,2,0:2:0:0:
356,218,26487,1,2,0:2:0:0:
356,218,26632,1,2,0:2:0:0:
206,147,26922,1,2,0:2:0:0:
206,147,27067,1,2,0:2:0:0:
323,72,27212,6,0,P|336:113|338:136,1,59.519997638672,2|2,0:2|0:2,0:0:0:0:
249,268,27502,1,2,0:2:0:0:
249,268,27647,1,2,0:2:0:0:
129,109,27792,1,2,0:2:0:0:
129,109,27937,2,0,P|171:60|233:66,1,119.039995277344,2|0,0:2|0:0,0:0:0:0:
351,257,28372,6,0,P|359:193|376:136,2,119.039995277344,2|2|2,0:2|0:2|0:2,0:0:0:0:
201,344,29241,2,0,P|244:258|317:273,1,178.559992916016,2|0,0:2|0:0,0:0:0:0:
416,353,29821,2,0,B|484:357|517:254|471:212,1,178.559992916016,2|0,0:2|0:0,0:0:0:0:
356,98,30401,2,0,P|318:113|293:115,1,59.519997638672,2|0,0:2|0:0,0:0:0:0:
130,107,30690,5,2,0:2:0:0:
130,107,30835,2,0,P|168:92|193:90,1,59.519997638672,2|2,0:2|0:2,0:0:0:0:
304,35,31125,1,0,0:0:0:0:
304,35,31270,2,0,P|290:95|279:156,1,119.039995277344,2|2,0:2|0:2,0:0:0:0:
165,267,31705,1,0,0:0:0:0:
165,267,31850,2,0,P|151:220|146:206,1,59.519997638672,2|0,0:2|0:0,0:0:0:0:
299,174,32140,2,0,P|289:202|281:230,1,59.519997638672,2|0,0:2|0:0,0:0:0:0:
151,135,32430,2,0,P|142:106|133:78,1,59.519997638672,2|0,0:2|0:0,0:0:0:0:
302,95,32719,2,0,P|292:123|284:151,1,59.519997638672,2|0,0:2|0:0,0:0:0:0:
344,344,33009,5,6,1:2:0:0:
344,344,33154,2,0,B|437:345|387:298|496:294,2,138.240003375,0|0|0,1:2|1:2|1:2,0:0:0:0:
159,276,34024,1,0,1:2:0:0:
338,131,34169,6,0,P|390:137|411:156,1,69.1200016875,8|0,0:2|0:0,0:0:0:0:
243,226,34458,2,0,P|212:242|178:241,1,69.1200016875
354,114,34748,2,0,P|406:120|427:139,1,69.1200016875
225,200,35038,2,0,P|194:216|160:215,1,69.1200016875,2|0,0:2|0:0,0:0:0:0:
369,207,35328,5,0,1:2:0:0:
369,207,35473,2,0,P|359:240|350:274,1,69.1200016875,0|0,1:2|0:0,0:0:0:0:
227,293,35763,2,0,P|237:325|246:359,1,69.1200016875,0|0,1:2|0:0,0:0:0:0:
146,280,36053,1,0,1:2:0:0:
316,303,36198,1,2,0:2:0:0:
316,303,36343,1,2,1:2:0:0:
159,171,36487,6,0,P|121:189|100:212,1,69.1200016875,10|2,0:2|0:2,0:0:0:0:
232,113,36777,2,0,P|256:136|288:150,1,69.1200016875,2|2,1:2|0:2,0:0:0:0:
295,340,37067,1,10,0:2:0:0:
295,340,37212,1,2,1:2:0:0:
389,222,37357,1,8,0:2:0:0:
295,296,37502,1,0,1:2:0:0:
374,139,37647,5,6,1:2:0:0:
374,139,37792,2,0,P|441:189|495:179,2,138.240003375,0|0|0,1:2|1:2|1:2,0:0:0:0:
186,298,38661,1,0,1:2:0:0:
348,246,38806,6,0,P|310:224|281:218,1,69.1200016875,8|0,0:2|0:0,0:0:0:0:
104,209,39096,2,0,P|179:193|189:117,2,138.240003375,0|0|2,0:0|0:0|0:2,0:0:0:0:
292,55,39966,5,0,1:2:0:0:
292,55,40111,2,0,P|305:96|309:126,1,69.1200016875,0|0,1:2|0:0,0:0:0:0:
232,279,40401,2,0,P|237:244|248:212,1,69.1200016875,0|0,1:2|0:0,0:0:0:0:
422,159,40690,2,0,P|384:188|355:188,1,69.1200016875,0|2,1:2|1:2,0:0:0:0:
214,136,40980,1,0,1:2:0:0:
464,54,41125,6,0,P|455:124|444:205,1,138.240003375,10|0,0:2|1:2,0:0:0:0:
338,90,41560,1,0,0:0:0:0:
460,299,41705,2,0,P|417:276|326:271,1,138.240003375,10|2,0:2|0:2,0:0:0:0:
442,183,42140,1,0,0:0:0:0:
225,321,42285,6,0,P|211:273|207:241,1,78.7200012011719,6|0,1:2|1:2,0:0:0:0:
349,105,42574,2,0,P|343:143|331:181,1,78.7200012011719,10|0,0:2|1:2,0:0:0:0:
208,339,42864,2,0,P|194:291|190:259,1,78.7200012011719,2|0,0:2|1:2,0:0:0:0:
83,52,43154,6,0,P|131:118|211:98,1,157.440002402344,10|0,0:2|0:0,0:0:0:0:
389,3,43734,2,0,B|321:30|328:88|338:148,1,157.440002402344,10|0,0:2|0:0,0:0:0:0:
365,311,44314,2,0,P|382:231|383:187,1,118.080001801758,10|0,0:2|0:0,0:0:0:0:
318,137,44603,5,0,1:2:0:0:
318,137,44748,2,0,P|331:189|339:221,1,78.7200012011719,0|8,1:2|0:2,0:0:0:0:
478,134,45038,2,0,P|484:109|497:57,1,78.7200012011719,0|0,1:2|0:0,0:0:0:0:
463,223,45328,1,0,1:2:0:0:
327,50,45473,2,0,P|284:28|249:28,1,78.7200012011719,10|0,0:2|1:2,0:0:0:0:
89,174,45763,6,0,B|188:171|137:123|244:121,1,157.440002402344,0|10,0:0|0:2,0:0:0:0:
301,276,46343,2,0,P|359:219|433:228,1,157.440002402344,2|10,0:2|0:2,0:0:0:0:
105,301,46922,5,6,1:2:0:0:
105,301,47067,2,0,P|97:262|87:225,1,78.7200012011719,0|10,1:2|0:2,0:0:0:0:
206,171,47357,1,0,1:2:0:0:
206,171,47502,2,0,P|214:132|224:94,1,78.7200012011719,2|0,0:2|1:2,0:0:0:0:
18,233,47792,6,0,P|94:219|163:253,1,157.440002402344,10|0,0:2|0:0,0:0:0:0:
174,374,48372,2,0,P|243:339|319:353,1,157.440002402344,10|0,0:2|0:0,0:0:0:0:
253,103,48951,2,0,P|326:129|375:132,1,118.080001801758,10|0,0:2|0:0,0:0:0:0:
447,124,49241,5,0,1:2:0:0:
447,124,49386,2,0,P|410:95|376:90,1,78.7200012011719,0|8,1:2|0:2,0:0:0:0:
260,206,49676,2,0,P|222:196|192:172,1,78.7200012011719,0|0,1:2|0:0,0:0:0:0:
366,225,49966,1,0,1:2:0:0:
196,339,50111,2,0,P|189:300|178:262,1,78.7200012011719,10|0,0:2|0:2,0:0:0:0:
154,51,50401,5,10,0:2:0:0:
154,51,50545,2,0,P|166:94|172:137,2,78.7200012011719,0|2|0,3:0|3:0|3:0,0:0:0:0:
287,166,50980,2,0,P|349:181|373:187,1,78.7200012011719,10|0,0:2|0:0,0:0:0:0:
129,252,51270,2,0,P|67:267|43:273,1,78.7200012011719,2|0,1:2|0:0,0:0:0:0:
296,13,51560,5,6,1:2:0:0:
296,13,51995,1,0,1:2:0:0:
127,168,52430,1,0,1:2:0:0:
346,90,52574,6,0,P|389:102|412:120,1,69.1200016875,8|0,0:2|3:2,0:0:0:0:
481,202,52864,1,0,1:2:0:0:
481,202,53009,2,0,P|452:220|418:228,1,69.1200016875,2|0,1:2|0:0,0:0:0:0:
232,172,53299,2,0,P|309:189|315:243,1,138.240003375,10|2,0:2|0:2,0:0:0:0:
230,354,53734,1,0,0:0:0:0:
104,173,53879,6,0,P|111:119|116:97,1,69.1200016875,2|0,1:2|0:0,0:0:0:0:
240,34,54169,2,0,P|246:67|250:102,1,69.1200016875,2|0,0:2|1:2,0:0:0:0:
352,206,54458,2,0,P|359:152|364:130,1,69.1200016875
488,67,54748,2,0,P|494:100|498:135,1,69.1200016875,2|8,1:2|0:2,0:0:0:0:
364,239,55038,6,0,P|324:256|296:251,1,69.1200016875,2|0,3:2|1:2,0:0:0:0:
168,177,55328,2,0,P|202:174|232:190,1,69.1200016875,10|0,0:2|0:0,0:0:0:0:
85,304,55618,5,10,3:0:0:0:
52,271,55714,5,8,3:0:0:0:
35,229,55811,5,8,3:0:0:0:
37,183,55908,6,0,P|45:139|59:100,2,46.080001125,6|4|4,3:0|3:0|3:0,0:0:0:0:
299,252,56198,5,6,1:2:0:0:
299,252,56343,2,0,P|313:292|320:334,1,78.7200012011719,0|8,1:2|0:2,0:0:0:0:
362,158,56632,2,0,P|390:109|488:93,1,157.440002402344
459,281,57067,5,8,0:2:0:0:
459,281,57212,2,0,P|392:246|304:235,1,157.440002402344,0|0,1:2|0:2,0:0:0:0:
186,300,57647,2,0,P|145:321|99:316,1,78.7200012011719,8|0,0:2|0:0,0:0:0:0:
216,116,57937,1,2,1:2:0:0:
216,116,58082,2,0,P|254:117|288:136,1,78.7200012011719,0|10,1:2|0:2,0:0:0:0:
143,204,58372,1,0,0:0:0:0:
309,53,58516,5,6,1:2:0:0:
309,53,58661,2,0,P|297:125|295:141,1,78.7200012011719,0|8,1:2|0:2,0:0:0:0:
195,18,58951,2,0,P|208:95|219:173,1,157.440002402344
147,289,59386,1,8,0:2:0:0:
318,146,59531,2,0,P|305:223|294:301,1,157.440002402344,0|0,1:2|0:2,0:0:0:0:
228,31,59966,2,0,P|221:78|214:109,1,78.7200012011719,8|0,0:2|0:0,0:0:0:0:
37,214,60256,5,0,1:2:0:0:
37,214,60401,1,0,1:2:0:0:
234,137,60545,2,0,P|292:135|326:195,1,118.080001801758,8|0,0:2|0:0,0:0:0:0:
356,253,60835,6,0,P|318:280|281:276,1,78.7200012011719,4|0,1:2|0:0,0:0:0:0:
129,196,61125,2,0,P|167:196|197:221,1,78.7200012011719,10|0,0:2|0:0,0:0:0:0:
383,347,61415,5,2,1:2:0:0:
383,347,61560,2,0,P|375:299|380:266,1,78.7200012011719,8|2,0:2|0:2,0:0:0:0:
453,124,61850,1,0,1:2:0:0:
453,124,61995,2,0,P|460:162|456:201,1,78.7200012011719,2|8,3:2|0:2,0:0:0:0:
273,120,62285,2,0,P|269:80|276:42,1,78.7200012011719,2|0,3:0|1:2,0:0:0:0:
379,269,62574,6,0,P|333:294|304:295,1,78.7200012011719,10|0,0:2|1:2,0:0:0:0:
148,194,62864,2,0,P|186:199|219:220,1,78.7200012011719,2|0,3:0|1:2,0:0:0:0:
44,297,63154,6,0,P|35:237|25:206,1,78.7200012011719,2|0,1:2|0:0,0:0:0:0:
185,91,63444,2,0,P|175:129|170:168,1,78.7200012011719,2|0,1:2|1:2,0:0:0:0:
272,337,63734,6,0,P|352:332|378:266,1,157.440002402344,2|8,1:2|1:3,0:0:0:0:
320,84,64169,1,0,1:2:0:0:
303,260,64314,1,8,1:3:0:0:
403,49,64458,1,0,1:2:0:0:
478,287,64603,2,0,P|434:279|405:255,1,78.7200012011719,0|0,1:2|1:2,0:0:0:0:
192,168,64893,5,14,0:2:0:0:
192,168,64990,1,8,0:2:0:0:
192,168,65087,1,8,0:2:0:0:
192,168,65183,2,0,P|225:148|245:145,2,52.4800008007813,10|8|8,0:2|0:2|0:2,0:0:0:0:
128,268,65473,6,0,P|118:210|103:168,1,88.3199970351563,6|0,1:2|1:2,0:0:0:0:
351,109,65763,2,0,P|338:151|331:194,1,88.3199970351563,0|0,1:2|1:2,0:0:0:0:
141,347,66053,2,0,P|197:272|292:280,1,176.639994070313,8|0,0:2|1:2,0:0:0:0:
444,350,66487,2,0,P|382:345|357:320,1,88.3199970351563,0|0,1:2|0:0,0:0:0:0:
224,224,66777,1,0,1:2:0:0:
393,174,66922,1,0,1:2:0:0:
206,252,67067,1,0,1:2:0:0:
456,106,67212,2,0,P|465:149|470:192,1,88.3199970351563,10|0,0:2|0:2,0:0:0:0:
328,306,67502,1,2,1:2:0:0:
238,51,67647,1,0,1:2:0:0:
238,51,67719,1,0,0:0:0:0:
238,51,67792,6,0,P|247:94|252:137,1,88.3199970351563,6|0,1:2|1:2,0:0:0:0:
105,298,68082,2,0,P|110:254|119:210,1,88.3199970351563,0|0,1:2|1:2,0:0:0:0:
340,159,68372,2,0,P|291:225|198:202,1,176.639994070313,8|0,0:2|1:2,0:0:0:0:
100,35,68806,2,0,P|141:81|148:117,1,88.3199970351563,0|0,1:2|0:0,0:0:0:0:
101,307,69096,1,0,1:2:0:0:
225,130,69241,1,0,1:2:0:0:
221,350,69386,1,0,1:2:0:0:
34,250,69531,5,10,0:2:0:0:
34,250,69676,2,0,P|86:219|117:218,1,88.3199970351563,2|0,0:2|1:2,0:0:0:0:
314,277,69966,1,2,1:2:0:0:
314,277,70038,1,0,0:0:0:0:
314,277,70111,6,0,B|361:293|424:291|382:248|447:239|490:268,2,176.639994070313,4|2|10,1:2|1:2|0:2,0:0:0:0:
140,201,70835,1,0,0:0:0:0:
140,201,70980,2,0,P|194:170|225:169,1,88.3199970351563,2|0,1:2|1:2,0:0:0:0:
372,349,71270,2,0,P|374:261|348:177,2,176.639994070313,2|2|10,0:0|1:2|0:2,0:0:0:0:
453,189,71995,1,0,1:2:0:0:
297,316,72140,2,0,P|256:342|173:328,1,132.479995552735,2|0,1:2|0:0,0:0:0:0:
109,252,72430,6,0,L|101:202,5,44.1599985175782,14|8|8|8|0|0,0:2|0:2|0:2|0:2|1:2|1:2,0:0:0:0:
238,189,72864,2,0,L|231:232,5,44.1599985175782,8|8|8|8|0|0,3:0|3:0|3:0|3:0|1:2|1:2,0:0:0:0:
153,109,73299,2,0,L|145:59,3,44.1599985175782,10|8|8|8,0:2|0:2|3:0|3:0,0:0:0:0:
225,268,73589,2,0,P|252:280|277:286,3,44.1599985175782,2|0|8|0,1:2|0:2|0:2|0:0,0:0:0:0:
345,228,73879,2,0,P|372:216|397:210,3,44.1599985175782,8|8|0|0,0:2|0:2|1:2|1:2,0:0:0:0:
487,286,74169,6,0,P|450:327|350:287,1,146.880000896484,14|0,0:2|0:0,0:0:0:0:
225,268,74458,2,0,P|292:248|345:294,1,146.880000896484,10|0,0:2|0:0,0:0:0:0:
297,370,74748,6,0,P|247:354|212:349,1,88.3199970351563,6|0,1:2|1:2,0:0:0:0:
35,290,75038,2,0,P|78:283|120:268,1,88.3199970351563,2|0,1:2|1:2,0:0:0:0:
259,93,75328,2,0,P|212:147|203:254,1,176.639994070313,8|4,0:2|1:3,0:0:0:0:
329,240,75763,2,0,P|340:178|350:150,1,88.3199970351563,8|0,1:3|1:2,0:0:0:0:
282,28,76053,1,4,1:3:0:0:
432,174,76198,1,8,1:3:0:0:
282,28,76343,1,0,1:2:0:0:
460,195,76487,2,0,P|473:237|479:280,1,88.3199970351563,10|0,0:2|0:0,0:0:0:0:
355,105,76777,1,2,1:2:0:0:
268,341,76922,1,2,1:2:0:0:
268,341,76995,1,0,0:0:0:0:
268,341,77067,6,0,P|214:361|182:350,1,88.3199970351563,6|0,1:2|1:2,0:0:0:0:
192,158,77357,2,0,P|234:150|273:169,1,88.3199970351563,2|0,1:2|1:2,0:0:0:0:
85,315,77647,2,0,P|68:225|50:136,1,176.639994070313,8|4,0:2|1:3,0:0:0:0:
281,245,78082,1,8,1:3:0:0:
137,55,78227,2,0,P|187:29|233:39,1,88.3199970351563,0|4,1:2|1:3,0:0:0:0:
382,142,78516,1,8,1:3:0:0:
156,225,78661,1,0,1:2:0:0:
443,73,78806,5,10,0:2:0:0:
443,73,78951,2,0,P|430:132|425:169,1,88.3199970351563,2|0,1:2|1:2,0:0:0:0:
305,353,79241,1,2,1:2:0:0:
305,353,79314,1,0,0:0:0:0:
305,353,79386,6,0,P|298:309|267:159,2,176.639994070313,4|2|10,1:2|1:2|0:2,0:0:0:0:
180,212,80111,1,0,1:2:0:0:
377,294,80256,2,0,P|441:288|459:267,1,88.3199970351563,6|8,1:3|1:3,0:0:0:0:
281,78,80545,2,0,P|245:52|202:57,1,88.3199970351563,2|4,1:2|3:0,0:0:0:0:
112,279,80835,2,0,P|130:227|135:191,1,88.3199970351563,10|0,1:3|1:2,0:0:0:0:
46,27,81125,2,0,P|53:70|68:111,1,88.3199970351563,10|0,0:2|0:0,0:0:0:0:
242,219,81415,1,2,1:2:0:0:
356,31,81560,1,0,1:2:0:0:
356,31,81632,1,0,1:2:0:0:
356,31,81705,6,0,P|395:11|439:13,1,88.3199970351563,12|0,0:2|1:2,0:0:0:0:
209,189,81995,1,0,1:2:0:0:
359,244,82140,2,0,P|273:246|209:189,1,176.639994070313,8|0,0:2|1:2,0:0:0:0:
489,109,82574,2,0,P|451:139|431:176,1,88.3199970351563,10|0,0:2|0:0,0:0:0:0:
413,365,82864,1,6,1:3:0:0:
312,126,83009,1,4,1:3:0:0:
182,353,83154,1,4,1:3:0:0:
182,353,83444,6,0,P|147:326|124:288,1,88.3199970351563,8|8,0:2|0:2,0:0:0:0:
334,152,83734,2,0,P|311:189|276:216,1,88.3199970351563,10|8,0:2|0:2,0:0:0:0:
34,205,84024,1,6,1:2:0:0:
73,204,93299,5,0,1:2:0:0:
73,204,93444,2,0,P|83:158|92:119,1,69.1200016875,0|4,0:0|3:0,0:0:0:0:
192,93,93734,2,0,P|199:126|206:160,1,69.1200016875,8|4,3:0|3:0,0:0:0:0:
299,252,94024,2,0,P|309:206|318:167,1,69.1200016875,0|2,0:2|3:2,0:0:0:0:
424,248,94314,1,0,0:0:0:0:
394,78,94458,6,0,P|351:84|318:91,1,69.1200016875,2|8,1:2|3:0,0:0:0:0:
220,189,94748,2,0,P|187:182|152:177,1,69.1200016875,6|0,3:0|3:2,0:0:0:0:
50,59,95038,2,0,P|57:93|62:128,1,69.1200016875,6|0,3:0|0:0,0:0:0:0:
193,22,95328,2,0,P|186:56|181:91,1,69.1200016875,2|0,3:2|1:2,0:0:0:0:
141,201,95545,1,0,1:2:0:0:
141,201,95618,6,0,P|191:177|281:181,1,138.240003375,6|0,3:0|1:2,0:0:0:0:
235,327,96053,2,0,P|230:292|223:258,1,69.1200016875,8|4,3:0|3:0,0:0:0:0:
360,162,96343,2,0,P|353:195|348:230,1,69.1200016875,8|6,3:0|3:0,0:0:0:0:
222,348,96632,1,0,0:0:0:0:
135,179,96777,6,0,P|182:171|205:165,1,69.1200016875,6|8,3:0|3:0,0:0:0:0:
113,292,97067,2,0,P|80:284|46:279,1,69.1200016875,6|0,3:0|3:2,0:0:0:0:
213,261,97357,2,0,L|281:248,1,69.1200016875,2|0,1:2|0:0,0:0:0:0:
371,151,97647,2,0,P|336:145|303:137,1,69.1200016875,6|8,3:0|3:0,0:0:0:0:
208,71,97864,1,8,3:0:0:0:
208,71,97937,6,0,P|251:91|255:184,1,138.240003375,2|0,1:2|1:2,0:0:0:0:
117,238,98372,2,0,P|123:204|130:170,1,69.1200016875,8|8,3:0|3:0,0:0:0:0:
25,259,98661,2,0,P|32:292|38:326,1,69.1200016875,0|6,1:2|3:0,0:0:0:0:
146,154,98951,1,0,0:0:0:0:
201,326,99096,6,0,P|240:342|270:339,1,69.1200016875,6|8,3:0|3:0,0:0:0:0:
242,146,99386,2,0,P|235:179|229:213,1,69.1200016875,6|0,3:0|1:2,0:0:0:0:
361,285,99676,2,0,P|355:250|347:217,1,69.1200016875,6|0,3:0|0:0,0:0:0:0:
166,93,99966,2,0,P|159:126|153:160,1,69.1200016875,2|0,1:2|0:0,0:0:0:0:
110,236,100183,1,0,0:0:0:0:
110,236,100256,6,0,P|71:252|41:249,1,69.1200016875,10|0,3:0|0:0,0:0:0:0:
75,87,100545,2,0,P|109:86|140:101,1,69.1200016875,6|0,3:0|0:0,0:0:0:0:
285,247,100835,2,0,P|324:263|354:260,1,69.1200016875,10|8,3:0|3:0,0:0:0:0:
320,98,101124,2,0,P|285:97|254:112,1,69.1200016875,6|0,3:0|0:0,0:0:0:0:
424,183,101415,6,0,P|431:148|435:133,4,39.3600006005859,10|0|8|8|2,0:2|0:0|0:2|0:2|0:2,0:0:0:0:
285,247,101850,1,8,0:2:0:0:
506,308,101995,1,10,0:2:0:0:
506,308,102067,1,8,0:2:0:0:
506,308,102140,1,0,0:2:0:0:
447,88,102285,1,10,0:2:0:0:
447,88,102574,6,0,P|431:155|421:202,1,97.9200005976563,14|0,0:2|1:2,0:0:0:0:
306,328,102864,2,0,P|295:280|283:232,1,97.9200005976563,8|0,0:2|1:2,0:0:0:0:
182,76,103154,1,8,0:2:0:0:
75,238,103299,1,0,1:2:0:0:
258,137,103444,1,10,0:2:0:0:
365,299,103589,1,0,1:2:0:0:
129,155,103734,6,0,P|64:141|26:135,1,97.9200005976563,10|0,0:2|1:2,0:0:0:0:
269,47,104024,2,0,P|334:33|372:27,1,97.9200005976563,10|0,0:2|1:2,0:0:0:0:
255,217,104314,2,0,P|265:264|274:312,1,97.9200005976563,10|0,0:2|1:2,0:0:0:0:
356,138,104603,1,10,0:2:0:0:
422,353,104748,1,0,1:2:0:0:
157,275,104893,6,0,B|276:238|221:320|354:290,1,195.840001195313,14|8,0:2|0:2,0:0:0:0:
241,122,105328,1,0,1:2:0:0:
414,212,105473,1,8,0:2:0:0:
228,322,105618,1,0,1:2:0:0:
356,138,105763,2,0,P|417:117|455:125,1,97.9200005976563,10|0,0:2|1:2,0:0:0:0:
199,226,106053,6,0,P|150:230|106:210,1,97.9200005976563,10|0,0:2|1:2,0:0:0:0:
76,21,106343,2,0,P|90:94|94:128,1,97.9200005976563,10|0,0:2|1:2,0:0:0:0:
80,334,106632,2,0,P|86:285|96:237,1,97.9200005976563,10|0,0:2|1:2,0:0:0:0:
364,264,106922,1,10,0:2:0:0:
113,207,107067,1,0,1:2:0:0:
393,277,107212,6,0,P|463:268|512:265,1,97.9200005976563,14|0,0:2|1:2,0:0:0:0:
301,146,107502,2,0,P|252:139|203:134,1,97.9200005976563,10|0,0:2|1:2,0:0:0:0:
96,311,107792,2,0,P|166:302|215:299,1,97.9200005976563,10|0,0:2|1:2,0:0:0:0:
27,108,108082,2,0,P|39:155|46:203,1,97.9200005976563,10|0,0:2|1:2,0:0:0:0:
309,317,108372,6,0,P|318:261|332:211,1,97.9200005976563,10|0,0:2|1:2,0:0:0:0:
193,76,108661,2,0,P|205:123|212:171,1,97.9200005976563,10|0,0:2|1:2,0:0:0:0:
420,39,108951,2,0,P|407:86|400:134,1,97.9200005976563,10|0,0:2|1:2,0:0:0:0:
127,28,109241,2,0,P|114:75|107:123,1,97.9200005976563,10|0,0:2|1:2,0:0:0:0:
332,351,109531,5,6,0:2:0:0:
332,351,109821,2,0,P|344:300|342:284,1,59.519997638672,0|0,1:2|1:2,0:0:0:0:
260,173,110111,2,0,P|261:211|274:246,1,69.1200016875,0|0,1:2|1:2,0:0:0:0:
459,253,110401,2,0,P|416:222|372:221,1,78.7200012011719,0|4,1:2|3:0,0:0:0:0:
182,326,110690,5,8,0:2:0:0:
182,326,110787,1,8,0:2:0:0:
182,326,110884,1,8,0:2:0:0:
182,326,110980,2,0,P|137:318|117:299,2,65.2800003984375,8|8|8,0:2|0:2|0:2,0:0:0:0:
55,225,111270,6,0,P|82:207|114:205,2,65.2800003984375,10|8|8,0:2|0:2|0:2,0:0:0:0:
138,115,111560,2,0,P|170:114|198:130,2,65.2800003984375,10|8|8,0:2|0:2|0:2,0:0:0:0:
300,206,111850,6,0,P|286:152|291:111,1,88.3199970351563,6|0,1:2|1:2,0:0:0:0:
457,27,112140,2,0,P|458:70|445:112,1,88.3199970351563,2|0,1:2|1:2,0:0:0:0:
262,294,112430,2,0,P|302:240|411:229,1,176.639994070313,8|0,0:2|1:2,0:0:0:0:
502,364,112864,2,0,P|445:367|422:348,1,88.3199970351563,0|0,1:2|0:0,0:0:0:0:
275,169,113154,1,0,1:2:0:0:
329,368,113299,1,0,1:2:0:0:
348,115,113444,1,0,1:2:0:0:
226,316,113589,2,0,P|217:257|207:227,1,88.3199970351563,10|0,0:2|1:2,0:0:0:0:
369,103,113879,1,2,1:2:0:0:
111,269,114024,1,0,1:2:0:0:
111,269,114096,1,0,0:0:0:0:
111,269,114169,6,0,P|120:210|130:180,1,88.3199970351563,6|0,1:2|1:2,0:0:0:0:
291,38,114458,2,0,P|303:80|308:124,1,88.3199970351563,2|0,1:2|1:2,0:0:0:0:
46,173,114748,2,0,P|70:123|185:118,1,176.639994070313,8|0,0:2|1:2,0:0:0:0:
287,252,115183,2,0,P|336:274|375:269,1,88.3199970351563,0|0,1:2|0:0,0:0:0:0:
497,173,115473,1,0,1:2:0:0:
308,124,115618,1,0,1:2:0:0:
478,268,115763,1,0,1:2:0:0:
257,351,115908,1,10,0:2:0:0:
257,351,116053,2,0,P|248:301|233:257,1,88.3199970351563,2|0,1:2|1:2,0:0:0:0:
411,99,116343,1,2,1:2:0:0:
411,99,116415,1,0,0:0:0:0:
411,99,116487,6,0,P|357:186|291:158,1,176.639994070313,4|2,1:2|1:2,0:0:0:0:
118,106,116922,1,0,1:2:0:0:
118,106,117067,2,0,P|164:81|206:83,1,88.3199970351563,10|0,0:2|0:0,0:0:0:0:
134,261,117357,2,0,P|90:259|53:236,1,88.3199970351563,2|0,1:2|1:2,0:0:0:0:
300,169,117647,6,0,P|316:212|325:256,1,88.3199970351563,0|0,0:0|1:2,0:0:0:0:
210,368,117937,2,0,P|219:324|234:283,1,88.3199970351563,2|0,1:2|1:2,0:0:0:0:
451,259,118227,2,0,P|417:295|380:307,1,88.3199970351563,10|0,0:2|1:2,0:0:0:0:
151,179,118516,2,0,P|201:149|276:170,1,132.479995552735,2|0,1:2|0:0,0:0:0:0:
338,228,118806,6,0,P|347:194|355:176,5,44.1599985175782,14|8|8|8|0|0,0:2|0:2|0:2|0:2|1:2|1:2,0:0:0:0:
445,96,119241,2,0,P|416:118|398:122,5,44.1599985175782,8|8|4|4|0|0,3:0|3:0|3:0|3:0|1:2|1:2,0:0:0:0:
276,65,119676,2,0,P|296:73|311:89,3,44.1599985175782,10|8|8|8,0:2|0:2|0:2|0:2,0:0:0:0:
471,108,119966,2,0,P|442:130|424:134,3,44.1599985175782,2|0|4|4,1:2|1:2|3:0|3:0,0:0:0:0:
312,237,120256,2,0,P|321:203|329:185,3,44.1599985175782,8|8|0|0,3:0|3:0|1:2|1:2,0:0:0:0:
487,239,120545,6,0,P|483:306|405:330,1,146.880000896484,10|0,0:2|0:0,0:0:0:0:
339,358,120835,2,0,B|239:360|302:305|182:305,1,146.880000896484,10|0,0:2|0:0,0:0:0:0:
120,290,121125,6,0,P|109:239|94:193,1,88.3199970351563,6|0,1:2|1:2,0:0:0:0:
256,84,121415,2,0,P|243:126|234:169,1,88.3199970351563,2|0,1:2|1:2,0:0:0:0:
416,333,121705,2,0,P|481:303|469:201,1,176.639994070313,8|4,0:2|3:0,0:0:0:0:
281,258,122140,1,8,3:0:0:0:
450,109,122285,2,0,P|402:84|363:86,1,88.3199970351563,0|4,1:2|3:0,0:0:0:0:
179,232,122574,2,0,P|218:249|262:245,1,88.3199970351563,10|0,3:0|1:2,0:0:0:0:
332,23,122864,2,0,P|338:79|344:118,1,88.3199970351563,10|0,0:2|0:0,0:0:0:0:
399,296,123154,1,2,1:2:0:0:
192,104,123299,1,0,1:2:0:0:
192,104,123372,1,0,0:0:0:0:
192,104,123444,6,0,P|147:115|105:126,1,88.3199970351563,6|0,1:2|1:2,0:0:0:0:
50,351,123734,2,0,P|93:315|126:311,1,88.3199970351563,2|0,1:2|1:2,0:0:0:0:
378,323,124024,2,0,P|320:321|214:241,1,176.639994070313,8|4,0:2|3:0,0:0:0:0:
430,182,124458,1,8,3:0:0:0:
430,182,124603,2,0,P|474:211|491:248,1,88.3199970351563,0|4,1:2|3:0,0:0:0:0:
330,219,124893,2,0,P|311:170|312:129,1,88.3199970351563,8|0,3:0|1:2,0:0:0:0:
483,90,125183,1,10,0:2:0:0:
483,90,125328,2,0,P|481:133|463:174,1,88.3199970351563,2|4,1:2|3:0,0:0:0:0:
326,333,125618,1,10,3:0:0:0:
326,333,125690,1,0,0:0:0:0:
326,333,125763,6,0,B|221:331|280:266|148:276,2,176.639994070313,4|2|10,1:2|1:2|0:2,0:0:0:0:
186,362,126487,1,0,1:2:0:0:
367,338,126632,2,0,P|375:295|388:253,1,88.3199970351563,6|8,3:0|3:0,0:0:0:0:
206,163,126922,2,0,P|219:205|226:248,1,88.3199970351563,2|4,1:2|3:0,0:0:0:0:
357,217,127212,2,0,P|365:174|378:132,1,88.3199970351563,10|0,3:0|1:2,0:0:0:0:
160,99,127502,2,0,P|172:141|180:184,1,88.3199970351563,10|0,0:2|0:0,0:0:0:0:
279,103,127792,1,2,1:2:0:0:
193,353,127937,1,0,1:2:0:0:
193,353,128009,1,0,0:0:0:0:
193,353,128082,6,0,P|136:342|111:318,1,88.3199970351563,14|0,0:2|1:2,0:0:0:0:
279,103,128372,1,0,1:2:0:0:
279,103,128516,2,0,P|320:237|320:283,1,176.639994070313,8|0,0:2|1:2,0:0:0:0:
56,219,128951,2,0,P|91:193|134:188,1,88.3199970351563,10|0,0:2|1:2,0:0:0:0:
293,356,129241,5,10,0:2:0:0:
293,356,129338,1,8,0:2:0:0:
293,356,129434,1,8,0:2:0:0:
293,356,129531,2,0,P|280:308|285:287,2,58.8799980234376,8|4|4,0:2|3:0|3:0,0:0:0:0:
400,255,129821,2,0,P|399:284|388:311,2,58.8799980234376,0|0|0,0:2|1:2|1:2,0:0:0:0:
221,232,130111,1,10,3:0:0:0:
221,232,130207,1,8,3:0:0:0:
221,232,130304,1,8,3:0:0:0:
221,232,130401,6,0,P|210:160|198:123,1,97.9200005976563,6|0,1:2|0:0,0:0:0:0:
371,62,130690,2,0,P|358:109|352:157,1,97.9200005976563,0|0,1:2|1:2,0:0:0:0:
196,249,130980,2,0,P|185:177|173:140,1,97.9200005976563,0|0,1:2|1:2,0:0:0:0:
398,54,131270,2,0,P|385:101|379:149,1,97.9200005976563,0|0,1:2|1:2,0:0:0:0:
441,338,131560,6,0,P|392:364|345:354,1,97.9200005976563,8|0,0:2|1:2,0:0:0:0:
185,286,131850,1,0,1:2:0:0:
305,239,131995,1,8,0:2:0:0:
192,371,132140,2,0,P|144:376|102:351,1,97.9200005976563,2|0,1:2|1:2,0:0:0:0:
26,208,132430,2,0,P|101:149|160:160,1,146.880000896484,2|0,1:2|0:0,0:0:0:0:
216,194,132719,6,0,P|271:212|315:204,1,97.9200005976563,6|0,1:2|0:0,0:0:0:0:
472,143,133009,2,0,P|423:137|378:155,1,97.9200005976563,0|0,1:2|1:2,0:0:0:0:
198,207,133299,2,0,P|253:225|297:217,1,97.9200005976563,0|0,1:2|1:2,0:0:0:0:
488,132,133589,2,0,P|439:126|394:144,1,97.9200005976563,2|0,1:2|1:2,0:0:0:0:
286,342,133879,6,0,P|342:320|361:287,1,97.9200005976563,10|0,0:2|0:0,0:0:0:0:
311,82,134169,1,0,1:2:0:0:
311,82,134314,2,0,P|296:140|297:178,1,97.9200005976563,8|0,0:2|1:2,0:0:0:0:
439,340,134603,1,0,1:2:0:0:
439,340,134748,2,0,P|447:292|443:243,1,97.9200005976563,10|0,0:2|1:2,0:0:0:0:
210,204,135038,6,0,P|152:228|112:231,1,97.9200005976563,6|0,1:2|1:2,0:0:0:0:
292,60,135328,2,0,P|340:66|384:87,1,97.9200005976563,0|0,1:2|1:2,0:0:0:0:
220,227,135618,2,0,P|162:251|122:254,1,97.9200005976563,0|0,1:2|1:2,0:0:0:0:
297,37,135908,2,0,P|345:43|389:64,1,97.9200005976563,0|0,1:2|1:2,0:0:0:0:
154,170,136198,6,0,P|130:106|132:71,1,97.9200005976563,8|0,0:2|0:0,0:0:0:0:
353,169,136487,1,0,1:2:0:0:
353,169,136632,2,0,P|350:217|329:261,1,97.9200005976563,8|0,0:2|1:2,0:0:0:0:
118,346,136922,1,0,1:2:0:0:
118,346,137067,2,0,P|168:293|264:289,1,146.880000896484,0|0,1:2|0:0,0:0:0:0:
305,350,137357,6,0,P|262:264|263:153,1,195.840001195313,6|0,1:2|1:2,0:0:0:0:
360,14,137792,1,0,1:2:0:0:
497,157,137937,2,0,P|472:221|350:240,1,195.840001195313,2|0,1:2|1:2,0:0:0:0:
170,187,138372,1,0,1:2:0:0:
324,30,138516,6,0,P|342:95|345:165,1,97.9200005976563,14|0,0:2|0:0,0:0:0:0:
158,316,138806,1,8,3:0:0:0:
116,291,138878,1,0,0:0:0:0:
103,246,138950,1,4,3:0:0:0:
125,203,139023,1,8,3:0:0:0:
170,187,139096,6,0,P|212:198|230:210,3,48.9600002988281,10|0|4|4,3:0|0:0|3:0|3:0,0:0:0:0:
292,268,139386,2,0,P|269:277|245:280,3,48.9600002988281,2|0|0|0,1:2|1:2|1:2|0:0,0:0:0:0:
97,183,139676,6,0,P|81:122|192:65,1,195.840001195313,6|0,1:2|1:2,0:0:0:0:
371,80,140111,1,0,1:2:0:0:
371,80,140256,2,0,P|322:115|273:111,1,97.9200005976563,0|0,1:2|1:2,0:0:0:0:
90,202,140545,2,0,P|138:206|174:237,1,97.9200005976563,0|0,1:2|1:2,0:0:0:0:
306,368,140835,5,8,0:2:0:0:
306,368,140980,2,0,P|317:297|327:264,1,97.9200005976563,0|0,0:0|1:2,0:0:0:0:
156,141,141270,2,0,P|168:188|174:236,1,97.9200005976563,8|0,0:2|1:2,0:0:0:0:
143,369,141560,1,0,1:2:0:0:
251,170,141705,2,0,P|304:144|348:138,1,97.9200005976563,0|0,1:2|1:2,0:0:0:0:
492,312,141995,6,0,P|444:302|400:280,1,97.9200005976563,4|0,1:2|1:2,0:0:0:0:
232,158,142285,2,0,P|285:132|329:126,1,97.9200005976563,0|0,1:2|1:2,0:0:0:0:
480,191,142574,1,0,1:2:0:0:
246,317,142719,1,8,0:2:0:0:
246,317,142864,2,0,P|198:307|154:285,1,97.9200005976563,0|0,1:2|1:2,0:0:0:0:
189,65,143154,6,0,P|232:42|280:33,1,97.9200005976563,8|0,0:2|1:2,0:0:0:0:
111,193,143444,1,0,1:2:0:0:
111,193,143589,2,0,P|101:136|88:91,1,97.9200005976563,8|0,0:2|1:2,0:0:0:0:
298,208,143879,1,0,1:2:0:0:
298,208,144024,2,0,P|285:255|277:303,1,97.9200005976563,10|0,0:2|1:2,0:0:0:0:
449,129,144314,6,0,P|405:168|349:168,1,97.9200005976563,6|0,1:2|1:2,0:0:0:0:
162,103,144603,2,0,P|209:112|243:146,1,97.9200005976563,0|0,1:2|1:2,0:0:0:0:
253,326,144893,2,0,P|219:360|171:369,1,97.9200005976563,2|0,1:2|1:2,0:0:0:0:
36,218,145183,2,0,P|51:270|57:322,1,97.9200005976563,2|0,1:2|1:2,0:0:0:0:
243,146,145473,6,0,P|228:198|222:250,1,97.9200005976563,10|4,0:2|3:0,0:0:0:0:
140,120,145763,1,0,1:2:0:0:
306,245,145908,2,0,P|358:267|401:256,1,97.9200005976563,8|0,0:2|1:2,0:0:0:0:
499,121,146198,1,0,1:2:0:0:
499,121,146343,2,0,P|451:113|408:134,1,97.9200005976563,10|0,3:0|1:2,0:0:0:0:
423,355,146632,6,0,P|474:271|456:179,2,178.559992916016,14|10|10,0:2|0:2|0:2,0:0:0:0:
235,199,147792,2,0,B|345:194|293:264|409:257,2,178.559992916016,4|4|4,1:3|1:3|1:3,0:0:0:0:
461,45,148951,6,0,B|160:70|393:275|65:303,1,510.720006234375,6|0,1:2|0:0,0:0:0:0:
