osu file format v14

[General]
AudioFilename: audio.mp3
AudioLeadIn: 0
PreviewTime: 44021
Countdown: 0
SampleSet: Normal
StackLeniency: 0.7
Mode: 1
LetterboxInBreaks: 0
WidescreenStoryboard: 1

[Editor]
Bookmarks: 24328,58790,80944,100636,115405,152328
DistanceSpacing: 1.2
BeatDivisor: 4
GridSize: 16
TimelineZoom: 1

[Metadata]
Title:Konzatsu Communication
TitleUnicode:混雑コミュニケーション
Artist:ONE OK ROCK
ArtistUnicode:ONE OK ROCK
Creator:donkat
Version:Oni
Source:
Tags:niche syndrome jerry cdhsausageboy Nicheシンドローム profanity
BeatmapID:1213654
BeatmapSetID:552186

[Difficulty]
HPDrainRate:6
CircleSize:2
OverallDifficulty:5
ApproachRate:3
SliderMultiplier:1.4
SliderTickRate:1

[Events]
//Background and Video events
0,0,"thumb-1920-123243.jpg",0,65
//Break Periods
//Storyboard Layer 0 (Background)
//Storyboard Layer 1 (Fail)
//Storyboard Layer 2 (Pass)
//Storyboard Layer 3 (Foreground)
//Storyboard Sound Samples

[TimingPoints]
2192,307.692307692308,4,1,0,100,1,0
2268,-100,4,1,0,100,0,1
12038,-100,4,1,0,100,0,0
58807,-90.9090909090909,4,1,0,100,0,1
73576,-100,4,1,0,100,0,0

[Colours]
Combo1 : 247,252,39
Combo2 : 66,255,66
Combo3 : 39,227,237
Combo4 : 242,28,28

[HitObjects]
256,188,2191,5,4,0:0:0:0:
256,188,2345,1,0,0:0:0:0:
256,188,2653,1,0,0:0:0:0:
256,188,2807,1,8,0:0:0:0:
256,188,2961,1,0,0:0:0:0:
256,188,3268,1,0,0:0:0:0:
256,188,3345,1,0,0:0:0:0:
256,188,3422,1,8,0:0:0:0:
256,188,3576,1,0,0:0:0:0:
256,188,3730,1,8,0:0:0:0:
256,188,3884,1,8,0:0:0:0:
256,188,4038,1,0,0:0:0:0:
256,188,4345,1,8,0:0:0:0:
256,188,4422,1,8,0:0:0:0:
256,188,4499,1,8,0:0:0:0:
256,188,4576,1,8,0:0:0:0:
256,188,4653,1,0,0:0:0:0:
256,188,4807,1,0,0:0:0:0:
256,188,5115,1,0,0:0:0:0:
256,188,5268,1,8,0:0:0:0:
256,188,5422,1,0,0:0:0:0:
256,188,5576,1,0,0:0:0:0:
256,188,5884,1,8,0:0:0:0:
256,188,6038,1,8,0:0:0:0:
256,188,6192,1,0,0:0:0:0:
256,188,6345,1,8,0:0:0:0:
256,188,6422,1,0,0:0:0:0:
256,188,6499,1,0,0:0:0:0:
256,188,6653,1,0,0:0:0:0:
256,188,6807,1,8,0:0:0:0:
256,188,6961,1,0,0:0:0:0:
256,188,7115,1,0,0:0:0:0:
256,188,7268,1,8,0:0:0:0:
256,188,7576,1,8,0:0:0:0:
256,188,7730,1,0,0:0:0:0:
256,188,7884,1,0,0:0:0:0:
256,188,8038,1,8,0:0:0:0:
256,188,8345,1,8,0:0:0:0:
256,188,8499,1,0,0:0:0:0:
256,188,8653,1,0,0:0:0:0:
256,188,8807,1,8,0:0:0:0:
256,188,8961,1,0,0:0:0:0:
256,188,9038,1,0,0:0:0:0:
256,188,9115,1,8,0:0:0:0:
256,188,9268,1,8,0:0:0:0:
256,188,9345,1,0,0:0:0:0:
256,188,9422,1,0,0:0:0:0:
256,188,9576,1,4,0:0:0:0:
256,188,9730,1,4,0:0:0:0:
256,188,9884,1,8,0:0:0:0:
256,188,10038,1,8,0:0:0:0:
256,188,10192,1,4,0:0:0:0:
256,188,10345,1,4,0:0:0:0:
256,188,10499,1,8,0:0:0:0:
256,188,10653,1,8,0:0:0:0:
256,188,10807,1,0,0:0:0:0:
256,188,10884,1,0,0:0:0:0:
256,188,10961,1,0,0:0:0:0:
256,188,11115,1,8,0:0:0:0:
256,188,11192,1,8,0:0:0:0:
256,188,11268,1,8,0:0:0:0:
256,188,11422,1,0,0:0:0:0:
256,188,11499,1,0,0:0:0:0:
256,188,11576,1,8,0:0:0:0:
256,188,11730,1,8,0:0:0:0:
256,188,11884,1,4,0:0:0:0:
256,188,12345,1,8,0:0:0:0:
256,188,12653,1,0,0:0:0:0:
256,188,12807,1,0,0:0:0:0:
256,188,12961,1,8,0:0:0:0:
256,188,13268,1,0,0:0:0:0:
256,188,13422,1,0,0:0:0:0:
256,188,13576,1,8,0:0:0:0:
256,188,13730,1,0,0:0:0:0:
256,188,13884,1,0,0:0:0:0:
256,188,14192,1,8,0:0:0:0:
256,188,14346,1,4,0:0:0:0:
256,188,14807,1,8,0:0:0:0:
256,188,14961,1,8,0:0:0:0:
256,188,15038,1,8,0:0:0:0:
256,188,15115,1,0,0:0:0:0:
256,188,15268,1,0,0:0:0:0:
256,188,15422,1,8,0:0:0:0:
256,188,15576,1,8,0:0:0:0:
256,188,15730,1,0,0:0:0:0:
256,188,16038,1,8,0:0:0:0:
256,188,16115,1,0,0:0:0:0:
256,188,16192,1,0,0:0:0:0:
256,188,16345,1,0,0:0:0:0:
256,188,16422,1,0,0:0:0:0:
256,188,16499,1,8,0:0:0:0:
256,188,16576,1,8,0:0:0:0:
256,188,16653,1,8,0:0:0:0:
256,188,16807,1,4,0:0:0:0:
256,188,17268,1,0,0:0:0:0:
256,188,17576,1,8,0:0:0:0:
256,188,17884,1,8,0:0:0:0:
256,188,17961,1,0,0:0:0:0:
256,188,18038,1,0,0:0:0:0:
256,188,18192,1,0,0:0:0:0:
256,188,18499,1,0,0:0:0:0:
256,188,18807,1,8,0:0:0:0:
256,188,18961,1,0,0:0:0:0:
256,188,19115,1,0,0:0:0:0:
256,188,19192,1,0,0:0:0:0:
256,188,19268,1,8,0:0:0:0:
256,188,19345,1,8,0:0:0:0:
256,188,19422,1,0,0:0:0:0:
256,188,19730,1,8,0:0:0:0:
256,188,20038,1,0,0:0:0:0:
256,188,20345,1,8,0:0:0:0:
256,188,20653,1,0,0:0:0:0:
256,188,20807,1,0,0:0:0:0:
256,188,20961,1,8,0:0:0:0:
256,188,21115,1,0,0:0:0:0:
256,188,21268,1,0,0:0:0:0:
256,188,21576,1,8,0:0:0:0:
256,188,21730,1,4,0:0:0:0:
256,188,22192,1,0,0:0:0:0:
256,188,22499,1,8,0:0:0:0:
256,188,22807,1,8,0:0:0:0:
256,188,22884,1,0,0:0:0:0:
256,188,22961,1,0,0:0:0:0:
256,188,23115,1,0,0:0:0:0:
256,188,23268,1,8,0:0:0:0:
256,188,23422,1,0,0:0:0:0:
256,188,23730,1,8,0:0:0:0:
256,188,23884,1,0,0:0:0:0:
256,188,24038,1,8,0:0:0:0:
256,188,24115,1,0,0:0:0:0:
256,188,24192,1,0,0:0:0:0:
256,188,24268,1,0,0:0:0:0:
256,188,24345,1,0,0:0:0:0:
256,188,24499,1,0,0:0:0:0:
256,188,24653,1,8,0:0:0:0:
256,188,24961,1,8,0:0:0:0:
256,188,25268,1,8,0:0:0:0:
256,188,25576,1,0,0:0:0:0:
256,188,25730,1,0,0:0:0:0:
256,188,25884,1,8,0:0:0:0:
256,188,26192,1,0,0:0:0:0:
256,188,26499,1,8,0:0:0:0:
256,188,26576,1,8,0:0:0:0:
256,188,26653,1,8,0:0:0:0:
256,188,26730,1,8,0:0:0:0:
256,188,26807,1,0,0:0:0:0:
256,188,26961,1,0,0:0:0:0:
256,188,27115,1,8,0:0:0:0:
256,188,27422,1,8,0:0:0:0:
256,188,27730,1,8,0:0:0:0:
256,188,27884,1,0,0:0:0:0:
256,188,28038,1,8,0:0:0:0:
256,188,28345,1,8,0:0:0:0:
256,188,28653,1,0,0:0:0:0:
256,188,28807,1,0,0:0:0:0:
256,188,28961,1,8,0:0:0:0:
256,188,29038,1,8,0:0:0:0:
256,188,29115,1,8,0:0:0:0:
256,188,29192,1,8,0:0:0:0:
256,188,29268,1,0,0:0:0:0:
256,188,29422,1,0,0:0:0:0:
256,188,29576,1,8,0:0:0:0:
256,188,29884,1,0,0:0:0:0:
256,188,30192,1,8,0:0:0:0:
256,188,30345,1,0,0:0:0:0:
256,188,30422,1,0,0:0:0:0:
256,188,30499,1,0,0:0:0:0:
256,188,30653,1,0,0:0:0:0:
256,188,30807,1,8,0:0:0:0:
256,188,31115,1,8,0:0:0:0:
256,188,31268,1,0,0:0:0:0:
256,188,31422,1,0,0:0:0:0:
256,188,31499,1,0,0:0:0:0:
256,188,31576,1,8,0:0:0:0:
256,188,31730,1,0,0:0:0:0:
256,188,31884,1,0,0:0:0:0:
256,188,32038,1,8,0:0:0:0:
256,188,32192,1,0,0:0:0:0:
256,188,32345,1,8,0:0:0:0:
256,188,32653,1,0,0:0:0:0:
256,188,32807,1,0,0:0:0:0:
256,188,32961,1,0,0:0:0:0:
256,188,33115,1,0,0:0:0:0:
256,188,33268,1,8,0:0:0:0:
256,188,33422,1,0,0:0:0:0:
256,188,33576,1,0,0:0:0:0:
256,188,33730,1,8,0:0:0:0:
256,188,33884,1,8,0:0:0:0:
256,188,33961,1,8,0:0:0:0:
256,188,34038,1,8,0:0:0:0:
256,188,34115,1,8,0:0:0:0:
256,188,34192,1,0,0:0:0:0:
256,188,34345,1,0,0:0:0:0:
256,188,34499,1,8,0:0:0:0:
256,188,34807,1,0,0:0:0:0:
256,188,34884,1,0,0:0:0:0:
256,188,34961,1,8,0:0:0:0:
256,188,35115,1,0,0:0:0:0:
256,188,35268,1,0,0:0:0:0:
256,188,35345,1,0,0:0:0:0:
256,188,35422,1,0,0:0:0:0:
256,188,35576,1,0,0:0:0:0:
256,188,35730,1,8,0:0:0:0:
256,188,35884,1,0,0:0:0:0:
256,188,35961,1,0,0:0:0:0:
256,188,36038,1,8,0:0:0:0:
256,188,36192,1,0,0:0:0:0:
256,188,36268,1,8,0:0:0:0:
256,188,36345,1,8,0:0:0:0:
256,188,36499,1,8,0:0:0:0:
256,188,36653,1,0,0:0:0:0:
256,188,36961,1,8,0:0:0:0:
256,188,37115,1,0,0:0:0:0:
256,188,37422,1,0,0:0:0:0:
256,188,37576,1,0,0:0:0:0:
256,188,37807,1,0,0:0:0:0:
256,188,37884,1,0,0:0:0:0:
256,188,38192,1,0,0:0:0:0:
256,188,38499,1,8,0:0:0:0:
256,188,38807,1,8,0:0:0:0:
256,188,38961,1,0,0:0:0:0:
256,188,39038,1,0,0:0:0:0:
256,188,39115,1,0,0:0:0:0:
256,188,39268,1,0,0:0:0:0:
256,188,39422,1,0,0:0:0:0:
256,188,39499,1,0,0:0:0:0:
256,188,39576,1,8,0:0:0:0:
256,188,39730,1,0,0:0:0:0:
256,188,39807,1,0,0:0:0:0:
256,188,39884,1,8,0:0:0:0:
256,188,39961,1,8,0:0:0:0:
256,188,40038,1,0,0:0:0:0:
256,188,40192,1,0,0:0:0:0:
256,188,40345,1,8,0:0:0:0:
256,188,40499,1,0,0:0:0:0:
256,188,40576,1,0,0:0:0:0:
256,188,40653,1,8,0:0:0:0:
256,188,40884,1,0,0:0:0:0:
256,188,40961,1,0,0:0:0:0:
256,188,41115,1,0,0:0:0:0:
256,188,41268,1,0,0:0:0:0:
256,188,41576,1,0,0:0:0:0:
256,188,41653,1,0,0:0:0:0:
256,188,41730,1,0,0:0:0:0:
256,188,41884,1,8,0:0:0:0:
256,188,42038,1,8,0:0:0:0:
256,188,42192,1,0,0:0:0:0:
256,188,42268,1,0,0:0:0:0:
256,188,42345,1,0,0:0:0:0:
256,188,42499,1,8,0:0:0:0:
256,188,42653,1,8,0:0:0:0:
256,188,42807,1,8,0:0:0:0:
256,188,42884,1,0,0:0:0:0:
256,188,42961,1,0,0:0:0:0:
256,188,43115,1,8,0:0:0:0:
256,188,43192,1,8,0:0:0:0:
256,188,43268,1,0,0:0:0:0:
256,188,43422,1,8,0:0:0:0:
256,188,43576,1,8,0:0:0:0:
256,188,43730,1,0,0:0:0:0:
256,188,43884,1,8,0:0:0:0:
256,188,44038,1,0,0:0:0:0:
256,188,44345,1,0,0:0:0:0:
256,188,44422,1,0,0:0:0:0:
256,188,44499,1,0,0:0:0:0:
256,188,44653,1,8,0:0:0:0:
256,188,44730,1,8,0:0:0:0:
256,188,44807,1,8,0:0:0:0:
256,188,44961,1,0,0:0:0:0:
256,188,45038,1,0,0:0:0:0:
256,188,45115,1,0,0:0:0:0:
256,188,45268,1,0,0:0:0:0:
256,188,45576,1,0,0:0:0:0:
256,188,45653,1,0,0:0:0:0:
256,188,45730,1,0,0:0:0:0:
256,188,45884,1,8,0:0:0:0:
256,188,45961,1,8,0:0:0:0:
256,188,46038,1,8,0:0:0:0:
256,188,46192,1,0,0:0:0:0:
256,188,46268,1,0,0:0:0:0:
256,188,46345,1,0,0:0:0:0:
256,188,46499,1,0,0:0:0:0:
256,188,46807,1,8,0:0:0:0:
256,188,47115,1,0,0:0:0:0:
256,188,47268,1,0,0:0:0:0:
256,188,47422,1,8,0:0:0:0:
256,188,47730,1,0,0:0:0:0:
256,188,48038,1,8,0:0:0:0:
256,188,48268,1,0,0:0:0:0:
256,188,48345,1,0,0:0:0:0:
256,188,48499,1,0,0:0:0:0:
256,188,48653,1,8,0:0:0:0:
256,188,48730,1,8,0:0:0:0:
256,188,48807,1,0,0:0:0:0:
256,188,48961,1,0,0:0:0:0:
256,188,49268,1,8,0:0:0:0:
256,188,49345,1,8,0:0:0:0:
256,188,49422,1,8,0:0:0:0:
256,188,49576,1,0,0:0:0:0:
256,188,49653,1,0,0:0:0:0:
256,188,49730,1,0,0:0:0:0:
256,188,49884,1,0,0:0:0:0:
256,188,49961,1,0,0:0:0:0:
256,188,50038,1,0,0:0:0:0:
256,188,50192,1,0,0:0:0:0:
256,188,50499,1,8,0:0:0:0:
256,188,50575,1,8,0:0:0:0:
256,188,50652,1,8,0:0:0:0:
256,188,50806,1,0,0:0:0:0:
256,188,50883,1,0,0:0:0:0:
256,188,50960,1,0,0:0:0:0:
256,188,51114,1,8,0:0:0:0:
256,188,51191,1,8,0:0:0:0:
256,188,51268,1,8,0:0:0:0:
256,188,51422,1,0,0:0:0:0:
256,188,51730,1,8,0:0:0:0:
256,188,52038,1,0,0:0:0:0:
256,188,52192,1,0,0:0:0:0:
256,188,52345,1,8,0:0:0:0:
256,188,52653,1,0,0:0:0:0:
256,188,52730,1,0,0:0:0:0:
256,188,52807,1,0,0:0:0:0:
256,188,52961,1,8,0:0:0:0:
256,188,53115,1,8,0:0:0:0:
256,188,53268,1,0,0:0:0:0:
256,188,53345,1,0,0:0:0:0:
256,188,53422,1,0,0:0:0:0:
256,188,53576,1,8,0:0:0:0:
256,188,53884,1,0,0:0:0:0:
256,188,54192,1,8,0:0:0:0:
256,188,54268,1,0,0:0:0:0:
256,188,54345,1,0,0:0:0:0:
256,188,54499,1,0,0:0:0:0:
256,188,54576,1,0,0:0:0:0:
256,188,54653,1,8,0:0:0:0:
256,188,54807,1,0,0:0:0:0:
256,188,54884,1,0,0:0:0:0:
256,188,54961,1,8,0:0:0:0:
256,188,55115,1,8,0:0:0:0:
256,188,55422,1,8,0:0:0:0:
256,188,55499,1,8,0:0:0:0:
256,188,55576,1,0,0:0:0:0:
256,188,55730,1,8,0:0:0:0:
256,188,55807,1,8,0:0:0:0:
256,188,55884,1,8,0:0:0:0:
256,188,56038,1,8,0:0:0:0:
256,188,56115,1,8,0:0:0:0:
256,188,56192,1,0,0:0:0:0:
256,188,56345,1,0,0:0:0:0:
256,188,56653,1,8,0:0:0:0:
256,188,56807,1,0,0:0:0:0:
256,188,56961,1,0,0:0:0:0:
256,188,57038,1,0,0:0:0:0:
256,188,57115,1,0,0:0:0:0:
256,188,57268,1,8,0:0:0:0:
256,188,57422,1,0,0:0:0:0:
256,188,57576,1,0,0:0:0:0:
256,192,57884,12,0,58499,0:0:0:0:
254,188,58807,5,4,0:0:0:0:
254,188,58961,1,0,0:0:0:0:
254,188,59268,1,0,0:0:0:0:
254,188,59422,1,8,0:0:0:0:
254,188,59576,1,0,0:0:0:0:
254,188,59884,1,0,0:0:0:0:
254,188,59961,1,0,0:0:0:0:
254,188,60038,1,8,0:0:0:0:
254,188,60192,1,0,0:0:0:0:
254,188,60345,1,8,0:0:0:0:
254,188,60422,1,0,0:0:0:0:
254,188,60499,1,0,0:0:0:0:
254,188,60653,1,8,0:0:0:0:
254,188,60807,1,0,0:0:0:0:
254,188,61115,1,8,0:0:0:0:
254,188,61268,1,4,0:0:0:0:
254,188,61422,1,0,0:0:0:0:
254,188,61730,1,0,0:0:0:0:
254,188,61884,1,8,0:0:0:0:
254,188,62038,1,0,0:0:0:0:
254,188,62345,1,0,0:0:0:0:
254,188,62422,1,8,0:0:0:0:
254,188,62499,1,0,0:0:0:0:
254,188,62653,1,0,0:0:0:0:
254,188,62807,1,8,0:0:0:0:
254,188,62884,1,8,0:0:0:0:
254,188,62961,1,0,0:0:0:0:
254,188,63038,1,0,0:0:0:0:
254,188,63115,1,8,0:0:0:0:
254,188,63268,1,8,0:0:0:0:
254,188,63422,1,8,0:0:0:0:
254,188,63576,1,0,0:0:0:0:
254,188,63730,1,12,0:0:0:0:
254,188,63884,1,0,0:0:0:0:
254,188,64192,1,0,0:0:0:0:
254,188,64345,1,8,0:0:0:0:
254,188,64499,1,0,0:0:0:0:
254,188,64807,1,0,0:0:0:0:
254,188,64961,1,0,0:0:0:0:
254,188,65115,1,8,0:0:0:0:
254,188,65422,1,0,0:0:0:0:
254,188,65576,1,8,0:0:0:0:
254,188,65730,1,0,0:0:0:0:
254,188,65884,1,8,0:0:0:0:
254,188,65961,1,8,0:0:0:0:
254,188,66038,1,8,0:0:0:0:
254,188,66192,1,4,0:0:0:0:
254,188,66345,1,0,0:0:0:0:
254,188,66653,1,0,0:0:0:0:
254,188,66807,1,12,0:0:0:0:
254,188,67115,1,4,0:0:0:0:
254,188,67422,1,0,0:0:0:0:
254,188,67499,1,0,0:0:0:0:
254,188,67576,1,0,0:0:0:0:
254,188,67653,1,0,0:0:0:0:
254,188,67730,1,8,0:0:0:0:
254,188,67884,1,8,0:0:0:0:
254,188,67961,1,8,0:0:0:0:
254,188,68038,1,0,0:0:0:0:
254,188,68192,1,8,0:0:0:0:
254,188,68345,1,8,0:0:0:0:
254,188,68499,1,4,0:0:0:0:
254,188,68807,1,0,0:0:0:0:
254,188,68961,1,8,0:0:0:0:
254,188,69268,1,0,0:0:0:0:
254,188,69422,1,0,0:0:0:0:
254,188,69576,1,8,0:0:0:0:
254,188,69730,1,0,0:0:0:0:
254,188,69807,1,0,0:0:0:0:
254,188,69884,1,0,0:0:0:0:
254,188,70038,1,0,0:0:0:0:
254,188,70192,1,8,0:0:0:0:
254,188,70345,1,0,0:0:0:0:
254,188,70499,1,8,0:0:0:0:
254,188,70653,1,8,0:0:0:0:
254,188,70807,1,8,0:0:0:0:
254,188,70961,1,0,0:0:0:0:
254,188,71422,1,8,0:0:0:0:
254,188,71576,1,0,0:0:0:0:
254,188,71730,1,0,0:0:0:0:
254,188,71884,1,0,0:0:0:0:
254,188,71961,1,0,0:0:0:0:
254,188,72038,1,8,0:0:0:0:
254,188,72192,1,0,0:0:0:0:
254,188,72345,1,8,0:0:0:0:
254,188,72499,1,0,0:0:0:0:
254,188,72653,1,8,0:0:0:0:
254,188,72807,1,0,0:0:0:0:
254,188,72961,1,8,0:0:0:0:
254,188,73038,1,8,0:0:0:0:
254,188,73115,1,8,0:0:0:0:
254,188,73192,1,8,0:0:0:0:
254,188,73268,1,0,0:0:0:0:
254,188,73345,1,0,0:0:0:0:
254,188,73422,1,0,0:0:0:0:
254,188,73730,1,0,0:0:0:0:
254,188,73884,1,0,0:0:0:0:
254,188,74192,1,8,0:0:0:0:
254,188,74653,1,0,0:0:0:0:
254,188,74807,1,8,0:0:0:0:
254,188,74961,1,0,0:0:0:0:
254,188,75115,1,0,0:0:0:0:
254,188,75268,1,0,0:0:0:0:
254,188,75422,1,8,0:0:0:0:
254,188,75499,1,0,0:0:0:0:
254,188,75576,1,0,0:0:0:0:
254,188,75730,1,8,0:0:0:0:
254,188,75807,1,8,0:0:0:0:
254,188,75884,1,0,0:0:0:0:
254,188,76192,1,0,0:0:0:0:
254,188,76345,1,8,0:0:0:0:
254,188,76653,1,0,0:0:0:0:
254,188,76807,1,0,0:0:0:0:
254,188,76961,1,8,0:0:0:0:
254,188,77192,1,8,0:0:0:0:
254,188,77268,1,0,0:0:0:0:
254,188,77422,1,0,0:0:0:0:
254,188,77576,1,8,0:0:0:0:
254,188,77730,1,8,0:0:0:0:
254,188,77884,1,0,0:0:0:0:
254,188,78192,1,8,0:0:0:0:
254,188,78268,1,8,0:0:0:0:
254,188,78345,1,0,0:0:0:0:
254,188,78653,1,0,0:0:0:0:
254,188,78807,1,0,0:0:0:0:
254,188,79115,1,8,0:0:0:0:
254,188,79653,1,0,0:0:0:0:
254,188,79730,1,8,0:0:0:0:
254,188,79884,1,8,0:0:0:0:
254,188,80038,1,8,0:0:0:0:
254,188,80192,1,0,0:0:0:0:
254,188,80345,1,8,0:0:0:0:
254,188,80422,1,8,0:0:0:0:
254,188,80499,1,0,0:0:0:0:
254,188,80653,1,0,0:0:0:0:
254,188,80807,1,8,0:0:0:0:
254,188,80961,1,0,0:0:0:0:
