osu file format v14

[General]
AudioFilename: audio.mp3
AudioLeadIn: 0
PreviewTime: 44021
Countdown: 0
SampleSet: Normal
StackLeniency: 0.7
Mode: 1
LetterboxInBreaks: 0
WidescreenStoryboard: 1

[Editor]
Bookmarks: 24328,80944,100636,115405,152328
DistanceSpacing: 1.2
BeatDivisor: 4
GridSize: 4
TimelineZoom: 1

[Metadata]
Title:Konzatsu Communication
TitleUnicode:混雑コミュニケーション
Artist:ONE OK ROCK
ArtistUnicode:ONE OK ROCK
Creator:donkat
Version:Muzukashii
Source:
Tags:niche syndrome jerry cdhsausageboy Nicheシンドローム profanity
BeatmapID:1169523
BeatmapSetID:552186

[Difficulty]
HPDrainRate:5
CircleSize:2
OverallDifficulty:5
ApproachRate:3
SliderMultiplier:1.4
SliderTickRate:1

[Events]
//Background and Video events
0,0,"thumb-1920-123243.jpg",0,65
//Break Periods
//Storyboard Layer 0 (Background)
//Storyboard Layer 1 (Fail)
//Storyboard Layer 2 (Pass)
//Storyboard Layer 3 (Foreground)
//Storyboard Sound Samples

[TimingPoints]
2192,307.692307692308,4,1,0,100,1,0
2268,-100,4,1,0,100,0,1
16807,-100,4,1,0,100,0,0
58807,-90.9090909090909,4,1,0,100,0,1
73576,-100,4,1,0,100,0,0

[Colours]
Combo1 : 247,252,39
Combo2 : 66,255,66
Combo3 : 39,227,237
Combo4 : 242,28,28

[HitObjects]
256,108,2192,5,4,0:0:0:0:
256,108,2653,1,8,0:0:0:0:
256,108,3115,1,0,0:0:0:0:
256,108,3730,1,8,0:0:0:0:
256,108,4038,1,0,0:0:0:0:
256,108,4192,1,0,0:0:0:0:
256,108,4345,1,8,0:0:0:0:
256,108,4499,1,0,0:0:0:0:
256,108,4653,1,0,0:0:0:0:
256,108,5115,1,8,0:0:0:0:
256,108,5576,1,0,0:0:0:0:
256,108,6192,1,0,0:0:0:0:
256,108,6499,1,8,0:0:0:0:
256,108,6807,1,0,0:0:0:0:
256,108,7115,1,0,0:0:0:0:
256,108,7422,1,0,0:0:0:0:
256,108,7730,1,8,0:0:0:0:
256,108,8038,1,0,0:0:0:0:
256,108,8653,1,0,0:0:0:0:
256,108,9268,1,0,0:0:0:0:
256,108,9576,1,8,0:0:0:0:
256,108,9730,1,0,0:0:0:0:
256,108,10038,1,0,0:0:0:0:
256,108,10192,1,8,0:0:0:0:
256,108,10345,1,0,0:0:0:0:
256,108,10499,1,0,0:0:0:0:
256,108,10807,1,8,0:0:0:0:
256,108,10884,1,8,0:0:0:0:
256,108,10961,1,8,0:0:0:0:
256,108,11115,1,0,0:0:0:0:
256,108,11422,1,0,0:0:0:0:
256,108,11576,1,0,0:0:0:0:
256,108,11730,1,8,0:0:0:0:
256,108,11884,1,12,0:0:0:0:
256,108,12345,1,8,0:0:0:0:
256,108,12653,1,0,0:0:0:0:
256,108,12807,1,0,0:0:0:0:
256,108,12961,1,8,0:0:0:0:
256,108,13268,1,0,0:0:0:0:
256,108,13576,1,8,0:0:0:0:
256,108,13884,1,0,0:0:0:0:
256,108,14038,1,0,0:0:0:0:
256,108,14192,1,8,0:0:0:0:
256,108,14345,1,0,0:0:0:0:
256,108,14653,1,0,0:0:0:0:
256,108,14807,1,8,0:0:0:0:
256,108,15115,1,0,0:0:0:0:
256,108,15268,1,0,0:0:0:0:
256,108,15422,1,8,0:0:0:0:
256,108,15730,1,0,0:0:0:0:
256,108,16038,1,8,0:0:0:0:
256,108,16345,1,0,0:0:0:0:
256,108,16653,1,8,0:0:0:0:
256,108,16807,1,4,0:0:0:0:
256,108,17268,1,0,0:0:0:0:
256,108,17576,1,12,0:0:0:0:
256,108,18038,1,0,0:0:0:0:
256,108,18499,1,0,0:0:0:0:
256,108,18807,1,8,0:0:0:0:
256,108,18961,1,0,0:0:0:0:
256,108,19268,1,4,0:0:0:0:
256,108,19730,1,8,0:0:0:0:
256,108,20038,1,0,0:0:0:0:
256,108,20345,1,8,0:0:0:0:
256,108,20653,1,0,0:0:0:0:
256,108,20961,1,8,0:0:0:0:
256,108,21268,1,0,0:0:0:0:
256,108,21422,1,0,0:0:0:0:
256,108,21576,1,8,0:0:0:0:
256,108,21730,1,4,0:0:0:0:
256,108,22192,1,0,0:0:0:0:
256,108,22499,1,12,0:0:0:0:
256,108,22961,1,0,0:0:0:0:
256,108,23422,1,0,0:0:0:0:
256,108,23730,1,8,0:0:0:0:
256,108,23884,1,8,0:0:0:0:
256,108,24038,1,8,0:0:0:0:
256,108,24345,1,4,0:0:0:0:
256,108,24653,1,0,0:0:0:0:
256,108,24730,1,0,0:0:0:0:
256,108,24807,1,0,0:0:0:0:
256,108,24961,1,8,0:0:0:0:
256,108,25268,1,0,0:0:0:0:
256,108,25576,1,0,0:0:0:0:
256,108,25884,1,0,0:0:0:0:
256,108,26192,1,8,0:0:0:0:
256,108,26499,1,8,0:0:0:0:
256,108,26576,1,8,0:0:0:0:
256,108,26653,1,8,0:0:0:0:
256,108,26807,1,0,0:0:0:0:
256,108,27115,1,0,0:0:0:0:
256,108,27422,1,8,0:0:0:0:
256,108,27730,1,0,0:0:0:0:
256,108,28038,1,0,0:0:0:0:
256,108,28345,1,0,0:0:0:0:
256,108,28653,1,8,0:0:0:0:
256,108,28961,1,8,0:0:0:0:
256,108,29038,1,8,0:0:0:0:
256,108,29115,1,8,0:0:0:0:
256,108,29268,1,0,0:0:0:0:
256,108,29422,1,0,0:0:0:0:
256,108,29576,1,8,0:0:0:0:
256,108,29884,1,0,0:0:0:0:
256,108,30192,1,8,0:0:0:0:
256,108,30345,1,0,0:0:0:0:
256,108,30499,1,0,0:0:0:0:
256,108,30807,1,8,0:0:0:0:
256,108,31115,1,0,0:0:0:0:
256,108,31422,1,8,0:0:0:0:
256,108,31730,1,8,0:0:0:0:
256,108,31884,1,0,0:0:0:0:
256,108,32038,1,8,0:0:0:0:
256,108,32345,1,0,0:0:0:0:
256,108,32499,1,0,0:0:0:0:
256,108,32653,1,8,0:0:0:0:
256,108,32961,1,4,0:0:0:0:
256,108,33268,1,4,0:0:0:0:
256,108,33576,1,12,0:0:0:0:
256,108,33884,1,8,0:0:0:0:
256,108,34038,1,0,0:0:0:0:
256,108,34115,1,0,0:0:0:0:
256,108,34192,1,0,0:0:0:0:
256,108,34499,1,8,0:0:0:0:
256,108,34807,1,0,0:0:0:0:
256,108,34961,1,0,0:0:0:0:
256,108,35115,1,8,0:0:0:0:
256,108,35422,1,0,0:0:0:0:
256,108,35730,1,8,0:0:0:0:
256,108,36038,1,0,0:0:0:0:
256,108,36192,1,0,0:0:0:0:
256,108,36345,1,8,0:0:0:0:
256,108,36499,1,0,0:0:0:0:
256,108,36576,1,0,0:0:0:0:
256,108,36653,1,0,0:0:0:0:
256,108,36961,1,8,0:0:0:0:
256,108,37268,1,0,0:0:0:0:
256,108,37422,1,0,0:0:0:0:
256,108,37576,1,8,0:0:0:0:
256,108,37884,1,0,0:0:0:0:
256,108,38192,1,8,0:0:0:0:
256,108,38499,1,0,0:0:0:0:
256,108,38807,1,8,0:0:0:0:
256,108,38961,1,0,0:0:0:0:
256,108,39115,1,0,0:0:0:0:
256,108,39422,1,8,0:0:0:0:
256,108,39730,1,0,0:0:0:0:
256,108,39884,1,0,0:0:0:0:
256,108,40038,1,8,0:0:0:0:
256,108,40345,1,0,0:0:0:0:
256,108,40653,1,8,0:0:0:0:
256,108,40961,1,0,0:0:0:0:
256,108,41115,1,0,0:0:0:0:
256,108,41268,1,8,0:0:0:0:
256,108,41576,1,0,0:0:0:0:
256,108,41884,1,8,0:0:0:0:
256,108,42192,1,0,0:0:0:0:
256,108,42499,1,8,0:0:0:0:
256,108,42653,1,8,0:0:0:0:
256,108,42807,1,0,0:0:0:0:
256,108,42884,1,0,0:0:0:0:
256,108,42961,1,0,0:0:0:0:
256,108,43115,1,8,0:0:0:0:
256,108,43422,1,0,0:0:0:0:
256,108,43499,1,0,0:0:0:0:
256,108,43576,1,0,0:0:0:0:
256,108,43730,1,8,0:0:0:0:
256,108,44038,1,4,0:0:0:0:
256,108,44345,1,8,0:0:0:0:
256,108,44653,1,8,0:0:0:0:
256,108,44961,1,0,0:0:0:0:
256,108,45268,1,0,0:0:0:0:
256,108,45576,1,8,0:0:0:0:
256,108,45884,1,8,0:0:0:0:
256,108,46192,1,0,0:0:0:0:
256,108,46499,1,0,0:0:0:0:
256,108,46807,1,8,0:0:0:0:
256,108,47115,1,0,0:0:0:0:
256,108,47268,1,0,0:0:0:0:
256,108,47422,1,8,0:0:0:0:
256,108,47730,1,0,0:0:0:0:
256,108,48038,1,8,0:0:0:0:
256,108,48345,1,0,0:0:0:0:
256,108,48422,1,0,0:0:0:0:
256,108,48499,1,0,0:0:0:0:
256,108,48653,1,8,0:0:0:0:
256,108,48961,1,4,0:0:0:0:
256,108,49268,1,8,0:0:0:0:
256,108,49576,1,0,0:0:0:0:
256,108,49884,1,0,0:0:0:0:
256,108,50192,1,0,0:0:0:0:
256,108,50499,1,8,0:0:0:0:
256,108,50807,1,0,0:0:0:0:
256,108,51115,1,8,0:0:0:0:
256,108,51422,1,0,0:0:0:0:
256,108,51730,1,8,0:0:0:0:
256,108,52038,1,0,0:0:0:0:
256,108,52192,1,0,0:0:0:0:
256,108,52345,1,8,0:0:0:0:
256,108,52653,1,0,0:0:0:0:
256,108,52961,1,8,0:0:0:0:
256,108,53268,1,0,0:0:0:0:
256,108,53345,1,0,0:0:0:0:
256,108,53422,1,0,0:0:0:0:
256,108,53576,1,8,0:0:0:0:
256,108,53884,1,0,0:0:0:0:
256,108,54192,1,12,0:0:0:0:
256,108,54499,1,4,0:0:0:0:
256,108,54807,1,4,0:0:0:0:
256,108,55115,1,0,0:0:0:0:
256,108,55422,1,4,0:0:0:0:
256,108,55730,1,12,0:0:0:0:
256,108,56038,1,4,0:0:0:0:
256,108,56345,1,0,0:0:0:0:
256,108,56653,1,8,0:0:0:0:
256,108,56961,1,0,0:0:0:0:
256,108,57115,1,0,0:0:0:0:
256,108,57268,1,8,0:0:0:0:
256,108,57422,1,8,0:0:0:0:
256,108,57499,1,8,0:0:0:0:
256,108,57576,1,8,0:0:0:0:
248,112,58807,5,4,0:0:0:0:
248,112,58961,1,0,0:0:0:0:
248,112,59268,1,0,0:0:0:0:
248,112,59422,1,8,0:0:0:0:
248,112,59576,1,0,0:0:0:0:
248,112,59884,1,0,0:0:0:0:
248,112,60038,1,0,0:0:0:0:
248,112,60192,1,0,0:0:0:0:
248,112,60499,1,0,0:0:0:0:
248,112,60653,1,8,0:0:0:0:
248,112,60961,1,0,0:0:0:0:
248,112,61268,1,4,0:0:0:0:
248,112,61422,1,0,0:0:0:0:
248,112,61730,1,0,0:0:0:0:
248,112,61884,1,8,0:0:0:0:
248,112,62038,1,0,0:0:0:0:
248,112,62345,1,0,0:0:0:0:
248,112,62499,1,8,0:0:0:0:
248,112,62653,1,8,0:0:0:0:
248,112,62807,1,0,0:0:0:0:
248,112,63115,1,8,0:0:0:0:
248,112,63422,1,0,0:0:0:0:
248,112,63730,1,0,0:0:0:0:
248,112,63807,1,0,0:0:0:0:
248,112,63884,1,0,0:0:0:0:
248,112,64038,1,0,0:0:0:0:
248,112,64345,1,8,0:0:0:0:
248,112,64653,1,0,0:0:0:0:
248,112,64961,1,0,0:0:0:0:
248,112,65038,1,0,0:0:0:0:
248,112,65115,1,0,0:0:0:0:
248,112,65268,1,0,0:0:0:0:
248,112,65576,1,8,0:0:0:0:
248,112,65884,1,0,0:0:0:0:
248,112,66192,1,8,0:0:0:0:
248,112,66499,1,0,0:0:0:0:
248,112,66807,1,8,0:0:0:0:
248,112,66961,1,0,0:0:0:0:
248,112,67115,1,0,0:0:0:0:
248,112,67422,1,8,0:0:0:0:
248,112,67499,1,8,0:0:0:0:
248,112,67576,1,8,0:0:0:0:
248,112,67730,1,0,0:0:0:0:
248,112,68038,1,8,0:0:0:0:
248,112,68192,1,0,0:0:0:0:
248,112,68345,1,8,0:0:0:0:
248,112,68499,1,0,0:0:0:0:
248,112,68961,1,8,0:0:0:0:
248,112,69268,1,0,0:0:0:0:
248,112,69345,1,0,0:0:0:0:
248,112,69422,1,0,0:0:0:0:
248,112,69576,1,8,0:0:0:0:
248,112,69884,1,0,0:0:0:0:
248,112,70192,1,8,0:0:0:0:
248,112,70345,1,0,0:0:0:0:
248,112,70653,1,0,0:0:0:0:
248,112,70807,1,8,0:0:0:0:
248,112,70961,1,0,0:0:0:0:
248,112,71115,1,0,0:0:0:0:
248,112,71422,1,8,0:0:0:0:
248,112,71730,1,0,0:0:0:0:
248,112,71884,1,0,0:0:0:0:
248,112,72038,1,8,0:0:0:0:
248,112,72192,1,8,0:0:0:0:
248,112,72345,1,4,0:0:0:0:
248,112,72653,1,4,0:0:0:0:
248,112,72961,1,0,0:0:0:0:
248,112,73115,1,0,0:0:0:0:
248,112,73268,1,8,0:0:0:0:
248,112,73422,1,8,0:0:0:0:
248,112,73576,1,4,0:0:0:0:
248,112,73884,1,4,0:0:0:0:
248,112,74192,1,12,0:0:0:0:
248,112,74807,1,0,0:0:0:0:
248,112,75115,1,0,0:0:0:0:
248,112,75422,1,8,0:0:0:0:
248,112,75499,1,8,0:0:0:0:
248,112,75576,1,8,0:0:0:0:
248,112,75730,1,8,0:0:0:0:
248,112,75884,1,0,0:0:0:0:
248,112,76345,1,8,0:0:0:0:
248,112,76653,1,0,0:0:0:0:
248,112,76807,1,0,0:0:0:0:
248,112,76961,1,8,0:0:0:0:
248,112,77268,1,0,0:0:0:0:
248,112,77576,1,8,0:0:0:0:
248,112,77730,1,0,0:0:0:0:
248,112,78038,1,0,0:0:0:0:
248,112,78192,1,0,0:0:0:0:
248,112,78345,1,8,0:0:0:0:
248,112,78653,1,0,0:0:0:0:
248,112,78807,1,0,0:0:0:0:
248,112,78961,1,0,0:0:0:0:
248,112,79115,1,12,0:0:0:0:
248,112,79730,1,0,0:0:0:0:
248,112,79884,1,0,0:0:0:0:
248,112,80038,1,0,0:0:0:0:
248,112,80345,1,12,0:0:0:0:
248,112,80961,1,4,0:0:0:0:
