osu file format v14

[General]
AudioFilename: audio.mp3
AudioLeadIn: 0
PreviewTime: 59086
Countdown: 0
SampleSet: Soft
StackLeniency: 0.7
Mode: 0
LetterboxInBreaks: 0
EpilepsyWarning: 1
WidescreenStoryboard: 1

[Editor]
Bookmarks: 447,20240,30126,40022,49919,59867,80077,89819
DistanceSpacing: 1
BeatDivisor: 4
GridSize: 32
TimelineZoom: 1.9

[Metadata]
Title:Ketsuraku Automation
TitleUnicode:欠落オートメーション
Artist:ONE OK ROCK
ArtistUnicode:ONE OK ROCK
Creator:Elinor
Version:Normal
Source:
Tags:Reform kujinn armin a_r_m_i_n [_eli_] eli rock j-rock japanese the beginning cut male vocalist band english edit ver version jrock
BeatmapID:2382645
BeatmapSetID:1140692

[Difficulty]
HPDrainRate:4
CircleSize:3
OverallDifficulty:4.5
ApproachRate:5.4
SliderMultiplier:1
SliderTickRate:1

[Events]
//Background and Video events
0,0,"background.jpg",0,0
//Break Periods
//Storyboard Layer 0 (Background)
//Storyboard Layer 1 (Fail)
//Storyboard Layer 2 (Pass)
//Storyboard Layer 3 (Foreground)
//Storyboard Layer 4 (Overlay)
//Storyboard Sound Samples

[TimingPoints]
447,309.278350515464,4,2,22,50,1,0
447,-100,4,2,22,50,0,0
20240,-125,4,2,22,50,0,0
30126,309.278350515464,4,2,22,65,1,0
30126,-111.111111111111,4,2,22,65,0,0
38631,-125,4,2,22,65,0,0
39404,-142.857142857143,4,2,22,65,0,0
40022,-99.9999999999999,4,2,22,70,0,0
49919,-99.9999999999999,4,2,22,75,0,0
51012,309.278350515464,4,2,22,75,1,0
51012,-100,4,2,22,75,0,0
51166,309.278350515464,4,2,22,75,1,0
51166,-100,4,2,22,75,0,0
52258,309.278350515464,4,2,22,75,1,0
52258,-100,4,2,22,75,0,0
52412,309.278350515464,4,2,22,75,1,0
52412,-100,4,2,22,75,0,0
56123,312.5,4,2,22,75,1,0
56123,-100,4,2,22,75,0,0
58623,309.278350515464,4,2,22,75,1,0
58623,-100,4,2,22,75,0,0
59867,315.789473684211,4,2,22,80,1,0
59867,-100,4,2,22,80,0,1
80077,309.278350515464,4,2,22,70,1,0
80077,-100,4,2,22,70,0,0
89819,-142.857142857143,4,2,22,70,0,0

[Colours]
Combo1 : 116,184,184
Combo2 : 255,218,130
Combo3 : 243,148,101
Combo4 : 255,159,162

[HitObjects]
23,79,20550,6,0,P|88:37|158:70,1,160,2|2,0:2|0:2,0:0:0:0:
209,236,21787,2,0,P|249:276|349:276,1,160,2|2,0:2|0:2,0:0:0:0:
480,161,23024,1,2,0:2:0:0:
493,74,23333,1,2,0:2:0:0:
413,37,23642,2,0,P|353:37|305:117,1,160,2|2,0:2|0:2,0:0:0:0:
314,203,24570,1,2,0:2:0:0:
283,285,24879,2,0,B|207:273|217:332|125:318,1,160,2|2,0:2|0:2,0:0:0:0:
61,156,26117,6,0,P|52:110|45:76,2,80,2|2|2,0:2|0:2|0:2,0:0:0:0:
126,214,27044,1,2,0:2:0:0:
175,141,27354,1,2,0:2:0:0:
254,177,27663,2,0,P|293:170|334:161,1,80,2|2,0:2|0:2,0:0:0:0:
407,115,28282,1,2,0:2:0:0:
480,163,28591,2,0,P|468:219|448:327,1,160,2|0,0:2|0:2,0:0:0:0:
366,350,29519,1,2,0:2:0:0:
300,291,29828,1,2,0:2:0:0:
206,273,30126,6,0,L|158:285,1,44.999998626709,0|0,1:2|1:2,0:0:0:0:
137,321,30435,2,0,L|49:305,1,89.9999972534181,2|0,0:2|0:2,0:0:0:0:
19,219,31053,2,0,P|7:175|19:127,1,89.9999972534181,2|0,0:2|0:2,0:0:0:0:
96,91,31672,2,0,L|188:103,1,89.9999972534181,2|0,0:2|0:2,0:0:0:0:
255,158,32290,1,2,0:2:0:0:
308,230,32600,6,0,L|356:222,1,44.999998626709,0|0,1:2|1:2,0:0:0:0:
397,217,32909,1,2,0:2:0:0:
480,183,33218,1,2,0:2:0:0:
464,96,33528,2,0,P|428:80|376:80,1,89.9999972534181,2|0,0:2|0:2,0:0:0:0:
296,120,34146,1,2,0:2:0:0:
240,192,34455,6,0,L|260:288,2,89.9999972534181,2|2|0,0:2|0:2|1:2,0:0:0:0:
208,160,35229,1,2,1:2:0:0:
208,160,35383,2,0,P|136:160|116:256,1,179.999994506836,2|0,0:2|0:2,0:0:0:0:
208,348,36466,1,0,0:2:0:0:
252,268,36775,2,0,L|264:224,2,44.999998626709,2|2|2,0:2|0:2|0:2,0:0:0:0:
333,307,37394,6,0,L|341:351,2,44.999998626709,2|2|2,0:2|1:2|1:2,0:0:0:0:
384,233,38012,1,2,0:2:0:0:
437,160,38321,1,2,0:2:0:0:
384,90,38631,2,0,B|288:77|325:163|200:149,1,200,2|0,0:2|0:2,0:0:0:0:
12,88,40022,6,0,P|20:120|36:196,1,100,14|2,0:2|1:2,0:0:0:0:
68,221,40486,2,0,P|112:197|160:185,1,100,10|2,0:2|1:2,0:0:0:0:
259,195,41105,2,0,P|283:239|283:287,1,100,2|10,1:2|0:2,0:0:0:0:
273,337,41569,1,2,1:2:0:0:
176,361,41878,1,8,0:2:0:0:
92,306,42187,1,8,0:2:0:0:
70,208,42497,6,0,L|62:108,1,100,14|2,0:2|1:2,0:0:0:0:
77,60,42961,2,0,P|109:32|165:32,1,100,10|2,0:2|1:2,0:0:0:0:
222,112,43579,2,0,P|264:128|315:147,1,100,2|10,1:2|0:2,0:0:0:0:
360,170,44043,1,2,1:2:0:0:
459,176,44352,1,8,0:2:0:0:
492,84,44662,1,10,0:2:0:0:
404,40,44971,6,0,L|304:32,1,100,14|2,0:2|1:2,0:0:0:0:
272,72,45435,2,0,L|172:80,1,100,10|2,0:2|1:2,0:0:0:0:
72,64,46053,2,0,P|80:108|89:168,1,100,2|10,1:2|0:2,0:0:0:0:
99,211,46517,1,2,1:2:0:0:
144,300,46827,1,8,0:2:0:0:
224,240,47136,1,10,0:2:0:0:
301,176,47445,6,0,P|354:162|396:175,1,100,14|2,0:2|1:2,0:0:0:0:
432,209,47909,2,0,P|444:259|436:307,1,100,10|2,0:2|1:2,0:0:0:0:
355,365,48528,2,0,L|251:357,1,100,2|10,1:2|0:2,0:0:0:0:
205,354,48991,1,2,1:2:0:0:
105,342,49301,1,10,0:2:0:0:
97,242,49610,1,8,0:2:0:0:
185,195,49919,6,0,L|297:179,1,100,2|10,0:0|0:2,0:0:0:0:
333,170,50383,2,0,P|342:120|329:67,1,100,2|2,0:2|1:2,0:0:0:0:
236,32,51012,1,2,1:2:0:0:
136,32,51320,1,2,1:2:0:0:
76,112,51629,2,0,P|86:155|100:212,1,100,2|0,0:2|1:2,0:0:0:0:
116,256,52093,1,8,0:2:0:0:
173,341,52412,6,0,L|229:329,1,50,2|2,0:2|1:2,0:0:0:0:
267,310,52721,2,0,B|325:310|319:338|367:338,1,100,10|10,0:2|0:2,0:0:0:0:
448,284,53339,1,2,1:2:0:0:
448,284,53494,2,0,P|464:236|448:192,1,100,10|2,0:2|1:2,0:0:0:0:
348,168,54113,2,0,L|248:156,1,100,10|0,0:2|1:0,0:0:0:0:
200,152,54576,1,8,0:2:0:0:
148,64,54886,6,0,L|96:76,2,50,2|2|10,0:2|1:2|0:2,0:0:0:0:
196,52,55350,2,0,L|296:36,1,100,2|2,0:2|1:2,0:0:0:0:
344,32,55814,1,10,0:2:0:0:
416,92,56123,2,0,P|436:136|436:188,1,100,2|10,0:2|0:2,0:0:0:0:
400,220,56591,2,0,P|328:208|288:204,1,100,2|2,0:2|1:2,0:0:0:0:
252,200,57060,1,8,0:2:0:0:
252,200,57216,6,0,P|180:216|152:224,1,100,2|0,1:2|1:0,0:0:0:0:
108,236,57685,1,8,0:0:0:0:
40,164,57998,2,0,L|32:108,1,50,8|8,0:3|0:3,0:0:0:0:
32,64,58310,2,0,L|84:56,1,50,8|8,0:3|0:3,0:0:0:0:
132,44,58623,2,0,B|208:28|204:84|280:68,1,150,4|4,0:3|0:3,0:0:0:0:
324,60,59241,1,10,0:2:0:0:
416,24,59550,1,10,0:2:0:0:
484,96,59867,6,0,P|472:140|460:200,1,100,6|10,1:2|0:2,0:0:0:0:
432,292,60498,2,0,L|376:284,1,50,2|0,1:2|1:2,0:0:0:0:
332,284,60814,2,0,L|232:308,1,100,10|0,0:2|1:2,0:0:0:0:
136,332,61445,1,10,0:2:0:0:
68,260,61761,2,0,L|72:208,1,50,2|0,1:2|1:2,0:0:0:0:
76,160,62077,1,10,0:2:0:0:
116,68,62393,6,0,P|148:44|212:44,1,100,2|10,1:2|0:2,0:0:0:0:
300,76,63024,2,0,L|296:132,1,50,2|0,1:2|1:2,0:0:0:0:
304,176,63340,2,0,L|328:276,1,100,10|0,0:2|1:2,0:0:0:0:
413,328,63972,1,10,0:2:0:0:
476,248,64288,2,0,L|483:196,1,50,2|0,1:2|1:2,0:0:0:0:
484,148,64603,1,10,0:2:0:0:
400,96,64919,6,0,B|354:91|354:126|304:120,1,100,2|10,1:2|0:2,0:0:0:0:
208,96,65551,2,0,L|196:148,1,50,2|0,1:2|1:2,0:0:0:0:
151,167,65867,2,0,P|161:207|171:267,1,100,10|0,0:2|1:2,0:0:0:0:
232,343,66498,1,10,0:2:0:0:
329,321,66814,2,0,L|378:311,1,50,2|0,1:2|1:2,0:0:0:0:
426,299,67130,1,10,0:2:0:0:
426,299,67288,6,0,P|450:255|450:207,1,100,6|0,1:2|1:2,0:0:0:0:
442,156,67761,1,10,0:2:0:0:
377,79,68077,1,12,0:2:0:0:
280,105,68393,1,8,0:2:0:0:
198,48,68709,2,0,B|152:48|148:80|106:80,1,100,14|8,0:2|0:2,0:0:0:0:
56,80,69182,1,10,0:2:0:0:
56,80,69340,1,4,0:3:0:0:
32,176,69656,2,0,P|39:204|44:228,1,50,8|8,0:3|0:3,0:0:0:0:
64,272,69972,6,0,P|116:272|152:244,1,100,6|10,1:2|0:2,0:0:0:0:
208,160,70603,1,2,1:2:0:0:
292,108,70919,2,0,P|340:96|388:108,1,100,10|0,0:2|1:2,0:0:0:0:
451,175,71551,1,10,0:2:0:0:
474,272,71867,2,0,L|466:321,1,50,2|0,1:2|1:2,0:0:0:0:
429,355,72182,1,10,0:2:0:0:
329,350,72498,6,0,P|285:334|233:326,1,100,2|10,1:2|0:2,0:0:0:0:
163,252,73130,1,2,1:2:0:0:
223,172,73445,2,0,B|267:172|267:212|311:212,2,100,10|0|8,0:2|1:2|0:2,0:0:0:0:
163,252,74393,2,0,L|179:316,1,50,2|0,1:2|1:2,0:0:0:0:
196,348,74709,1,8,0:2:0:0:
196,348,74867,6,0,P|243:334|296:328,1,100,6|0,1:2|1:2,0:0:0:0:
344,332,75340,1,8,0:2:0:0:
444,324,75656,2,0,P|452:268|460:220,1,100,2|10,1:2|0:2,0:0:0:0:
472,176,76130,1,2,0:2:0:0:
380,136,76445,1,2,1:2:0:0:
312,212,76761,1,2,0:2:0:0:
236,144,77077,2,0,P|232:120|228:92,1,50,2|8,1:2|0:2,0:0:0:0:
240,44,77393,6,0,B|288:40|292:72|340:68,1,100,6|2,1:2|1:2,0:0:0:0:
432,96,78024,1,2,1:2:0:0:
468,188,78340,1,2,1:2:0:0:
407,270,78656,1,2,1:2:0:0:
316,228,78972,2,0,L|267:218,1,50,4|4,0:3|0:3,0:0:0:0:
222,241,79288,2,0,L|122:258,1,100,4|8,0:3|0:3,0:3:0:0:
53,186,79919,1,8,0:2:0:0:
53,186,80077,6,0,L|61:135,1,50,6|0,1:2|1:0,0:0:0:0:
72,87,80386,1,0,1:2:0:0:
157,35,80695,2,0,L|215:44,1,50,8|0,0:2|1:2,0:0:0:0:
255,53,81004,1,0,1:2:0:0:
385,126,81468,2,0,L|445:114,2,50,0|0|0,1:2|1:2|1:2,0:0:0:0:
336,139,81932,2,0,B|287:141|291:175|246:177,1,100,10|0,0:2|1:0,0:0:0:0:
151,210,82551,6,0,L|160:260,1,50,0|0,1:2|1:2,0:0:0:0:
175,306,82860,1,0,1:2:0:0:
265,348,83169,2,0,L|314:340,1,50,8|0,0:2|1:2,0:0:0:0:
364,331,83479,1,0,1:2:0:0:
455,212,83942,2,0,L|508:221,2,50,2|2|0,1:2|1:2|1:2,0:0:0:0:
406,200,84406,2,0,B|354:191|346:224|310:218,1,100,10|0,0:2|1:0,0:0:0:0:
244,142,85025,6,0,L|234:94,1,50,0|0,1:2|1:2,0:0:0:0:
221,44,85334,1,0,1:2:0:0:
121,29,85644,2,0,L|72:42,1,50,8|0,0:2|1:2,0:0:0:0:
25,57,85953,1,0,1:2:0:0:
15,206,86417,2,0,L|8:258,2,50,0|0|0,1:2|1:2|1:2,0:0:0:0:
65,207,86881,2,0,B|115:207|110:234|161:234,1,100,8|0,0:2|1:0,0:0:0:0:
257,213,87499,6,0,L|270:268,1,50,0|0,1:2|1:2,0:0:0:0:
284,310,87808,1,0,1:2:0:0:
381,332,88118,2,0,L|432:319,1,50,8|0,0:2|1:2,0:0:0:0:
478,308,88427,1,0,1:2:0:0:
460,158,88891,2,0,L|509:146,2,50,2|0|0,1:2|1:2|1:2,0:0:0:0:
411,144,89355,2,0,L|355:135,1,50,8|8,0:2|0:2,0:0:0:0:
313,123,89664,1,8,0:2:0:0:
313,123,89819,6,0,B|217:123|249:211|133:211,1,209.999993591309,12|0,0:2|0:2,0:0:0:0:
