osu file format v14

[General]
AudioFilename: audio.mp3
AudioLeadIn: 0
PreviewTime: 59132
Countdown: 0
SampleSet: Soft
StackLeniency: 0.7
Mode: 2
LetterboxInBreaks: 0
WidescreenStoryboard: 0

[Editor]
Bookmarks: 20240,40022,69972
DistanceSpacing: 3.3
BeatDivisor: 4
GridSize: 32
TimelineZoom: 1.9

[Metadata]
Title:Ketsuraku Automation (Cut Ver.)
TitleUnicode:欠落オートメーション (Cut Ver.)
Artist:ONE OK ROCK
ArtistUnicode:ONE OK ROCK
Creator:Souvenir
Version:Restart
Source:
Tags:golo- Juansy- rock j-rock japanese the beginning male vocalist band english edit version jrock short vocals vocal
BeatmapID:3491224
BeatmapSetID:1708553

[Difficulty]
HPDrainRate:6
CircleSize:4.2
OverallDifficulty:9.3
ApproachRate:9.3
SliderMultiplier:1.88
SliderTickRate:2

[Events]
//Background and Video events
0,0,"bgoneokrock.jpg",0,0
//Break Periods
//Storyboard Layer 0 (Background)
//Storyboard Layer 1 (Fail)
//Storyboard Layer 2 (Pass)
//Storyboard Layer 3 (Foreground)
//Storyboard Layer 4 (Overlay)
//Storyboard Sound Samples

[TimingPoints]
20263,309.278350515464,4,2,1,40,1,0
20572,-133.333333333333,4,2,1,40,0,0
24283,320.855614973262,4,2,1,40,1,0
24924,309.278350515464,4,2,1,40,1,0
24924,-133.333333333333,4,2,1,40,0,0
26161,298.507462686567,4,2,1,40,1,0
26161,-133.333333333333,4,2,1,40,0,0
26459,309.278350515464,4,2,1,40,1,0
26459,-133.333333333333,4,2,1,40,0,0
29528,291.26213592233,4,2,1,40,1,0
29528,-133.333333333333,4,2,1,40,0,0
30121,309.278350515464,4,2,1,60,1,0
30121,-100,4,2,1,60,0,0
49926,309.278350515464,4,2,1,70,1,0
49926,-100,4,2,1,70,0,0
51019,309.278350515464,4,2,1,70,1,0
51173,310.880829015544,4,2,1,70,1,0
52261,309.278350515464,4,2,1,70,1,0
52415,309.278350515464,4,2,1,70,1,0
56123,310.880829015544,4,2,1,70,1,0
58299,309.278350515464,4,2,1,70,1,0
58608,311.688311688312,4,2,1,70,1,0
59231,315.789473684211,4,2,1,70,1,0
59231,-100,4,2,1,75,0,0
59862,315.789473684211,4,2,1,80,1,0
59862,-83.3333333333333,4,2,1,80,0,1
80072,309.278350515464,4,2,1,70,1,0
80072,-100,4,2,1,70,0,0
90742,-100,4,2,1,5,0,0

[Colours]
Combo1 : 255,98,98
Combo2 : 183,183,183
Combo3 : 95,95,95

[HitObjects]
96,190,20262,5,2,0:0:0:0:
96,190,20572,6,0,P|167:186|83:77,1,282.000010757447,2|0,0:0|0:0,0:0:0:0:
356,350,21809,2,0,L|374:48,1,282.000010757447,2|0,0:0|0:0,0:0:0:0:
96,270,23046,1,2,0:0:0:0:
202,257,23355,1,2,0:0:0:0:
353,274,23665,6,0,P|265:215|366:116,1,282.000010757447,2|0,0:0|0:0,0:0:0:0:
467,110,24603,1,2,0:0:0:0:
312,55,24924,2,0,L|295:349,1,282.000010757447,2|0,0:0|0:0,0:0:0:0:
32,333,26161,2,0,L|27:199,1,105.750004034043
77,193,26459,5,2,0:0:0:0:
201,178,26768,1,0,0:0:0:0:
329,174,27077,1,0,0:0:0:0:
198,147,27386,6,0,L|195:29,1,105.750004034043
246,22,27696,1,2,0:0:0:0:
388,158,28005,2,0,L|393:37,1,105.750004034043
343,35,28314,1,2,0:0:0:0:
176,48,28623,6,0,P|99:76|187:202,1,282.000010757447,2|0,0:0|0:0,0:0:0:0:
335,316,29528,2,0,L|175:307,1,141.000005378723,2|0,0:0|0:0,0:0:0:0:
480,238,30121,5,10,1:2:0:0:
216,216,30275,1,8,1:2:0:0:
348,196,30430,2,0,L|352:93,1,94,2|0,0:0|0:0,0:0:0:0:
220,90,30739,1,0,0:0:0:0:
88,85,30894,1,0,0:0:0:0:
220,90,31048,2,0,L|220:198,1,94,2|0,0:0|0:0,0:0:0:0:
87,193,31358,5,0,0:0:0:0:
218,204,31512,1,0,0:0:0:0:
350,208,31667,2,0,L|353:324,1,94,2|0,0:0|0:0,0:0:0:0:
220,309,31976,1,0,0:0:0:0:
352,313,32131,1,0,0:0:0:0:
483,318,32285,2,0,L|483:208,1,94,2|0,0:0|0:0,0:0:0:0:
193,207,32595,5,10,1:2:0:0:
459,192,32749,1,8,1:2:0:0:
326,190,32904,2,0,L|323:75,1,94,2|0,0:0|0:0,0:0:0:0:
191,119,33213,2,0,L|187:24,1,94,2|0,0:0|0:0,0:0:0:0:
444,306,33523,2,0,L|449:197,1,94,2|0,0:0|0:0,0:0:0:0:
410,152,33832,1,0,0:0:0:0:
321,128,33986,1,0,0:0:0:0:
39,247,34141,6,0,L|36:136,1,94,2|0,0:0|0:0,0:0:0:0:
256,211,34450,2,0,L|256:104,1,94,2|0,0:0|0:0,0:0:0:0:
473,247,34760,2,0,L|476:136,1,94,2|0,0:0|0:0,0:0:0:0:
184,111,35069,5,10,1:2:0:0:
451,97,35224,1,8,1:2:0:0:
320,104,35378,2,0,L|315:208,1,94,0|2,0:0|0:0,0:0:0:0:
184,111,35688,1,0,0:0:0:0:
53,112,35842,1,0,0:0:0:0:
295,261,35997,5,2,0:0:0:0:
184,111,36151,1,0,0:0:0:0:
70,260,36306,1,0,0:0:0:0:
282,351,36461,1,2,0:0:0:0:
184,111,36615,1,0,0:0:0:0:
85,340,36770,2,0,L|82:236,1,94,2|0,0:0|0:0,0:0:0:0:
214,235,37079,2,0,L|111:228,1,94,2|0,0:0|0:0,0:0:0:0:
117,176,37389,1,0,0:0:0:0:
401,171,37543,5,10,1:2:0:0:
137,154,37698,1,8,1:2:0:0:
268,140,37852,1,0,0:0:0:0:
399,128,38007,1,2,0:0:0:0:
267,161,38162,1,0,0:0:0:0:
399,164,38316,2,0,L|399:272,1,94
266,260,38626,2,0,L|267:155,1,94,2|0,0:0|0:0,0:0:0:0:
399,78,38935,6,0,L|292:73,2,94
267,138,39399,2,0,L|159:127,1,94,2|0,0:0|0:0,0:0:0:0:
397,313,39708,2,0,L|506:308,1,94,2|0,0:0|0:0,0:0:0:0:
111,317,40017,6,0,L|108:217,1,94,14|0,1:2|0:0,0:0:0:0:
241,213,40327,1,0,0:0:0:0:
488,164,40481,1,10,1:2:0:0:
360,127,40636,1,0,0:0:0:0:
488,164,40791,1,0,0:0:0:0:
181,96,40945,1,10,1:2:0:0:
311,84,41100,1,0,0:0:0:0:
441,79,41255,1,0,0:0:0:0:
157,149,41409,6,0,L|217:147,1,47,10|0,1:2|1:0,0:0:0:0:
394,172,41564,1,0,1:0:0:0:
490,265,41718,2,0,L|428:262,1,47,0|0,1:0|1:0,0:0:0:0:
253,257,41873,1,10,1:2:0:0:
159,305,42028,2,0,L|221:299,1,47,0|0,1:0|1:0,0:0:0:0:
394,308,42182,2,0,L|401:242,1,47,10|0,1:2|1:0,0:0:0:0:
209,204,42337,2,0,L|204:137,1,47,0|0,1:2|1:0,0:0:0:0:
448,197,42492,6,0,L|453:81,1,94,10|0,1:2|0:0,0:0:0:0:
321,72,42801,1,0,0:0:0:0:
30,196,42956,1,10,1:2:0:0:
159,182,43110,1,0,0:0:0:0:
30,196,43265,1,0,0:0:0:0:
296,284,43419,1,10,1:2:0:0:
168,273,43574,1,0,0:0:0:0:
39,260,43729,1,0,0:0:0:0:
349,184,43883,6,0,L|278:176,1,47,10|0,1:2|1:0,1:0:0:0:
112,164,44038,1,0,1:2:0:0:
16,81,44193,2,0,L|81:75,1,47,0|0,1:0|1:0,1:0:0:0:
251,93,44347,1,10,1:2:0:0:
346,90,44502,2,0,L|411:86,1,47,0|0,1:0|1:0,1:0:0:0:
200,215,44657,2,0,L|130:206,1,47,10|0,1:2|1:0,1:0:0:0:
376,313,44811,2,0,L|432:310,1,47,0|0,1:0|1:0,1:0:0:0:
161,340,44966,6,0,L|158:238,1,94,14|0,1:2|0:0,0:0:0:0:
292,227,45275,1,0,0:0:0:0:
23,140,45430,1,10,1:2:0:0:
151,132,45584,1,0,0:0:0:0:
281,121,45739,1,0,0:0:0:0:
20,282,45894,1,10,1:2:0:0:
150,278,46048,1,0,0:0:0:0:
20,282,46203,1,0,0:0:0:0:
301,222,46358,6,0,L|356:215,1,47,10|0,1:2|1:0,1:0:0:0:
160,171,46512,1,0,1:0:0:0:
65,105,46667,2,0,L|10:93,1,47,0|0,1:0|1:0,1:0:0:0:
210,91,46822,1,10,1:2:0:0:
474,286,46976,2,0,L|416:276,1,47,0|0,1:0|1:0,1:0:0:0:
234,253,47131,2,0,L|176:243,1,47,10|0,1:2|1:0,1:0:0:0:
425,166,47285,2,0,L|496:160,1,47,0|0,1:0|1:0,1:0:0:0:
186,117,47440,6,0,L|81:111,1,94,10|0,1:2|0:0,0:0:0:0:
224,45,47749,1,0,0:0:0:0:
491,331,47904,1,10,1:2:0:0:
361,312,48059,1,0,0:0:0:0:
491,331,48213,1,0,0:0:0:0:
185,273,48368,1,10,1:2:0:0:
316,264,48523,1,0,0:0:0:0:
446,250,48677,1,0,0:0:0:0:
151,199,48832,6,0,L|81:193,1,47,10|0,1:2|1:0,1:0:0:0:
300,148,48986,1,0,1:0:0:0:
400,126,49141,2,0,L|336:113,1,47,0|0,1:0|1:0,1:0:0:0:
159,97,49296,1,10,1:2:0:0:
256,61,49450,2,0,L|315:56,1,47,0|0,1:0|1:0,1:0:0:0:
105,269,49605,2,0,L|33:266,1,47,10|0,1:2|1:0,1:0:0:0:
299,349,49760,2,0,L|369:343,1,47,10|0,1:2|1:0,1:0:0:0:
68,187,49926,5,6,1:2:0:0:
195,174,50080,1,0,0:0:0:0:
68,187,50235,1,10,0:0:0:0:
348,277,50389,2,0,L|354:176,1,94,0|2,0:0|1:2,0:0:0:0:
68,187,50699,2,0,L|66:77,1,94,0|10,0:0|0:0,0:0:0:0:
338,85,51019,5,0,0:0:0:0:
468,79,51173,1,2,1:2:0:0:
216,189,51328,1,0,0:0:0:0:
348,172,51483,1,10,0:0:0:0:
94,327,51639,1,0,0:0:0:0:
348,209,51794,1,2,1:2:0:0:
216,226,51950,1,0,0:0:0:0:
85,245,52105,1,10,0:0:0:0:
381,252,52261,5,0,0:0:0:0:
251,233,52415,1,2,1:2:0:0:
381,252,52569,1,0,0:0:0:0:
90,199,52724,2,0,L|86:102,1,94,10|0,0:0|0:0,0:0:0:0:
384,217,53033,2,0,L|388:121,1,94,2|0,1:2|0:0,0:0:0:0:
257,108,53342,1,10,0:0:0:0:
21,302,53497,5,0,0:0:0:0:
151,293,53652,1,2,1:2:0:0:
426,275,53806,1,0,0:0:0:0:
296,257,53961,1,10,0:0:0:0:
25,156,54116,2,0,L|85:153,1,47,0|0,1:0|1:0,0:0:0:0:
264,152,54270,1,2,1:2:0:0:
135,126,54425,1,0,1:0:0:0:
390,219,54579,1,10,1:2:0:0:
135,171,54734,1,0,1:0:0:0:
478,339,54889,6,0,L|480:237,1,94,14|0,1:2|0:0,0:0:0:0:
350,236,55198,1,10,0:0:0:0:
70,251,55353,2,0,P|67:174|184:153,1,188,0|0,1:0|0:0,0:0:0:0:
291,143,55817,2,0,L|172:132,1,94,10|0,0:0|0:0,0:0:0:0:
475,208,56123,5,0,1:0:0:0:
347,191,56278,1,0,0:0:0:0:
475,208,56433,1,10,0:0:0:0:
171,299,56589,2,0,L|167:200,1,94,0|0,1:0|0:0,0:0:0:0:
484,186,56900,2,0,L|491:88,1,94,0|10,1:0|0:0,0:0:0:0:
149,76,57211,1,2,1:2:0:0:
471,67,57366,5,14,1:2:0:0:
496,122,57521,1,0,1:0:0:0:
443,176,57677,1,10,0:0:0:0:
331,187,57832,1,0,1:0:0:0:
31,268,57988,2,0,L|81:234,1,47,2|0,1:2|1:0,1:0:0:0:
259,268,58143,2,0,L|304:243,1,47,0|0,1:0|1:0,1:0:0:0:
487,230,58299,2,0,L|431:215,1,47,10|0,1:2|1:0,1:0:0:0:
247,177,58453,2,0,L|179:167,1,47,0|0,1:0|1:0,1:0:0:0:
441,316,58608,6,8,L|458:253,3,47,8|8|8|8,3:0|3:0|3:0|3:0,3:0:0:0:
212,252,58919,2,8,L|156:245,1,47,8|8,3:0|3:0,3:0:0:0:
417,210,59075,2,8,L|352:198,1,47,8|8,3:0|3:0,3:0:0:0:
122,316,59231,2,0,L|53:309,1,47,10|0,1:2|1:0,1:0:0:0:
324,327,59388,2,0,L|383:321,1,47,10|0,1:2|1:0,1:0:0:0:
229,182,59546,1,10,1:2:0:0:
86,166,59625,1,10,1:2:0:0:
229,182,59704,1,10,1:2:0:0:
372,169,59783,1,10,1:2:0:0:
86,166,59862,6,0,L|82:44,1,112.799996557617,4|0,1:0|0:0,0:0:0:0:
369,273,60177,2,0,L|376:131,1,112.799996557617,10|0,1:2|0:0,0:0:0:0:
73,127,60493,1,2,1:2:0:0:
205,117,60651,1,0,0:0:0:0:
487,331,60809,6,0,L|493:78,1,225.599993115235,10|2,1:2|1:2,0:0:0:0:
356,84,61283,1,0,0:0:0:0:
55,231,61440,2,0,L|186:209,1,112.799996557617,10|0,1:2|0:0,0:0:0:0:
463,311,61756,2,0,L|322:288,1,112.799996557617,2|0,1:2|0:0,0:0:0:0:
61,234,62072,2,0,L|60:99,1,112.799996557617,10|0,1:2|1:0,0:0:0:0:
120,96,62309,1,0,1:2:0:0:
350,229,62388,6,0,L|478:219,1,112.799996557617,6|0,1:2|0:0,0:0:0:0:
160,315,62704,2,0,L|157:190,1,112.799996557617,10|0,1:2|0:0,0:0:0:0:
462,162,63019,1,2,1:2:0:0:
324,157,63177,1,0,0:0:0:0:
28,79,63335,6,0,L|22:314,1,225.599993115235,10|0,1:2|1:2,0:0:0:0:
159,303,63809,1,0,0:0:0:0:
458,309,63967,2,0,L|464:179,1,112.799996557617,10|0,1:2|0:0,0:0:0:0:
167,205,64283,2,0,L|165:80,1,112.799996557617,2|0,1:2|0:0,0:0:0:0:
470,130,64598,2,0,L|339:114,1,112.799996557617,10|0,1:2|1:0,0:0:0:0:
301,109,64835,1,0,1:0:0:0:
71,127,64914,6,0,L|193:117,1,112.799996557617,6|0,1:2|0:0,0:0:0:0:
479,326,65230,2,0,L|355:311,1,112.799996557617,10|0,1:2|0:0,0:0:0:0:
69,281,65546,2,0,L|68:159,1,112.799996557617,2|0,1:2|0:0,0:0:0:0:
379,251,65862,6,0,P|298:228|386:197,1,225.599993115235,10|2,1:2|1:2,0:0:0:0:
243,179,66335,1,0,0:0:0:0:
486,347,66493,2,0,L|488:223,1,112.799996557617,10|0,1:2|0:0,0:0:0:0:
200,246,66809,2,0,L|200:118,1,112.799996557617,2|0,1:2|0:0,0:0:0:0:
481,138,67125,1,10,1:2:0:0:
196,73,67283,6,0,P|113:100|209:119,1,225.599993115235,0|0,1:2|0:0,0:0:0:0:
478,328,67756,2,0,L|485:204,1,112.799996557617,10|0,1:2|0:0,0:0:0:0:
346,220,68072,2,0,L|346:84,1,112.799996557617,10|0,1:2|0:0,0:0:0:0:
60,203,68388,2,0,L|52:78,1,112.799996557617,10|0,1:2|0:0,0:0:0:0:
379,339,68704,6,0,L|392:279,3,56.3999982788086,10|0|0|0,1:2|1:2|1:2|1:2,1:2:0:0:
454,262,69019,2,0,L|516:254,1,56.3999982788086,10|0,1:2|1:2,1:2:0:0:
259,221,69177,2,0,L|192:215,1,56.3999982788086,0|0,1:2|1:2,1:2:0:0:
462,187,69335,2,0,L|472:124,1,56.3999982788086,10|0,1:2|1:2,1:2:0:0:
436,82,69493,2,0,L|363:75,1,56.3999982788086,0|0,1:2|1:2,1:2:0:0:
132,99,69651,2,0,L|49:94,1,56.3999982788086,10|0,1:2|1:2,1:2:0:0:
321,279,69809,2,0,L|391:276,1,56.3999982788086,10|0,1:2|1:2,1:2:0:0:
103,309,69967,6,0,L|98:180,1,112.799996557617,4|0,1:0|0:0,0:0:0:0:
321,116,70283,2,0,L|200:107,1,112.799996557617,10|0,1:2|0:0,0:0:0:0:
450,314,70598,2,0,L|458:186,1,112.799996557617,2|0,1:2|0:0,0:0:0:0:
148,263,70914,6,0,L|378:244,1,225.599993115235,10|2,1:2|1:2,0:0:0:0:
378,186,71388,1,0,0:0:0:0:
82,300,71546,2,0,L|80:173,1,112.799996557617,10|0,1:2|0:0,0:0:0:0:
382,162,71862,2,0,L|387:46,1,112.799996557617,2|0,1:2|0:0,0:0:0:0:
82,114,72177,2,0,L|203:102,1,112.799996557617,10|0,1:2|1:0,0:0:0:0:
254,93,72414,1,0,1:0:0:0:
482,302,72493,6,0,L|486:179,1,112.799996557617,2|0,1:2|0:0,0:0:0:0:
199,178,72809,2,0,L|311:172,1,112.799996557617,10|0,1:2|0:0,0:0:0:0:
26,288,73125,2,0,L|25:166,1,112.799996557617,2|0,1:2|0:0,0:0:0:0:
369,242,73440,6,0,L|119:228,1,225.599993115235,10|2,1:2|1:2,0:0:0:0:
142,180,73914,1,0,0:0:0:0:
437,298,74072,1,10,1:2:0:0:
301,275,74230,1,0,0:0:0:0:
38,160,74388,1,2,1:2:0:0:
176,145,74546,1,0,0:0:0:0:
38,160,74704,1,10,1:2:0:0:
369,317,74862,6,0,L|143:297,1,225.599993115235,4|0,1:2|0:0,0:0:0:0:
281,234,75335,1,10,1:2:0:0:
143,296,75493,1,0,0:0:0:0:
446,175,75651,1,2,1:2:0:0:
311,152,75809,1,0,0:0:0:0:
176,132,75967,1,10,1:2:0:0:
476,328,76125,6,0,L|486:202,1,112.799996557617,2|0,1:2|1:0,0:0:0:0:
186,212,76440,2,0,L|184:80,1,112.799996557617,2|10,1:2|1:2,0:0:0:0:
487,134,76756,2,0,L|365:125,1,112.799996557617,2|0,1:2|1:0,0:0:0:0:
37,79,77072,2,0,L|160:73,1,112.799996557617,2|10,1:2|1:2,0:0:0:0:
207,68,77309,1,0,1:0:0:0:
422,288,77388,6,0,L|428:175,1,112.799996557617,2|0,1:2|1:2,0:0:0:0:
86,187,77704,2,0,L|218:177,1,112.799996557617,2|10,1:2|1:2,0:0:0:0:
486,338,78019,2,0,L|370:329,1,112.799996557617,2|0,1:2|1:0,0:0:0:0:
62,333,78335,2,0,L|61:220,1,112.799996557617,2|10,1:2|1:2,0:0:0:0:
404,294,78651,6,0,L|407:174,1,112.799996557617,2|0,1:2|1:2,0:0:0:0:
346,155,78888,1,0,1:2:0:0:
106,179,78967,1,0,1:2:0:0:
89,148,79046,1,0,1:2:0:0:
126,115,79125,1,10,1:2:0:0:
195,110,79204,1,0,1:2:0:0:
424,230,79283,2,0,L|430:298,1,56.3999982788086,0|0,1:2|1:2,1:2:0:0:
352,285,79440,2,0,L|347:348,1,56.3999982788086,10|0,1:2|1:2,1:2:0:0:
101,263,79598,2,0,L|25:257,1,56.3999982788086,0|0,1:2|1:2,1:2:0:0:
289,200,79756,2,0,L|364:194,1,56.3999982788086,10|0,1:2|1:2,1:2:0:0:
101,161,79914,2,0,L|30:152,1,56.3999982788086,10|0,1:2|1:2,1:2:0:0:
303,338,80072,6,0,L|312:228,1,94,6|0,1:2|1:0,0:0:0:0:
79,234,80381,1,10,0:0:0:0:
458,232,80690,2,0,L|460:114,1,94,2|0,1:2|1:0,0:0:0:0:
205,136,80999,1,10,0:0:0:0:
205,136,81463,5,0,1:0:0:0:
457,231,81618,2,0,L|457:330,1,94,10|0,0:2|0:0,0:0:0:0:
205,136,81927,1,0,1:0:0:0:
457,232,82082,2,0,L|461:38,1,188,10|0,0:0|1:0,0:0:0:0:
206,330,82546,6,0,L|203:219,1,94,6|0,1:2|0:0,0:0:0:0:
457,229,82855,1,10,0:0:0:0:
54,232,83164,2,0,L|52:114,1,94,2|0,1:2|1:0,0:0:0:0:
307,136,83474,1,10,0:0:0:0:
307,136,83937,5,0,1:0:0:0:
53,232,84092,2,0,L|53:333,1,94,10|0,0:0|0:0,0:0:0:0:
307,136,84401,1,2,1:2:0:0:
53,232,84556,2,0,L|47:36,1,188,10|0,0:0|1:0,0:0:0:0:
302,241,85020,5,6,1:2:0:0:
170,216,85175,1,0,1:0:0:0:
38,197,85329,1,10,0:0:0:0:
420,169,85639,1,2,1:2:0:0:
288,142,85793,1,0,1:0:0:0:
156,123,85948,1,10,0:0:0:0:
156,123,86412,5,0,1:0:0:0:
288,142,86566,1,10,0:0:0:0:
156,123,86721,1,0,0:0:0:0:
420,170,86876,1,2,1:2:0:0:
156,123,87030,2,0,L|152:226,1,94,10|0,0:0|0:0,0:0:0:0:
420,170,87340,1,0,1:0:0:0:
145,267,87494,5,6,1:2:0:0:
277,242,87649,1,0,1:0:0:0:
409,223,87803,1,10,0:0:0:0:
27,195,88113,1,2,1:2:0:0:
159,168,88267,1,0,1:2:0:0:
291,149,88422,1,10,0:0:0:0:
291,149,88886,5,0,1:0:0:0:
159,168,89041,1,10,0:0:0:0:
291,149,89195,1,0,0:0:0:0:
22,314,89350,1,2,1:2:0:0:
151,307,89504,1,10,0:0:0:0:
22,314,89659,1,0,1:0:0:0:
289,297,89814,5,10,0:0:0:0:
256,192,89968,12,0,90742,0:0:0:0:
