osu file format v14

[General]
AudioFilename: audio.mp3
AudioLeadIn: 0
PreviewTime: 207926
Countdown: 0
SampleSet: Soft
StackLeniency: 0.2
Mode: 0
LetterboxInBreaks: 0
WidescreenStoryboard: 1

[Editor]
Bookmarks: 17294,42558,123400,237059
DistanceSpacing: 0.6
BeatDivisor: 8
GridSize: 32
TimelineZoom: 1.5

[Metadata]
Title:Kanzen Kankaku Dreamer
TitleUnicode:完全感覚Dreamer
Artist:ONE OK ROCK
ArtistUnicode:ONE OK ROCK
Creator:Nevo
Version:Smokeman's Absolution
Source:
Tags:japanese rock smokeman akitoshi agatsu kowari reform -Laura- xchorse corinn kujinn
BeatmapID:2026941
BeatmapSetID:940222

[Difficulty]
HPDrainRate:6
CircleSize:3.6
OverallDifficulty:8.5
ApproachRate:9.3
SliderMultiplier:1.9
SliderTickRate:1

[Events]
//Background and Video events
0,0,"kanzenkankakudreamerbgsmokeman.png",0,0
//Break Periods
2,93084,102146
//Storyboard Layer 0 (Background)
//Storyboard Layer 1 (Fail)
//Storyboard Layer 2 (Pass)
//Storyboard Layer 3 (Foreground)
//Storyboard Layer 4 (Overlay)
//Storyboard Sound Samples

[TimingPoints]
2132,315.756236185665,4,2,1,70,1,0
2132,-200,4,2,1,70,0,0
4026,-142.857142857143,4,2,1,70,0,0
5921,-100,4,2,1,70,0,0
7184,-80,4,2,1,85,0,0
7499,-68.9655172413793,4,2,1,85,0,0
7815,-80,4,2,1,85,0,0
9710,-80,4,2,1,85,0,0
10025,-80,4,2,1,85,0,0
17288,-80,4,2,1,85,0,0
17604,-68.9655172413793,4,2,1,85,0,0
17919,-80,4,2,1,85,0,0
19814,-80,4,2,1,85,0,0
20130,-80,4,2,1,85,0,0
23129,-86.9565217391304,4,2,1,85,0,0
23603,-74.0740740740741,4,2,1,85,0,0
24866,-68.9655172413793,4,2,1,85,0,0
26445,-64.5161290322581,4,2,1,85,0,0
26760,-60.6060606060606,4,2,1,85,0,0
27076,-57.1428571428571,4,2,1,85,0,0
27392,-153.846153846153,4,2,1,70,0,0
31813,-285.714285714284,4,2,1,55,0,0
31892,-285.714285714284,4,2,1,5,0,0
31970,-285.714285714284,4,2,1,55,0,0
32049,-285.714285714284,4,2,1,5,0,0
32128,-285.714285714284,4,2,1,55,0,0
32207,-285.714285714284,4,2,1,5,0,0
32286,-285.714285714284,4,2,1,55,0,0
32365,-285.714285714284,4,2,1,5,0,0
32444,-100,4,2,1,70,0,0
52652,-125,4,2,1,65,0,0
67809,-111.111111111111,4,2,1,65,0,0
69072,-90.9090909090909,4,2,1,70,0,0
70335,-76.9230769230769,4,2,1,75,0,0
72229,-66.6666666666667,4,2,1,90,0,0
72861,-60.6060606060606,4,2,1,85,0,1
75387,-74.0740740740741,4,2,1,85,0,1
76334,-54.054054054054,4,2,1,85,0,1
76650,-74.0740740740741,4,2,1,85,0,1
82965,-60.6060606060606,4,2,1,85,0,1
84860,-74.0740740740741,4,2,1,85,0,1
88649,-64.5161290322581,4,2,1,85,0,1
88964,-57.1428571428571,4,2,1,85,0,1
89280,-74.0740740740741,4,2,1,85,0,1
90543,-48.780487804878,4,2,1,95,0,0
93069,-80,4,2,1,85,0,1
93148,-80,4,2,1,85,0,0
103173,-80,4,2,1,85,0,0
109015,-86.9565217391304,4,2,1,85,0,0
109331,-74.0740740740741,4,2,1,85,0,0
110752,-68.9655172413792,4,2,1,85,0,0
112330,-64.5161290322581,4,2,1,85,0,0
112646,-222.222222222222,4,2,1,55,0,0
112725,-222.222222222222,4,2,1,5,0,0
112804,-222.222222222222,4,2,1,55,0,0
112883,-222.222222222222,4,2,1,5,0,0
112962,-222.222222222222,4,2,1,50,0,0
113041,-222.222222222222,4,2,1,5,0,0
113120,-222.222222222222,4,2,1,55,0,0
113199,-222.222222222222,4,2,1,5,0,0
113278,-166.666666666667,4,2,1,55,0,0
115804,-100,4,2,1,70,0,0
125276,-100,4,2,1,80,0,0
125908,-100,4,2,1,70,0,0
133486,-125,4,2,1,65,0,0
148642,-111.111111111111,4,2,1,65,0,0
149905,-90.9090909090909,4,2,1,70,0,0
151168,-76.9230769230769,4,2,1,85,0,0
153063,-66.6666666666667,4,2,1,90,0,0
153694,-60.6060606060605,4,2,1,85,0,1
156221,-74.0740740740741,4,2,1,85,0,1
156852,-68.9655172413793,4,2,1,85,0,1
157168,-51.2820512820513,4,2,1,85,0,1
157484,-74.0740740740741,4,2,1,85,0,1
163799,-60.6060606060606,4,2,1,85,0,1
165693,-74.0740740740741,4,2,1,85,0,1
169482,-64.5161290322581,4,2,1,85,0,1
169798,-57.1428571428571,4,2,1,85,0,1
170114,-74.0740740740741,4,2,1,85,0,1
171377,-54.054054054054,4,2,1,90,0,0
173903,-111.111111111111,4,2,1,65,0,0
176271,-111.111111111111,4,2,1,75,0,0
180771,-111.111111111111,4,2,1,5,0,0
181007,-111.111111111111,4,2,1,75,0,0
181086,-111.111111111111,4,2,1,5,0,0
181323,-111.111111111111,4,2,1,75,0,0
186375,-66.6666666666667,4,2,1,80,0,0
188901,-50,4,2,1,85,0,0
191427,-62.5,4,2,1,80,0,0
193953,-45.4545454545455,4,2,1,90,0,0
196479,-62.5,4,2,1,75,0,0
197269,-83.3333333333333,4,2,1,75,0,0
197742,-66.6666666666667,4,2,1,75,0,0
198532,-83.3333333333333,4,2,1,75,0,0
199006,-71.4285714285714,4,2,1,75,0,0
199321,-83.3333333333333,4,2,1,75,0,0
200269,-76.9230769230769,4,2,1,75,0,0
200584,-83.3333333333333,4,2,1,75,0,0
204373,-111.111111111111,4,2,1,60,0,0
204689,-95.2380952380952,4,2,1,65,0,0
205005,-83.3333333333333,4,2,1,65,0,0
205321,-74.0740740740741,4,2,1,75,0,0
206110,-100,4,2,1,70,0,0
208005,-60.6060606060606,4,2,1,85,0,1
209899,-74.0740740740741,4,2,1,85,0,1
211162,-68.9655172413793,4,2,1,85,0,1
211478,-51.2820512820513,4,2,1,85,0,1
211794,-74.0740740740741,4,2,1,85,0,1
218109,-60.6060606060606,4,2,1,85,0,1
220003,-74.0740740740741,4,2,1,85,0,1
221266,-68.9655172413793,4,2,1,85,0,1
221582,-60.6060606060606,4,2,1,85,0,1
221898,-74.0740740740741,4,2,1,85,0,1
227581,-74.0740740740741,4,2,1,75,0,0
228213,-57.1428571428571,4,2,1,85,0,1
230739,-64.5161290322581,4,2,1,85,0,1
233265,-57.1428571428571,4,2,1,85,0,1
235791,-64.5161290322581,4,2,1,85,0,1
238001,-51.2820512820513,4,2,1,85,0,1
238317,-57.1428571428571,4,2,1,85,0,1
245895,-83.3333333333333,4,2,1,75,0,0

[Colours]
Combo1 : 255,128,128
Combo2 : 0,255,128
Combo3 : 255,85,98
Combo4 : 128,255,128

[HitObjects]
495,206,2132,5,4,1:0:0:0:
490,191,2289,1,0,3:0:0:0:
512,213,2447,1,0,3:0:0:0:
407,275,2605,5,0,1:0:0:0:
405,259,2763,1,0,3:0:0:0:
289,236,2921,5,0,1:0:0:0:
312,278,3079,1,0,3:0:0:0:
296,266,3237,1,0,3:0:0:0:
187,325,3395,6,0,L|200:265,1,47.5,0|0,1:0|3:0,0:0:0:0:
60,340,3710,2,0,L|111:302,1,47.5,0|0,1:0|3:0,0:0:0:0:
73,190,4026,5,8,1:3:0:0:
90,194,4105,1,0,3:0:0:0:
98,205,4184,1,0,3:0:0:0:
93,211,4263,1,0,3:0:0:0:
108,191,4342,1,0,1:0:0:0:
143,179,4421,1,0,3:0:0:0:
185,183,4500,2,0,P|211:191|227:199,1,33.2499989852906,0|0,3:0|3:0,0:0:0:0:
292,263,4658,6,0,P|337:250|391:243,1,99.7499969558717,8|0,3:0|3:0,0:0:0:0:
252,274,4973,2,0,P|267:279|283:285,1,33.2499989852906,8|0,1:3|0:0,0:0:0:0:
151,288,5131,6,0,P|197:291|250:303,1,99.7499969558717,8|0,3:0|3:0,0:0:0:0:
103,340,5447,2,0,P|122:323|148:311,1,33.2499989852906,8|0,1:3|0:0,0:0:0:0:
1,280,5605,6,0,P|56:270|100:306,1,99.7499969558717,8|0,3:0|3:0,0:0:0:0:
226,327,5921,2,0,P|265:339|301:325,1,47.5,0|0,1:0|0:0,0:0:0:0:
411,298,6078,2,0,P|346:272|327:275,1,47.5,0|0,1:0|0:0,0:0:0:0:
289,376,6236,2,0,P|325:342|331:318,1,47.5,0|0,1:0|1:0,0:0:0:0:
443,196,6394,2,0,P|375:210|360:222,1,47.5,0|0,1:0|1:0,0:0:0:0:
486,346,6552,6,0,P|438:313|413:315,1,47.5,0|0,3:0|3:0,0:0:0:0:
415,93,6710,2,0,P|365:142|360:160,1,47.5,0|0,3:0|3:0,0:0:0:0:
139,95,6868,6,0,P|151:115|158:137,1,47.5,8|8,3:0|3:0,0:0:0:0:
78,237,7026,2,0,P|100:245|128:263,1,47.5,4|4,3:0|3:0,0:0:0:0:
166,368,7184,2,0,B|222:366|324:313|332:236,1,178.125,4|0,0:0|0:0,0:0:0:0:
512,260,7499,2,0,P|451:276|387:313,1,137.750004203797,8|0,0:0|0:0,0:0:0:0:
205,232,7815,1,0,3:0:0:0:
450,88,7973,2,0,P|426:182|389:228,1,118.75,0|0,3:0|0:0,0:0:0:0:
461,317,8289,5,0,1:0:0:0:
263,129,8447,1,0,3:0:0:0:
267,116,8605,1,0,3:0:0:0:
271,104,8762,1,8,1:2:0:0:
376,53,8920,5,0,3:0:0:0:
158,180,9078,1,0,3:0:0:0:
154,167,9236,1,0,3:0:0:0:
184,42,9394,2,0,P|161:96|150:155,1,118.75,0|0,1:0|0:0,0:0:0:0:
292,365,9710,5,4,0:3:0:0:
357,252,9868,1,0,0:0:0:0:
204,376,10025,2,0,P|129:367|44:336,1,118.75,8|0,0:0|0:0,0:0:0:0:
13,199,10341,1,0,3:0:0:0:
298,374,10499,1,0,3:0:0:0:
384,381,10815,5,0,1:0:0:0:
497,198,10973,1,0,3:0:0:0:
325,118,11131,1,0,3:0:0:0:
412,96,11288,1,8,1:2:0:0:
485,321,11446,5,0,3:0:0:0:
322,240,11604,1,0,3:2:0:0:
353,335,11762,1,0,3:0:0:0:
213,316,11920,1,0,1:0:0:0:
203,343,12078,1,0,0:0:0:0:
70,304,12236,6,0,P|71:248|92:149,1,118.75,4|0,0:0|0:0,0:0:0:0:
317,118,12551,2,0,P|309:63|312:-38,1,118.75,8|0,0:0|0:0,0:0:0:0:
384,222,12867,1,0,3:0:0:0:
154,74,13025,1,0,3:0:0:0:
179,0,13341,5,0,1:0:0:0:
417,72,13499,2,0,L|399:204,1,118.75,0|0,3:0|3:0,0:0:0:0:
209,368,13814,2,0,P|261:322|231:264,1,118.75,8|0,1:2|3:0,0:0:0:0:
54,186,14130,2,0,L|72:318,1,118.75,0|0,3:0|3:0,0:0:0:0:
326,365,14446,2,0,P|397:346|471:361,1,118.75,0|0,1:0|0:0,0:0:0:0:
510,282,14762,1,4,0:3:0:0:
433,254,14920,1,0,0:0:0:0:
246,198,15078,5,8,3:2:0:0:
323,170,15235,1,0,0:0:0:0:
471,42,15393,1,0,3:0:0:0:
394,70,15551,2,0,B|358:95|372:195|427:130,1,118.75,0|0,3:0|0:0,0:0:0:0:
176,86,15867,2,0,P|241:92|396:5,1,237.5,0|0,1:0|3:0,0:0:0:0:
122,202,16341,2,0,B|158:183|184:134|165:106|121:86|98:103,2,118.75,0|0|0,1:0|3:0|3:0,0:0:0:0:
6,263,16814,1,0,3:2:0:0:
13,271,16893,1,0,3:2:0:0:
4,296,16972,5,0,1:0:0:0:
77,271,17051,1,0,1:0:0:0:
154,272,17130,1,0,1:0:0:0:
226,299,17209,1,0,1:0:0:0:
285,350,17288,6,0,B|337:301|441:253|492:299,1,178.125,4|0,0:0|0:0,0:0:0:0:
240,105,17604,2,0,P|285:156|307:220,1,137.750004203797,8|0,0:0|0:0,0:0:0:0:
213,384,17919,1,0,3:0:0:0:
445,281,18077,2,0,P|476:202|482:126,1,118.75,0|0,3:0|0:0,0:0:0:0:
512,86,18393,5,0,1:0:0:0:
261,133,18551,1,0,3:0:0:0:
250,119,18709,1,0,3:0:0:0:
240,105,18867,1,8,1:2:0:0:
288,23,19024,5,0,3:0:0:0:
200,221,19182,1,0,3:0:0:0:
184,211,19340,1,0,3:0:0:0:
82,104,19498,2,0,L|57:250,1,118.75,0|0,1:0|0:0,0:0:0:0:
18,362,19814,6,0,P|110:308|176:304,1,118.75,4|0,0:3|0:0,0:0:0:0:
361,356,20130,2,0,P|321:287|325:234,1,118.75,8|0,0:0|0:0,0:0:0:0:
446,138,20445,1,0,3:0:0:0:
273,52,20603,1,0,3:0:0:0:
217,122,20919,5,0,1:0:0:0:
21,64,21077,1,0,3:0:0:0:
111,31,21235,1,0,3:0:0:0:
71,184,21393,1,8,1:2:0:0:
232,283,21551,5,0,3:0:0:0:
208,204,21708,1,0,3:0:0:0:
348,252,21866,1,0,3:0:0:0:
312,326,22024,1,0,1:0:0:0:
396,250,22182,1,0,0:0:0:0:
204,370,22340,6,0,B|167:341|95:311|52:327,1,118.75,4|0,0:0|0:0,0:0:0:0:
0,144,22656,2,0,B|35:133|84:215|24:253,1,118.75,8|0,0:0|0:0,0:0:0:0:
220,374,22971,1,0,3:0:0:0:
388,310,23129,2,0,P|425:266|387:211,1,109.250002083778,0|0,3:0|0:0,0:0:0:0:
416,383,23445,5,0,1:0:0:0:
348,90,23603,2,0,B|289:62|242:48|212:57,1,128.250000489235,0|0,3:0|3:0,0:0:0:0:
486,206,23919,2,0,B|422:222|377:241|360:268,1,128.250000489235,8|0,1:2|3:0,0:0:0:0:
137,354,24234,2,0,B|193:321|239:304|270:311,1,128.250000489235,0|0,3:0|3:0,0:0:0:0:
441,384,24550,1,0,1:0:0:0:
40,313,24866,6,0,P|70:244|64:144,1,137.750004203797,4|0,0:3|0:0,0:0:0:0:
187,0,25182,2,0,P|182:75|222:167,1,137.750004203797,8|0,3:0|3:0,3:0:0:0:
455,79,25497,2,0,P|400:37|333:27,1,137.750004203797,8|0,3:0|3:0,0:0:0:0:
282,235,25813,2,0,P|347:255|413:241,1,137.750004203797,0|8,0:0|1:3,0:0:0:0:
226,366,26129,2,0,P|199:282|141:248,1,137.750004203797,4|0,3:0|3:0,0:0:0:0:
0,82,26445,2,0,P|51:154|122:195,1,147.250001123428,0|0,1:0|3:0,0:0:0:0:
342,77,26760,2,0,P|277:125|200:150,1,156.750001494885,8|0,3:0|3:0,0:0:0:0:
4,309,27076,2,0,P|81:279|160:254,1,166.250001585484,0|0,1:0|1:0,0:0:0:0:
495,306,27392,6,0,L|506:385,1,61.7499971733095,0|0,3:0|3:0,0:0:0:0:
480,306,27708,1,0,1:0:0:0:
442,236,27866,2,0,L|450:174,1,61.7499971733095,0|0,3:0|1:0,0:0:0:0:
500,306,28339,6,0,L|511:385,1,61.7499971733095,0|0,1:0|3:0,0:0:0:0:
485,306,28655,1,0,1:0:0:0:
447,236,28813,2,0,L|455:174,1,61.7499971733095,0|0,3:0|1:0,0:0:0:0:
495,306,29287,6,0,L|506:385,1,61.7499971733095,0|0,1:0|3:0,0:0:0:0:
407,253,29602,2,0,L|396:332,1,61.7499971733095,0|0,1:0|3:0,0:0:0:0:
306,363,29918,6,0,L|297:301,1,61.7499971733095,0|0,1:0|3:0,0:0:0:0:
285,379,30234,1,0,1:0:0:0:
213,320,30392,2,0,L|221:258,1,61.7499971733095,0|0,3:0|1:0,0:0:0:0:
302,363,30865,6,0,L|293:301,1,61.7499971733095,0|0,1:0|3:0,0:0:0:0:
281,379,31181,1,0,1:0:0:0:
209,320,31339,2,0,L|217:258,1,61.7499971733095,0|0,3:0|1:0,0:0:0:0:
317,172,31813,6,0,L|294:177,1,16.6249994926453,2|0,0:0|0:0,0:0:0:0:
288,163,31970,2,0,L|265:168,1,16.6249994926453
183,155,32128,6,0,L|206:150,1,16.6249994926453,2|0,0:0|0:0,0:0:0:0:
212,164,32286,2,0,L|235:159,1,16.6249994926453,2|0,0:0|0:0,0:0:0:0:
269,0,32444,6,0,L|242:188,1,190,4|0,1:0|1:0,0:0:0:0:
209,383,32918,2,0,L|191:259,1,95,0|0,3:0|0:0,0:0:0:0:
179,333,33233,1,0,3:0:0:0:
7,355,33391,2,0,L|34:167,1,190,0|0,1:0|0:0,0:0:0:0:
151,0,33865,2,0,L|168:123,1,95,0|0,3:0|0:0,0:0:0:0:
158,113,34339,6,0,P|207:101|272:95,1,95,0|0,1:0|3:0,0:0:0:0:
432,86,34654,2,0,P|384:91|338:103,1,95,0|0,1:0|3:0,0:0:0:0:
57,132,34970,6,0,P|150:145|240:177,1,190,0|0,1:0|3:0,0:0:0:0:
413,281,35444,1,0,1:0:0:0:
377,349,35760,1,0,3:0:0:0:
300,126,35917,2,0,P|296:48|316:-13,1,95,0|0,0:0|1:0,0:0:0:0:
403,160,36233,1,0,0:0:0:0:
311,285,36391,2,0,P|337:239|315:197,1,95,0|0,3:0|1:0,0:0:0:0:
317,297,36865,6,0,P|276:270|201:258,1,95,0|0,3:0|0:0,0:0:0:0:
103,222,37180,2,0,P|145:200|192:193,1,95,0|0,1:0|0:0,0:0:0:0:
0,138,37496,6,0,P|16:224|-15:311,1,95,0|0,3:0|3:0,0:0:0:0:
11,335,37812,1,0,1:0:0:0:
32,122,37970,1,0,0:0:0:0:
43,42,38286,1,0,3:0:0:0:
216,119,38443,2,0,P|169:89|92:93,1,95,0|0,3:0|1:0,0:0:0:0:
232,11,38759,1,0,0:0:0:0:
370,141,38917,2,0,P|315:151|261:206,1,95,0|0,3:0|1:0,0:0:0:0:
380,146,39391,6,0,L|368:256,1,95,0|0,3:0|3:0,0:0:0:0:
512,318,39706,2,0,L|461:235,1,95,0|0,0:0|1:0,0:0:0:0:
386,376,40022,6,0,P|306:327|202:315,1,190,4|0,3:0|1:0,0:0:0:0:
61,350,40496,1,0,3:0:0:0:
0,302,40812,1,0,3:0:0:0:
206,364,40970,2,0,P|281:343|333:306,1,95,0|0,0:0|1:0,0:0:0:0:
400,189,41285,2,0,P|387:234|364:276,2,95,0|0|0,0:0|3:0|1:0,0:0:0:0:
355,83,41759,5,0,0:0:0:0:
197,40,41917,1,0,3:0:0:0:
278,14,42075,1,0,3:0:0:0:
163,119,42233,2,0,P|123:110|55:105,1,95,0|0,1:0|0:0,0:0:0:0:
280,291,42548,6,0,L|468:264,1,190,4|0,1:0|1:0,0:0:0:0:
452,34,43022,2,0,L|438:128,1,95,0|0,3:0|0:0,0:0:0:0:
423,218,43338,1,0,3:0:0:0:
270,306,43496,2,0,L|82:279,1,190,0|0,1:0|0:0,0:0:0:0:
0,79,43969,2,0,L|17:202,1,95,0|0,3:0|0:0,0:0:0:0:
152,254,44443,6,0,P|104:259|58:271,1,95,0|0,1:0|3:0,0:0:0:0:
363,289,44759,2,0,P|315:294|269:306,1,95,0|0,1:0|3:0,0:0:0:0:
329,130,45074,6,0,P|422:143|512:175,1,190,0|0,1:0|3:0,0:0:0:0:
261,212,45548,1,0,1:0:0:0:
183,228,45864,1,0,3:0:0:0:
403,113,46022,2,0,P|474:100|541:105,1,95,0|0,0:0|1:0,0:0:0:0:
348,208,46337,1,0,0:0:0:0:
262,32,46495,2,0,P|308:58|323:101,1,95,0|0,3:0|1:0,0:0:0:0:
229,68,46969,6,0,P|274:80|314:106,1,95,0|0,3:0|0:0,0:0:0:0:
72,232,47285,2,0,P|114:210|161:203,1,95,0|0,1:0|0:0,0:0:0:0:
122,22,47600,6,0,P|138:108|107:195,1,95,0|0,3:0|3:0,0:0:0:0:
0,189,47916,1,0,1:0:0:0:
229,249,48074,1,0,0:0:0:0:
144,282,48390,1,0,3:0:0:0:
340,213,48548,2,0,P|386:221|425:248,1,95,0|0,3:0|1:0,0:0:0:0:
467,320,48863,1,0,0:0:0:0:
270,346,49021,2,0,P|309:320|356:314,1,95,0|0,3:0|1:0,0:0:0:0:
254,234,49495,6,0,L|242:344,1,95,0|0,3:0|3:0,0:0:0:0:
49,300,49811,2,0,L|99:381,1,95,0|0,0:0|1:0,0:0:0:0:
134,185,50126,2,0,L|92:0,1,190,4|0,3:0|1:0,0:0:0:0:
24,60,50600,1,0,3:0:0:0:
107,80,50916,1,0,3:0:0:0:
227,183,51074,2,0,P|302:162|354:125,1,95,0|0,0:0|1:0,0:0:0:0:
451,252,51389,2,0,P|473:210|487:164,2,95,0|0|0,0:0|3:0|1:0,0:0:0:0:
373,307,51863,5,0,0:0:0:0:
114,201,52021,1,0,3:0:0:0:
235,137,52179,1,0,3:0:0:0:
37,56,52337,1,4,3:0:0:0:
23,132,52495,1,4,3:0:0:0:
0,231,52652,6,0,L|91:298,1,76,4|0,0:1|0:0,0:0:0:0:
19,347,52968,2,0,P|93:330|245:323,1,228,2|0,3:2|3:0,0:0:0:0:
270,330,53600,1,2,3:2:0:0:
392,360,53916,1,2,3:2:0:0:
457,128,54231,1,0,1:0:0:0:
378,149,54863,5,4,3:0:0:0:
495,268,55179,2,0,L|392:233,1,76,4|0,0:0|0:0,0:0:0:0:
499,287,55494,1,2,3:2:0:0:
395,324,55652,2,0,L|292:289,1,76,2|2,3:2|3:2,0:0:0:0:
252,344,55968,2,0,L|159:296,1,76,2|2,3:2|3:2,0:0:0:0:
111,350,56284,2,0,L|28:283,1,76,0|2,1:0|3:2,0:0:0:0:
0,242,56599,1,0,3:0:0:0:
144,84,56757,2,0,L|122:281,1,152,0|0,1:0|3:0,0:0:0:0:
179,303,57389,1,4,3:0:0:0:
353,189,57705,6,0,P|400:201|465:248,1,76,4|0,0:0|0:0,0:0:0:0:
475,275,58020,1,2,3:2:0:0:
495,142,58178,1,0,3:0:0:0:
512,64,58494,1,0,3:0:0:0:
431,350,58810,2,0,P|367:314|315:213,1,152,0|0,1:0|3:0,0:0:0:0:
266,153,59283,2,0,P|286:251|271:285,1,76,0|0,1:0|0:0,0:0:0:0:
190,343,59599,2,0,P|216:262|234:248,1,76,2|0,3:2|3:0,0:0:0:0:
283,326,59915,1,4,3:0:0:0:
179,345,60073,1,4,3:0:0:0:
75,364,60231,5,4,0:0:0:0:
1,162,60546,1,2,3:2:0:0:
161,126,60704,2,0,L|132:227,1,76,2|2,3:2|3:2,0:0:0:0:
312,219,61020,2,0,L|291:145,1,76,2|2,3:2|3:2,0:0:0:0:
306,250,61336,1,2,1:2:0:0:
415,93,61494,2,0,L|398:187,2,76,2|2|2,3:2|3:2|1:2,0:0:0:0:
484,298,61967,1,0,0:0:0:0:
306,250,62125,5,0,3:0:0:0:
186,227,62283,1,0,3:0:0:0:
161,328,62441,1,4,3:0:0:0:
240,355,62599,1,4,3:0:0:0:
358,176,62757,5,4,0:1:0:0:
11,119,63072,2,0,P|25:213|62:363,1,228,2|0,3:2|3:0,0:0:0:0:
44,151,63704,2,0,P|79:134|116:125,1,76,2|0,3:2|1:0,0:0:0:0:
296,227,64020,2,0,P|243:205|184:198,1,76,2|0,3:2|3:0,0:0:0:0:
430,172,64335,2,0,P|464:155|501:146,2,76,0|0|2,1:0|0:0|3:2,0:0:0:0:
340,305,64967,1,4,3:0:0:0:
428,325,65125,1,4,3:0:0:0:
179,247,65283,5,4,0:0:0:0:
116,201,65599,1,2,3:2:0:0:
226,371,65756,2,0,P|256:320|262:258,1,76,2|2,3:2|3:2,0:0:0:0:
398,249,66072,2,0,P|382:214|377:176,1,76,2|2,3:2|3:2,0:0:0:0:
466,363,66388,2,0,P|386:302|283:305,1,152,0|0,1:0|3:0,0:0:0:0:
260,226,66862,2,0,P|159:235|86:308,1,152,0|0,1:0|3:0,0:0:0:0:
306,379,67493,1,4,3:0:0:0:
330,307,67651,1,4,3:0:0:0:
391,109,67809,6,0,B|439:60|507:76|507:76|496:110|441:130,1,170.999994781494,4|2,3:2|3:2,0:0:0:0:
240,96,68282,2,0,P|301:70|355:89,1,85.4999973907472,0|2,3:0|3:2,0:0:0:0:
158,69,68598,1,0,3:0:0:0:
472,129,68756,2,0,L|374:115,1,85.4999973907472,4|0,1:2|0:0,0:0:0:0:
147,169,69072,6,0,B|158:187|133:230|133:230|85:256|29:246|5:206,1,209.000006378174,2|2,3:2|0:0,0:0:0:0:
323,264,69545,2,0,B|313:248|300:240|300:240|280:234|245:235|230:246,1,104.500003189087,0|2,1:0|3:2,0:0:0:0:
419,290,69861,1,0,3:0:0:0:
154,214,70019,2,0,L|295:193,1,104.500003189087,4|0,1:2|3:0,0:0:0:0:
455,264,70335,6,0,P|409:251|391:237,1,61.7499971733095,4|0,0:0|0:0,0:0:0:0:
297,284,70493,1,0,3:0:0:0:
296,291,70572,1,0,3:0:0:0:
294,299,70651,2,0,P|251:320|228:322,1,61.7499971733095,0|0,1:0|0:0,0:0:0:0:
144,289,70808,1,0,3:0:0:0:
138,296,70887,1,0,3:0:0:0:
132,306,70966,2,0,P|86:295|67:282,1,61.7499971733095,0|0,1:0|0:0,0:0:0:0:
28,177,71124,1,0,3:0:0:0:
33,168,71203,1,0,3:0:0:0:
41,160,71282,2,0,P|70:167|97:183,1,61.7499971733095,0|0,1:0|0:0,0:0:0:0:
226,90,71440,6,0,P|210:116|203:146,1,61.7499971733095,0|0,1:0|0:0,0:0:0:0:
371,226,71598,2,0,P|348:205|321:192,1,61.7499971733095,0|0,1:0|0:0,0:0:0:0:
356,42,71756,6,0,P|356:72|367:101,1,61.7499971733095,0|0,1:0|0:0,0:0:0:0:
462,193,71914,2,0,P|468:163|469:132,1,61.7499971733095,0|0,1:0|0:0,0:0:0:0:
436,302,72072,1,0,3:0:0:0:
450,316,72150,1,0,3:0:0:0:
434,349,72229,6,0,L|458:244,1,71.2500027179719,4|0,1:2|0:0,0:0:0:0:
143,310,72387,2,0,L|213:303,1,71.2500027179719,4|0,1:2|0:0,0:0:0:0:
25,219,72861,6,0,L|84:378,1,156.750001494885,4|0,1:0|0:0,0:0:0:0:
297,14,73177,22,0,L|169:108,1,156.750001494885,8|0,1:2|3:0,0:0:0:0:
334,367,73492,22,0,L|188:294,1,156.750001494885,0|0,1:0|3:0,0:0:0:0:
470,48,73808,22,0,L|449:216,1,156.750001494885,8|0,1:2|3:0,0:0:0:0:
192,21,74124,22,0,L|408:115,1,235.125002242327,0|0,1:0|1:0,0:0:0:0:
192,121,74440,22,0,L|333:52,1,156.750001494885,8|0,1:2|0:0,0:0:0:0:
421,5,74755,1,0,3:0:0:0:
371,195,74913,1,0,3:0:0:0:
319,357,75071,22,0,L|149:277,1,156.750001494885,0|0,1:0|0:0,0:0:0:0:
14,67,75308,1,8,3:0:0:0:
82,39,75387,6,0,P|96:87|92:175,1,128.250000489235,4|0,1:2|3:0,0:0:0:0:
41,299,75703,1,0,1:0:0:0:
209,273,75861,1,0,0:0:0:0:
500,222,76018,2,0,B|448:168|354:160|296:199,1,192.375000733852,0|0,3:0|0:0,0:0:0:0:
492,368,76334,2,0,B|523:325|503:246|464:203,1,175.749999329567,8|0,1:2|0:0,0:0:0:0:
268,113,76650,1,0,3:0:0:0:
287,0,76808,1,0,3:0:0:0:
143,201,76966,6,0,P|61:170|31:133,1,128.250000489235,0|8,1:0|1:3,0:0:0:0:
256,228,77203,1,4,1:3:0:0:
245,230,77281,2,0,L|108:243,1,128.250000489235,0|0,1:0|3:0,0:0:0:0:
390,370,77597,2,0,P|504:337|572:345,1,128.250000489235,0|0,1:0|0:0,0:0:0:0:
382,112,77913,2,0,P|351:233|281:316,1,192.375000733852,4|0,1:2|0:0,0:0:0:0:
276,381,78229,2,0,P|177:341|140:337,1,128.250000489235,8|0,1:2|3:0,0:0:0:0:
0,123,78545,1,8,3:0:0:0:
127,202,78702,1,0,3:0:0:0:
6,357,78860,2,0,P|22:252|31:129,1,192.375000733852,0|0,1:0|0:0,0:0:0:0:
3,37,79176,5,8,1:3:0:0:
126,19,79334,1,0,3:0:0:0:
301,0,79492,2,0,L|318:145,1,128.250000489235,4|0,1:2|0:0,0:0:0:0:
464,293,79808,5,0,0:2:0:0:
499,147,79965,1,0,3:0:0:0:
318,222,80123,2,0,L|332:349,1,128.250000489235,8|0,1:2|3:0,0:0:0:0:
247,378,80360,1,0,1:2:0:0:
238,365,80439,6,0,P|174:320|37:319,1,192.375000733852,0|0,1:2|0:0,0:0:0:0:
203,189,80755,2,0,P|160:197|124:226,1,64.1250002446175,0|0,1:2|0:0,0:0:0:0:
249,45,80913,2,0,P|217:123|98:194,1,192.375000733852,0|0,3:0|0:0,0:0:0:0:
373,250,81228,2,0,P|342:161|332:57,1,192.375000733852,0|0,3:0|0:0,0:0:0:0:
460,323,81544,2,0,L|487:237,1,64.1250002446175,0|0,3:0|0:0,0:0:0:0:
479,37,81702,6,0,L|437:169,1,128.250000489235,8|0,1:2|3:0,0:0:0:0:
180,372,82018,2,0,L|102:252,1,128.250000489235,8|0,1:2|3:0,0:0:0:0:
266,29,82334,1,8,1:2:0:0:
257,50,82413,1,8,1:2:0:0:
251,74,82491,1,8,1:2:0:0:
250,98,82570,1,8,1:2:0:0:
193,144,82649,1,4,1:3:0:0:
207,169,82728,1,4,1:3:0:0:
214,198,82807,1,4,1:3:0:0:
211,225,82886,1,4,1:3:0:0:
145,300,82965,6,0,B|284:274|284:274|318:292,1,156.750001494885,4|0,1:0|0:0,0:0:0:0:
0,52,83281,6,0,B|139:78|139:78|173:60,1,156.750001494885,8|0,1:2|3:0,0:0:0:0:
510,164,83597,2,0,B|409:103|409:103|335:125,1,156.750001494885,0|0,1:0|3:0,0:0:0:0:
0,243,83912,2,0,B|48:252|48:252|202:201,1,156.750001494885,8|0,1:2|3:0,0:0:0:0:
281,76,84149,1,0,0:0:0:0:
240,5,84228,2,0,B|225:47|225:47|288:190,1,156.750001494885,0|0,1:0|1:0,0:0:0:0:
452,350,84544,6,0,P|360:293|153:322,1,313.500002989769,0|0,1:2|3:0,0:0:0:0:
0,284,85018,1,0,3:0:0:0:
242,219,85175,2,0,P|217:282|162:330,1,128.250000489235,0|0,1:0|0:0,0:0:0:0:
402,384,85412,1,8,3:0:0:0:
463,337,85491,6,0,P|423:234|417:173,1,128.250000489235,4|0,1:2|3:0,0:0:0:0:
487,22,85807,2,0,P|484:100|502:184,1,128.250000489235,8|0,1:2|0:0,0:0:0:0:
261,0,86123,2,0,P|310:105|307:198,1,192.375000733852,0|0,3:0|0:0,0:0:0:0:
96,81,86438,2,0,P|171:135|214:207,1,128.250000489235,8|0,1:2|0:0,0:0:0:0:
399,240,86754,1,0,3:0:0:0:
438,118,86912,1,0,3:0:0:0:
307,346,87070,6,0,P|271:290|214:245,1,128.250000489235,0|8,1:0|1:3,0:0:0:0:
12,287,87307,1,4,1:3:0:0:
61,274,87386,2,0,P|96:285|173:348,1,128.250000489235,0|0,1:0|3:0,0:0:0:0:
416,258,87701,1,8,1:2:0:0:
384,355,87859,1,0,0:0:0:0:
472,112,88017,6,0,P|351:106|262:164,1,192.375000733852,4|0,1:2|0:0,0:0:0:0:
224,250,88333,2,0,P|286:258|331:215,1,128.250000489235,0|0,1:0|3:0,0:0:0:0:
108,0,88649,6,0,P|83:93|106:167,1,147.250001123428,8|0,3:0|3:0,0:0:0:0:
409,255,88964,6,0,P|353:195|280:157,1,166.250001585484,0|0,1:0|0:0,0:0:0:0:
90,240,89280,1,8,1:3:0:0:
469,178,89438,1,0,3:0:0:0:
198,102,89596,1,4,1:2:0:0:
353,69,89754,1,0,0:0:0:0:
168,311,89912,2,0,L|190:165,1,128.250000489235,0|0,3:2|3:0,0:0:0:0:
464,131,90227,2,0,L|352:68,1,128.250000489235,0|0,1:2|3:0,0:0:0:0:
47,182,90543,6,0,L|105:395,2,194.750002971649,4|0|0,1:0|3:0|3:0,0:0:0:0:
422,225,91017,6,0,L|309:384,2,194.750002971649,8|0|0,1:2|3:0|3:0,0:0:0:0:
266,26,91491,6,0,L|45:38,2,194.750002971649,4|0|0,1:3|3:0|3:0,0:0:0:0:
454,259,91964,6,0,L|259:247,2,194.750002971649,8|0|8,1:2|3:0|3:0,0:0:0:0:
509,83,92438,5,0,1:0:0:0:
363,340,92596,1,0,1:0:0:0:
198,192,92754,1,2,3:2:0:0:
102,229,102700,53,0,3:0:0:0:
97,243,102779,1,0,3:0:0:0:
111,283,102858,5,0,1:0:0:0:
76,239,102937,1,0,1:0:0:0:
102,190,103016,1,0,1:0:0:0:
56,164,103095,1,0,1:0:0:0:
39,89,103173,6,0,B|72:30|189:11|246:38,1,178.125,4|0,0:0|0:0,0:0:0:0:
297,220,103489,2,0,P|275:155|229:103,1,118.75,8|0,0:0|0:0,0:0:0:0:
194,301,103805,1,0,3:0:0:0:
436,101,103963,2,0,P|357:70|281:64,1,118.75,0|0,3:0|0:0,0:0:0:0:
512,48,104279,5,0,1:0:0:0:
425,234,104437,1,0,3:0:0:0:
414,220,104594,1,0,3:0:0:0:
404,206,104752,1,8,1:2:0:0:
318,166,104910,5,0,3:0:0:0:
444,339,105068,1,0,3:0:0:0:
460,329,105226,1,0,3:0:0:0:
499,201,105384,2,0,L|474:347,1,118.75,0|0,1:0|0:0,0:0:0:0:
297,276,105700,6,0,P|241:295|194:332,1,118.75,4|0,0:3|0:0,0:0:0:0:
23,181,106015,2,0,P|28:239|62:287,1,118.75,8|0,0:0|0:0,0:0:0:0:
390,240,106331,1,0,3:0:0:0:
217,154,106489,1,0,3:0:0:0:
279,100,106805,5,0,1:0:0:0:
111,128,106963,1,0,3:0:0:0:
65,48,107120,1,0,3:0:0:0:
197,154,107278,1,8,1:2:0:0:
99,253,107436,5,0,3:0:0:0:
19,226,107594,1,0,3:0:0:0:
152,328,107752,1,0,3:0:0:0:
238,303,107910,1,0,1:0:0:0:
155,354,108068,1,0,0:0:0:0:
400,342,108226,6,0,B|446:343|521:366|544:406,1,118.75,4|0,0:0|0:0,0:0:0:0:
374,140,108541,2,0,B|339:129|290:211|350:249,1,118.75,8|0,0:0|0:0,0:0:0:0:
470,309,108857,1,0,3:0:0:0:
229,201,109015,2,0,B|183:192|146:247|156:271|189:302,1,109.250002083778,0|0,3:0|0:0,0:0:0:0:
111,329,109331,5,0,1:0:0:0:
0,115,109489,2,0,B|14:109|71:111|119:150,1,128.250000489235,0|0,3:0|3:0,0:0:0:0:
259,284,109804,2,0,B|290:230|343:209|375:206,1,128.250000489235,8|0,1:2|3:0,0:0:0:0:
192,41,110120,2,0,B|218:67|237:129|226:194,1,128.250000489235,0|0,3:0|3:0,0:0:0:0:
194,360,110436,1,0,1:0:0:0:
489,307,110752,6,0,P|519:238|452:189,1,137.750004203797,4|0,0:3|0:0,0:0:0:0:
324,79,111067,2,0,P|289:147|355:225,1,137.750004203797,8|0,3:0|0:0,0:0:0:0:
512,73,111383,2,0,P|465:24|386:40,1,137.750004203797,8|0,3:0|3:0,0:0:0:0:
306,318,111699,2,0,P|356:295|399:217,1,137.750004203797,0|8,0:0|1:3,0:0:0:0:
235,10,112015,2,0,P|195:59|148:163,1,137.750004203797,4|0,3:0|3:0,0:0:0:0:
66,382,112330,2,0,P|144:345|205:290,1,147.250001123428,0|0,1:0|3:0,0:0:0:0:
402,103,112646,6,0,L|366:93,1,21.3749993476868,2|0,0:0|0:0,0:0:0:0:
312,124,112804,6,0,L|276:114,1,21.3749993476868
222,145,112962,6,0,L|186:135,1,21.3749993476868,2|0,0:0|0:0,0:0:0:0:
132,166,113120,6,0,L|96:156,1,21.3749993476868,2|0,0:0|0:0,0:0:0:0:
0,123,113278,6,0,L|175:164,1,170.999994781494,0|0,0:0|3:0,0:0:0:0:
307,283,114225,6,0,L|482:324,1,170.999994781494,0|0,0:0|3:0,0:0:0:0:
197,344,115172,5,0,1:0:0:0:
40,306,115488,1,0,1:0:0:0:
72,377,115646,1,0,3:0:0:0:
202,321,115804,6,0,P|285:326|321:343,2,95,0|0|0,1:0|3:0|3:0,0:0:0:0:
98,156,116277,2,0,L|116:272,1,95,0|0,1:0|0:0,0:0:0:0:
107,266,116593,1,0,3:0:0:0:
141,83,116751,2,0,P|112:119|120:164,1,95,0|0,0:0|1:0,0:0:0:0:
181,210,117067,1,0,0:0:0:0:
145,0,117225,2,0,L|160:94,1,95,0|0,3:0|1:0,0:0:0:0:
15,151,117698,6,0,P|62:149|108:160,1,95,0|0,3:0|0:0,0:0:0:0:
250,244,118014,2,0,P|293:224|340:218,1,95,0|0,1:0|0:0,0:0:0:0:
502,121,118330,6,0,L|478:331,1,190,0|0,3:0|1:0,0:0:0:0:
385,302,118803,1,0,0:0:0:0:
317,342,119119,1,0,3:0:0:0:
173,254,119277,2,0,P|151:198|196:134,1,95,0|0,3:0|1:0,0:0:0:0:
224,114,119593,1,0,0:0:0:0:
208,341,119751,2,0,L|193:247,1,95,0|0,3:0|1:0,0:0:0:0:
295,279,120224,6,0,P|254:252|179:240,1,95,0|0,3:0|3:0,0:0:0:0:
382,141,120540,2,0,P|335:148|293:170,1,95,0|0,0:0|1:0,0:0:0:0:
83,58,120856,6,0,P|171:41|224:114,1,190,4|0,3:0|1:0,0:0:0:0:
19,215,121329,1,0,3:0:0:0:
94,186,121645,1,0,3:0:0:0:
194,311,121803,2,0,P|240:320|279:347,1,95,0|0,0:0|1:0,0:0:0:0:
351,312,122119,1,0,0:0:0:0:
477,210,122277,2,0,P|422:220|368:275,2,95,0|0|0,3:0|1:0|0:0,0:0:0:0:
494,219,122750,6,0,L|483:124,1,95,0|0,3:0|3:0,0:0:0:0:
324,110,123066,2,0,L|314:205,1,95,0|0,1:0|0:0,0:0:0:0:
163,283,123382,2,0,L|142:95,1,190,4|0,1:0|1:0,0:0:0:0:
44,9,123856,2,0,L|34:104,1,95,0|0,3:0|0:0,0:0:0:0:
24,193,124171,1,0,3:0:0:0:
128,315,124329,6,0,P|236:284|318:279,1,190,0|0,1:0|0:0,0:0:0:0:
385,178,124803,2,0,P|398:223|421:265,1,95,0|0,3:0|0:0,0:0:0:0:
404,96,125119,2,0,P|364:87|319:83,1,47.5,8|0,3:0|0:0,0:0:0:0:
197,40,125276,5,4,1:0:0:0:
227,288,125513,1,0,1:0:0:0:
175,38,125750,2,0,P|135:29|90:25,1,47.5,4|0,1:0|0:0,0:0:0:0:
0,242,125908,6,0,L|188:215,1,190,4|0,3:1|3:0,0:0:0:0:
347,363,126382,2,0,L|361:269,1,95,0|0,1:0|0:0,0:0:0:0:
431,214,126697,1,0,3:0:0:0:
270,306,126855,2,0,L|82:279,1,190
205,107,127329,2,0,L|191:201,1,95,0|0,3:0|1:0,0:0:0:0:
0,318,127802,6,0,P|45:306|93:301,1,95,0|0,3:0|0:0,0:0:0:0:
15,144,128118,2,0,P|62:148|108:160,1,95,0|0,1:0|0:0,0:0:0:0:
270,306,128434,6,0,P|359:274|453:260,1,190,0|0,3:0|1:0,0:0:0:0:
353,155,128908,1,0,0:0:0:0:
345,244,129223,1,0,3:0:0:0:
362,57,129381,2,0,P|291:44|224:49,1,95,0|0,3:0|1:0,0:0:0:0:
152,94,129697,1,0,0:0:0:0:
262,32,129855,2,0,P|308:58|323:101,1,95,0|0,3:0|1:0,0:0:0:0:
416,142,130329,6,0,P|371:130|331:104,1,95,0|0,3:0|3:0,0:0:0:0:
218,242,130644,2,0,P|264:234|306:212,1,95,0|0,0:0|1:0,0:0:0:0:
133,377,130960,6,0,B|127:307|70:232|7:219,1,190,4|0,3:0|1:0,0:0:0:0:
138,172,131434,1,0,3:0:0:0:
104,96,131749,1,0,3:0:0:0:
201,310,131907,2,0,P|203:262|216:217,1,95,0|0,0:0|1:0,0:0:0:0:
271,157,132223,1,0,0:0:0:0:
89,5,132381,2,0,P|89:67|118:113,1,95,0|0,3:0|1:0,0:0:0:0:
187,134,132697,5,0,0:0:0:0:
269,363,132855,1,0,3:0:0:0:
324,220,133012,1,0,3:0:0:0:
413,349,133170,1,4,3:0:0:0:
461,285,133328,1,4,3:0:0:0:
500,192,133486,6,0,L|494:277,1,76,4|0,0:1|0:0,0:0:0:0:
253,340,133802,2,0,L|494:357,1,228,2|0,3:2|3:0,0:0:0:0:
226,293,134433,2,0,L|220:378,1,76,2|0,3:2|1:0,0:0:0:0:
113,308,134749,2,0,L|107:393,1,76,2|0,3:2|3:0,0:0:0:0:
12,180,135065,1,0,1:0:0:0:
0,264,135696,5,4,3:0:0:0:
165,249,136012,2,0,P|124:255|63:258,1,76,4|0,0:0|0:0,0:0:0:0:
181,237,136328,1,2,3:2:0:0:
312,282,136486,2,0,P|349:279|387:273,1,76,2|2,3:2|3:2,0:0:0:0:
512,189,136802,2,0,P|474:194|436:197,1,76,2|2,3:2|3:2,0:0:0:0:
280,114,137117,2,0,P|317:119|355:122,1,76,0|2,1:0|3:2,0:0:0:0:
435,117,137433,1,0,3:0:0:0:
254,133,137591,2,0,P|177:122|103:133,1,152,0|0,1:0|3:0,0:0:0:0:
36,169,138222,1,4,3:0:0:0:
315,243,138538,6,0,P|280:226|243:218,1,76,4|0,0:0|0:0,0:0:0:0:
287,335,138854,1,2,3:2:0:0:
376,178,139012,1,0,3:0:0:0:
400,259,139328,1,0,3:0:0:0:
176,298,139643,2,0,P|112:262|6:267,1,152,0|0,1:0|3:0,0:0:0:0:
171,187,140117,2,0,P|191:285|176:319,1,76,0|0,1:0|0:0,0:0:0:0:
317,310,140433,2,0,P|291:391|273:405,1,76,2|0,3:2|3:0,0:0:0:0:
183,384,140748,1,4,3:0:0:0:
290,365,140906,1,4,3:0:0:0:
394,384,141064,5,4,0:0:0:0:
294,184,141380,1,2,3:2:0:0:
426,133,141538,2,0,L|397:234,1,76,2|2,3:2|3:2,0:0:0:0:
312,219,141854,2,0,L|291:145,1,76,2|2,3:2|3:2,0:0:0:0:
350,45,142169,1,2,1:2:0:0:
306,250,142327,2,0,L|289:344,2,76,2|2|2,3:2|3:2|1:2,0:0:0:0:
397,279,142801,1,0,0:0:0:0:
210,225,142959,5,0,3:0:0:0:
79,288,143117,1,0,3:0:0:0:
68,145,143275,1,4,3:0:0:0:
148,170,143432,1,4,3:0:0:0:
0,297,143590,5,4,0:1:0:0:
288,218,143906,2,0,B|362:226|452:306|470:347,1,228,2|0,3:2|3:0,0:0:0:0:
426,187,144538,2,0,P|460:171|497:162,1,76,2|0,3:2|1:0,0:0:0:0:
330,322,144853,2,0,P|295:305|258:296,1,76,2|0,3:2|3:0,0:0:0:0:
65,314,145169,2,0,P|56:350|39:384,2,76,0|0|2,1:0|0:0|3:2,0:0:0:0:
1,186,145801,1,4,3:0:0:0:
83,219,145958,1,4,3:0:0:0:
258,296,146116,5,4,0:0:0:0:
176,263,146432,1,2,3:2:0:0:
363,340,146590,2,0,P|393:289|399:227,1,76,2|2,3:2|3:2,0:0:0:0:
344,125,146906,2,0,P|349:162|365:196,1,76,2|2,3:2|3:2,0:0:0:0:
474,63,147221,2,0,P|388:56|346:128,1,152,0|0,1:0|3:0,0:0:0:0:
252,224,147695,2,0,P|209:167|140:187,1,152,0|0,1:0|3:0,0:0:0:0:
90,374,148327,1,4,3:0:0:0:
66,302,148485,1,4,3:0:0:0:
10,135,148642,6,0,B|31:83|132:41|162:79|116:134,1,170.999994781494,4|2,3:2|3:2,0:0:0:0:
211,267,149116,2,0,B|192:240|189:195|195:165,1,85.4999973907472,0|2,3:0|3:2,0:0:0:0:
238,74,149432,1,0,3:0:0:0:
118,273,149590,2,0,L|212:299,1,85.4999973907472,4|0,1:2|0:0,0:0:0:0:
452,119,149905,6,0,B|409:73|331:87|331:87|294:122|303:172,1,209.000006378174,2|2,3:2|0:0,0:0:0:0:
458,314,150379,2,0,B|458:285|438:252|438:252|418:235|389:229,1,104.500003189087,0|2,1:0|3:2,0:0:0:0:
322,287,150695,1,0,3:0:0:0:
493,67,150853,2,0,L|391:95,1,104.500003189087,4|0,1:2|3:0,0:0:0:0:
155,29,151168,6,0,P|176:56|188:105,1,61.7499971733095,4|0,0:0|0:0,0:0:0:0:
44,156,151326,1,0,3:0:0:0:
54,151,151405,1,0,3:0:0:0:
63,147,151484,2,0,P|96:152|138:180,1,61.7499971733095,0|0,1:0|0:0,0:0:0:0:
186,280,151642,1,0,3:0:0:0:
189,269,151721,1,0,3:0:0:0:
193,260,151800,2,0,P|220:241|270:232,1,61.7499971733095,0|0,1:0|0:0,0:0:0:0:
341,359,151958,1,0,3:0:0:0:
331,364,152037,1,0,3:0:0:0:
322,368,152116,2,0,P|288:363|247:335,1,61.7499971733095,0|0,1:0|0:0,0:0:0:0:
111,321,152274,2,0,P|90:294|78:245,1,61.7499971733095,0|0,1:0|0:0,0:0:0:0:
190,57,152431,6,0,P|191:90|173:137,1,61.7499971733095,0|0,1:0|0:0,0:0:0:0:
27,301,152589,2,0,P|44:272|86:244,1,61.7499971733095,0|0,1:0|0:0,0:0:0:0:
301,145,152747,6,0,P|325:121|343:74,1,61.7499971733095,0|0,1:0|0:0,0:0:0:0:
425,234,152905,1,0,3:0:0:0:
407,277,152984,1,0,3:0:0:0:
369,284,153063,6,0,L|445:247,1,71.2500027179719,4|0,1:2|0:0,0:0:0:0:
107,170,153221,2,0,L|76:107,1,71.2500027179719,4|0,1:2|0:0,0:0:0:0:
0,327,153694,6,0,L|184:288,1,156.750001494885,4|0,1:0|0:0,0:0:0:0:
466,124,154010,22,0,L|330:249,1,156.750001494885,8|0,1:2|3:0,0:0:0:0:
0,131,154326,22,0,L|72:271,1,156.750001494885,0|0,1:0|3:0,0:0:0:0:
415,365,154642,22,0,L|448:181,1,156.750001494885,8|0,1:2|3:0,0:0:0:0:
209,11,154958,22,0,L|225:268,1,235.125002242327,0|0,1:0|1:0,0:0:0:0:
34,54,155273,22,0,L|218:87,1,156.750001494885,8|0,1:2|0:0,0:0:0:0:
346,109,155589,1,0,3:0:0:0:
418,291,155747,1,0,3:0:0:0:
207,376,155905,22,0,P|303:341|380:370,1,156.750001494885,0|0,1:0|0:0,0:0:0:0:
438,151,156142,1,8,3:0:0:0:
512,165,156221,6,0,P|442:198|365:187,1,128.250000489235,4|0,1:2|3:0,0:0:0:0:
238,130,156536,1,0,1:0:0:0:
147,0,156694,1,0,0:0:0:0:
442,87,156852,2,0,P|365:134|227:132,1,206.625006305695,0|0,3:0|0:0,0:0:0:0:
78,209,157168,2,0,B|58:136|97:35|199:70|238:129,1,277.875001060009,8|0,1:2|0:0,0:0:0:0:
330,262,157484,1,0,3:0:0:0:
279,378,157642,1,0,3:0:0:0:
120,310,157799,6,0,P|108:254|44:173,1,128.250000489235,0|8,1:0|1:3,0:0:0:0:
240,109,158036,1,4,1:3:0:0:
238,130,158115,2,0,L|225:257,1,128.250000489235,0|0,1:0|3:0,0:0:0:0:
315,353,158431,2,0,P|374:328|438:320,1,128.250000489235,0|0,1:0|0:0,0:0:0:0:
444,61,158747,2,0,P|503:170|509:279,1,192.375000733852,4|0,1:2|0:0,0:0:0:0:
505,342,159062,2,0,P|406:302|369:298,1,128.250000489235,8|0,1:2|3:0,0:0:0:0:
162,374,159378,1,8,3:0:0:0:
72,264,159536,1,0,3:0:0:0:
248,184,159694,2,0,P|189:235|72:276,1,192.375000733852,0|0,1:0|0:0,0:0:0:0:
17,90,160010,5,8,1:3:0:0:
152,105,160167,1,0,3:0:0:0:
323,132,160325,2,0,B|348:234|340:277,1,128.250000489235,4|0,1:2|0:0,0:0:0:0:
465,11,160641,5,0,0:2:0:0:
330,26,160799,1,0,3:0:0:0:
159,53,160957,2,0,L|142:198,1,128.250000489235,8|0,1:2|3:0,0:0:0:0:
85,335,161194,1,0,1:2:0:0:
62,320,161273,6,0,P|126:275|263:274,1,192.375000733852,0|0,1:2|0:0,0:0:0:0:
353,329,161588,2,0,P|310:337|274:366,1,64.1250002446175,0|0,1:2|0:0,0:0:0:0:
238,131,161746,2,0,P|316:163|387:282,1,192.375000733852,0|0,3:0|0:0,0:0:0:0:
501,59,162062,2,0,P|491:154|459:245,1,192.375000733852,0|0,3:0|0:0,0:0:0:0:
426,384,162378,2,0,L|453:298,1,64.1250002446175,0|0,3:0|0:0,0:0:0:0:
499,0,162536,6,0,L|457:132,1,128.250000489235,8|0,1:2|3:0,0:0:0:0:
68,198,162851,2,0,L|137:305,1,128.250000489235,8|0,1:2|3:0,0:0:0:0:
343,350,163167,1,8,1:2:0:0:
347,327,163246,1,8,1:2:0:0:
340,305,163325,1,8,1:2:0:0:
323,289,163404,1,8,1:2:0:0:
301,214,163483,1,4,1:3:0:0:
278,224,163562,1,4,1:3:0:0:
262,243,163641,1,4,1:3:0:0:
257,269,163720,1,4,1:3:0:0:
248,260,163799,6,0,B|239:232|239:232|253:96,1,156.750001494885,4|0,1:0|0:0,0:0:0:0:
33,21,164114,6,0,B|101:109|101:109|110:165,1,156.750001494885,8|0,1:2|3:0,0:0:0:0:
415,14,164430,2,0,B|380:128|380:128|392:192,1,156.750001494885,0|0,1:0|3:0,0:0:0:0:
43,382,164746,2,0,B|30:337|30:337|65:195,1,156.750001494885,8|0,1:2|3:0,0:0:0:0:
412,289,164983,1,0,0:0:0:0:
389,366,165062,2,0,B|345:340|345:340|293:216,1,156.750001494885,0|0,1:0|1:0,0:0:0:0:
488,19,165377,6,0,P|467:94|249:76,1,313.500002989769,0|0,1:0|3:0,0:0:0:0:
144,31,165851,1,0,3:0:0:0:
17,181,166009,2,0,P|96:139|151:147,1,128.250000489235,0|0,1:0|0:0,0:0:0:0:
278,235,166246,1,8,3:0:0:0:
338,278,166325,6,0,P|417:236|472:244,1,128.250000489235,4|0,1:2|3:0,0:0:0:0:
107,43,166640,2,0,L|153:220,1,128.250000489235,8|0,1:2|0:0,0:0:0:0:
322,381,166956,2,0,L|266:168,1,192.375000733852,0|0,3:0|0:0,0:0:0:0:
455,332,167272,2,0,L|327:273,1,128.250000489235,8|0,1:2|0:0,0:0:0:0:
47,147,167588,1,0,3:0:0:0:
175,201,167746,1,0,3:0:0:0:
77,361,167904,6,0,L|205:302,1,128.250000489235,0|8,1:0|1:3,0:0:0:0:
428,125,168140,1,4,1:3:0:0:
392,192,168219,2,0,L|297:278,1,128.250000489235,0|0,1:0|3:0,0:0:0:0:
512,13,168535,1,8,1:2:0:0:
455,135,168693,1,0,0:0:0:0:
508,357,168851,6,0,P|392:299|315:271,1,192.375000733852,4|0,1:2|0:0,0:0:0:0:
256,357,169167,2,0,P|274:287|271:229,1,128.250000489235,8|0,1:2|3:0,0:0:0:0:
92,18,169482,6,0,P|149:104|160:172,1,147.250001123428,8|0,3:0|3:0,0:0:0:0:
23,384,169798,6,0,P|61:298|58:201,1,166.250001585484,0|0,1:0|0:0,0:0:0:0:
187,14,170114,1,8,1:3:0:0:
266,295,170272,1,0,3:0:0:0:
302,76,170430,1,4,1:2:0:0:
254,195,170587,1,0,0:0:0:0:
483,45,170745,2,0,L|359:15,1,128.250000489235,0|0,3:2|3:0,0:0:0:0:
512,213,171061,2,0,L|397:269,1,128.250000489235,0|0,1:2|3:0,0:0:0:0:
179,365,171377,6,0,B|159:336|117:303|117:303|75:288|31:283,1,175.749999329567,4|0,1:0|3:0,0:0:0:0:
169,371,171693,1,0,3:0:0:0:
87,122,171850,6,0,B|106:93|149:59|149:59|190:45|234:40,1,175.749999329567,8|0,1:2|3:0,0:0:0:0:
76,118,172166,1,4,3:2:0:0:
333,255,172324,6,0,B|351:288|412:292|412:292|450:239|435:195,1,175.749999329567,4|0,1:0|3:0,0:0:0:0:
504,128,172640,1,0,3:0:0:0:
179,135,172798,6,0,B|144:131|91:142|91:142|54:165|22:195,1,175.749999329567,4|4,1:2|3:1,0:0:0:0:
51,295,173114,1,8,3:0:0:0:
257,356,173271,6,0,L|393:315,1,87.8749996647835,0|0,1:0|1:0,0:0:0:0:
455,290,173429,2,0,L|371:316,1,87.8749996647835,4|4,1:3|1:3,0:0:0:0:
220,355,173587,6,0,L|356:314,1,87.8749996647835,8|8,3:0|3:0,0:0:0:0:
491,255,173745,2,0,L|407:281,1,87.8749996647835,4|4,3:0|3:0,0:0:0:0:
265,245,173903,5,4,3:0:0:0:
152,266,174140,1,0,1:0:0:0:
120,245,174219,1,0,1:0:0:0:
57,288,174377,1,4,3:0:0:0:
152,266,174613,1,0,1:0:0:0:
174,235,174692,1,0,1:0:0:0:
265,245,174850,1,4,3:0:0:0:
382,259,175087,1,0,1:0:0:0:
419,246,175166,1,0,1:0:0:0:
500,201,175324,1,0,1:0:0:0:
413,135,175482,1,0,1:0:0:0:
374,125,175561,1,0,1:0:0:0:
357,137,175640,1,0,3:0:0:0:
332,126,175718,1,0,3:0:0:0:
336,138,175797,5,4,1:3:0:0:
318,129,175876,1,4,1:3:0:0:
269,136,175955,1,8,3:3:0:0:
239,172,176034,1,8,3:3:0:0:
242,215,176113,2,0,L|262:280,1,42.7499986953736,4|4,3:3|3:3,0:0:0:0:
230,363,176271,5,2,3:2:0:0:
381,301,176587,1,4,3:3:0:0:
151,260,176745,1,8,1:2:0:0:
291,283,176903,1,0,1:2:0:0:
63,242,177061,1,2,3:2:0:0:
470,185,177376,1,8,1:2:0:0:
484,104,178008,1,8,1:2:0:0:
499,25,178639,2,0,L|490:78,1,42.7499986953736,8|0,1:2|0:0,0:0:0:0:
446,262,178797,5,4,3:0:0:0:
340,230,179113,1,4,3:3:0:0:
151,290,179271,1,8,1:2:0:0:
235,237,179429,1,0,1:0:0:0:
422,267,179587,1,2,3:2:0:0:
64,372,179902,1,8,1:2:0:0:
32,185,180218,1,2,3:2:0:0:
0,265,180376,1,2,3:2:0:0:
163,172,180692,6,0,L|146:108,1,42.7499986953736,0|0,1:0|0:0,0:0:0:0:
289,215,181007,2,0,L|252:271,1,42.7499986953736,0|0,1:0|0:0,0:0:0:0:
419,179,181323,5,2,3:2:0:0:
320,128,181639,1,4,3:3:0:0:
483,10,181797,1,8,1:2:0:0:
387,36,181955,1,0,1:0:0:0:
481,247,182113,1,2,3:2:0:0:
250,371,182428,1,8,1:2:0:0:
168,349,183060,1,8,1:2:0:0:
87,328,183691,2,0,L|36:300,1,42.7499986953736,8|0,1:2|0:0,0:0:0:0:
13,150,183849,5,4,3:3:0:0:
68,48,184165,1,4,3:3:0:0:
196,212,184323,1,8,1:2:0:0:
108,346,184481,1,0,1:0:0:0:
162,123,184639,1,2,3:2:0:0:
284,304,184954,1,8,1:2:0:0:
370,262,185270,6,0,L|400:369,1,85.4999973907472,2|2,3:2|3:2,0:0:0:0:
460,251,185586,1,8,1:2:0:0:
430,99,185744,2,0,L|398:212,1,85.4999973907472,0|4,1:0|3:3,0:0:0:0:
360,280,186060,2,0,L|392:393,1,85.4999973907472,0|0,3:3|1:0,0:0:0:0:
149,188,186375,6,0,B|179:201|202:289|168:362|115:354|93:287,1,213.750008153916,4|0,1:0|0:0,0:0:0:0:
266,244,186691,1,4,3:3:0:0:
28,164,186849,2,0,B|12:142|35:60|110:31,1,142.500005435944,0|0,1:0|0:0,0:0:0:0:
229,90,187086,1,0,3:3:0:0:
290,72,187165,1,8,3:3:0:0:
390,16,187323,1,0,1:0:0:0:
463,219,187480,1,0,3:3:0:0:
454,282,187559,1,0,3:3:0:0:
446,345,187638,1,8,3:3:0:0:
322,380,187796,1,0,1:0:0:0:
151,331,187954,1,0,3:3:0:0:
133,268,188033,1,0,3:3:0:0:
115,205,188112,1,8,3:3:0:0:
52,177,188191,1,8,3:3:0:0:
21,219,188270,1,4,3:3:0:0:
46,251,188349,1,4,3:3:0:0:
20,282,188428,1,4,3:3:0:0:
31,299,188507,1,0,0:0:0:0:
14,332,188586,2,0,P|48:361|114:379,1,71.2500027179719,0|0,1:0|0:0,0:0:0:0:
221,243,188743,2,0,P|208:277|211:312,1,71.2500027179719,0|0,1:0|0:0,0:0:0:0:
398,384,188901,6,0,B|437:358|491:286|485:182|410:176,1,190,4|0,3:1|0:0,0:0:0:0:
353,55,189217,1,0,3:3:0:0:
297,377,189375,2,0,P|275:285|226:153,1,190,0|0,1:0|3:3,0:0:0:0:
165,45,189691,1,8,3:3:0:0:
21,293,189849,2,0,B|54:227|110:238|162:237|194:273,1,190,0|0,1:0|3:3,0:0:0:0:
398,384,190164,1,8,3:3:0:0:
460,58,190322,2,0,P|438:153|401:262,1,190,0|0,1:0|3:3,0:0:0:0:
297,377,190638,1,8,3:3:0:0:
125,147,190796,2,0,B|176:113|268:137|302:152|308:227,1,190,0|8,1:0|3:3,0:0:0:0:
439,320,191112,2,0,L|393:214,1,95,0|0,1:0|0:0,0:0:0:0:
263,12,191269,2,0,L|225:99,1,95,0|0,1:0|0:0,0:0:0:0:
54,355,191427,5,4,3:1:0:0:
340,187,191743,1,4,3:3:0:0:
273,344,191901,2,0,P|233:318|166:308,1,76,0|0,1:0|0:0,0:0:0:0:
53,269,192059,1,0,0:0:0:0:
85,249,192138,1,0,3:3:0:0:
129,241,192217,1,8,3:3:0:0:
357,363,192375,1,0,1:0:0:0:
265,146,192533,1,8,3:3:0:0:
239,187,192611,1,8,3:3:0:0:
245,240,192690,1,0,3:3:0:0:
215,261,192769,1,0,3:3:0:0:
206,309,192848,1,4,3:3:0:0:
512,280,193006,1,4,1:3:0:0:
489,253,193085,1,4,1:3:0:0:
483,204,193164,1,8,3:3:0:0:
439,175,193243,1,8,3:3:0:0:
430,116,193322,1,4,3:3:0:0:
378,101,193401,1,4,3:3:0:0:
356,50,193480,1,8,3:3:0:0:
293,50,193559,1,8,3:3:0:0:
239,15,193638,2,0,L|186:72,1,76,4|4,3:3|3:3,0:0:0:0:
127,28,193796,2,0,L|53:52,1,76,4|0,1:3|0:0,0:0:0:0:
0,262,193953,6,0,P|137:232|315:209,1,313.500009567261,4|0,3:1|0:0,0:0:0:0:
512,223,194269,1,0,3:3:0:0:
258,384,194427,2,0,P|206:329|94:109,1,313.500009567261,4|0,1:2|0:0,0:0:0:0:
194,0,194743,1,8,3:3:0:0:
464,288,194901,2,0,P|388:284|147:339,1,313.500009567261,4|0,1:2|0:0,0:0:0:0:
0,262,195216,1,8,3:3:0:0:
150,46,195374,2,0,P|225:54|452:151,1,313.500009567261,4|0,1:2|0:0,0:0:0:0:
512,352,195690,1,8,3:3:0:0:
172,233,195848,2,0,P|191:125|219:27,1,209.000006378174,0|8,1:0|3:3,0:0:0:0:
322,252,196164,2,0,P|270:260|176:296,1,104.500003189087,4|0,1:2|0:0,0:0:0:0:
0,143,196322,2,0,L|144:179,1,104.500003189087,4|0,1:2|0:0,0:0:0:0:
330,342,196479,6,0,B|396:394|537:316|534:194|526:64|419:0,1,456,4|0,1:0|1:0,0:0:0:0:
247,0,197269,1,8,3:0:0:0:
258,87,197427,2,0,L|266:143,1,56.9999982604981,0|0,3:0|0:0,0:0:0:0:
257,194,197585,2,0,L|246:120,1,56.9999982604981,0|0,1:0|0:0,0:0:0:0:
99,32,197742,6,0,B|127:79|164:163|174:303|110:384|13:360|-1:314|22:269,1,427.500016307831,4|0,1:0|1:0,0:0:0:0:
215,151,198532,2,0,B|220:184|174:268|130:235,1,113.999996520996,8|0,3:0|3:0,0:0:0:0:
247,356,198848,2,0,P|230:317|202:290,1,56.9999982604981,0|0,1:0|0:0,0:0:0:0:
311,268,199006,6,0,B|356:212|428:189|556:195|499:277,1,265.999991882324,4|0,1:0|3:0,0:0:0:0:
354,345,199479,1,0,1:0:0:0:
172,173,199637,2,0,B|121:157|67:170|11:201|-6:239|82:248,1,227.999993041992,0|0,0:0|3:0,0:0:0:0:
177,317,200111,2,0,P|210:315|241:309,1,56.9999982604981,0|0,1:0|0:0,0:0:0:0:
327,150,200269,6,0,B|276:164|254:200|261:237|344:293|410:266,1,246.999988693238,4|0,1:0|3:0,0:0:0:0:
491,96,200742,2,0,P|439:154|421:217,1,113.999996520996,0|0,1:0|0:0,0:0:0:0:
258,339,201058,2,0,P|286:330|333:328,1,56.9999982604981,8|0,3:0|0:0,0:0:0:0:
340,345,201216,2,0,P|368:336|415:334,1,56.9999982604981,0|0,3:0|0:0,0:0:0:0:
457,302,201374,2,0,P|428:305|401:314,1,56.9999982604981,0|0,1:0|0:0,0:0:0:0:
192,384,201532,6,0,B|165:318|107:266|26:232|-16:240,1,227.999993041992,4|0,1:0|3:0,0:0:0:0:
66,375,202005,2,0,P|93:303|99:234,1,113.999996520996,0|0,1:0|0:0,0:0:0:0:
189,134,202321,2,0,P|161:125|133:121,1,56.9999982604981,8|0,3:0|0:0,0:0:0:0:
115,96,202479,2,0,P|86:99|59:108,1,56.9999982604981,0|0,3:0|0:0,0:0:0:0:
40,154,202637,2,0,P|65:140|91:131,1,56.9999982604981,0|0,1:0|0:0,0:0:0:0:
291,83,202795,6,0,B|270:171|291:283|314:323|334:346,1,227.999993041992,4|0,1:0|3:0,0:0:0:0:
486,243,203268,2,0,P|446:237|366:272,1,113.999996520996,0|0,1:0|0:0,0:0:0:0:
244,362,203584,2,0,P|216:353|188:349,1,56.9999982604981,8|0,3:0|0:0,0:0:0:0:
151,265,203742,2,0,P|169:286|183:311,1,56.9999982604981,0|0,3:0|0:0,0:0:0:0:
255,281,203900,2,0,P|234:300|210:316,1,56.9999982604981,0|0,1:0|0:0,0:0:0:0:
64,355,204058,1,4,1:0:0:0:
0,155,204373,6,0,P|38:135|113:112,1,85.4999973907472,0|0,3:0|1:0,0:0:0:0:
191,21,204690,2,0,P|237:42|297:61,1,99.7499969558717,0|0,3:0|1:0,0:0:0:0:
336,190,205005,2,0,P|383:167|445:157,1,113.999996520996,0|0,3:0|1:0,0:0:0:0:
492,359,205321,2,0,P|440:322|378:307,1,128.250000489235,0|0,3:0|1:0,0:0:0:0:
288,304,205584,1,0,3:3:0:0:
251,358,205689,1,8,3:3:0:0:
205,353,205794,1,8,3:3:0:0:
177,380,205900,1,4,3:3:0:0:
132,365,206005,1,4,3:3:0:0:
84,384,206110,5,0,1:0:0:0:
60,302,206347,1,0,1:0:0:0:
34,220,206584,1,0,1:0:0:0:
0,108,206742,5,0,1:0:0:0:
82,84,206979,1,0,1:0:0:0:
164,58,207216,1,0,1:0:0:0:
370,130,208005,22,0,B|433:112|491:103|491:103|573:128,1,156.750001494885,4|0,1:0|0:0,0:0:0:0:
140,316,208320,38,0,B|100:326|100:326|19:309|-62:273,1,156.750001494885,8|0,1:2|3:0,0:0:0:0:
123,0,208636,2,0,B|146:17|146:17|166:76|175:163,1,156.750001494885,0|0,1:0|3:0,0:0:0:0:
281,384,208952,2,0,B|275:341|275:341|294:286|328:234,1,156.750001494885,8|0,1:2|3:0,0:0:0:0:
463,43,209189,1,0,0:0:0:0:
382,84,209268,2,0,B|402:133|402:133|435:169|545:209,1,156.750001494885,0|0,1:2|1:0,0:0:0:0:
281,384,209583,2,0,B|239:329|239:329|189:296|75:262|3:267,1,313.500002989769,0|0,1:0|3:0,0:0:0:0:
188,356,210057,5,0,3:0:0:0:
129,151,210215,2,0,B|92:154|36:161|-9:193,1,128.250000489235,0|0,1:0|0:0,0:0:0:0:
178,302,210452,1,8,3:0:0:0:
245,259,210531,2,0,B|278:243|330:221|385:226,1,128.250000489235,4|0,1:2|3:0,0:0:0:0:
211,26,210846,2,0,B|192:34|181:83|244:123|280:114,1,128.250000489235,8|0,1:2|0:0,0:0:0:0:
512,273,211162,2,0,P|447:250|378:247,1,137.750004203797,0|0,3:0|3:0,0:0:0:0:
429,1,211478,2,0,P|477:62|502:174,1,185.250000706673,8|0,1:2|0:0,0:0:0:0:
391,358,211794,1,0,3:0:0:0:
215,257,211952,1,0,3:0:0:0:
57,375,212109,6,0,L|184:330,1,128.250000489235,0|8,1:0|1:3,0:0:0:0:
88,135,212346,1,4,1:3:0:0:
47,201,212425,2,0,P|49:246|132:311,1,128.250000489235,0|0,1:0|3:0,0:0:0:0:
347,260,212741,1,0,1:0:0:0:
473,228,212899,1,0,0:0:0:0:
291,56,213057,5,4,1:2:0:0:
267,184,213215,1,0,3:0:0:0:
397,355,213372,2,0,P|317:310|248:310,1,128.250000489235,0|0,1:0|3:0,0:0:0:0:
52,330,213609,1,0,0:0:0:0:
122,358,213688,2,0,P|167:314|188:254,1,128.250000489235,8|0,3:0|3:0,0:0:0:0:
72,38,214004,5,0,1:0:0:0:
113,165,214162,1,0,0:0:0:0:
154,292,214320,1,8,1:3:0:0:
246,107,214478,1,0,3:0:0:0:
9,212,214635,2,0,P|94:236|151:282,1,128.250000489235,4|0,1:2|0:0,0:0:0:0:
364,384,214951,2,0,P|331:331|321:259,1,128.250000489235,0|0,0:2|3:0,0:0:0:0:
505,63,215267,2,0,P|490:145|455:191,1,128.250000489235,0|0,1:2|3:0,0:0:0:0:
296,278,215504,1,0,1:2:0:0:
234,226,215583,6,0,P|179:197|33:198,1,192.375000733852,0|0,1:2|0:0,0:0:0:0:
111,43,215898,2,0,L|128:135,1,64.1250002446175,0|0,1:2|0:0,0:0:0:0:
171,327,216056,2,0,P|211:280|348:228,1,192.375000733852,0|0,3:0|0:0,0:0:0:0:
512,117,216372,2,0,P|421:147|353:214,1,192.375000733852,0|0,3:0|0:0,0:0:0:0:
389,384,216688,2,0,L|377:320,1,64.1250002446175,0|0,3:0|0:0,0:0:0:0:
342,100,216846,2,0,P|285:72|189:68,1,128.250000489235,8|0,1:2|3:0,0:0:0:0:
0,301,217161,2,0,P|43:254|132:217,1,128.250000489235,8|0,1:2|3:0,0:0:0:0:
436,226,217477,5,8,1:2:0:0:
449,257,217556,1,8,1:2:0:0:
447,297,217635,1,8,1:2:0:0:
433,332,217714,1,8,1:2:0:0:
356,349,217793,1,4,1:3:0:0:
335,323,217872,1,4,1:3:0:0:
307,306,217951,1,4,1:3:0:0:
275,302,218030,1,4,1:3:0:0:
200,332,218109,22,0,B|152:312|152:312|116:274|121:206,1,156.750001494885,4|0,1:0|0:0,0:0:0:0:
472,97,218425,22,0,B|513:139|510:191|510:191|486:237,1,156.750001494885,8|0,1:2|3:0,0:0:0:0:
77,282,218740,22,0,B|60:228|60:228|61:177|92:113,1,156.750001494885,0|0,1:0|3:0,0:0:0:0:
308,384,219056,22,0,B|382:361|382:361|413:335|453:268,1,156.750001494885,8|0,1:2|3:0,0:0:0:0:
392,0,219372,22,0,L|255:210,1,235.125002242327,0|0,1:0|1:0,0:0:0:0:
98,24,219688,2,0,P|172:49|268:69,1,156.750001494885,8|0,1:2|0:0,0:0:0:0:
473,74,220003,1,0,3:0:0:0:
352,255,220161,1,0,3:0:0:0:
496,361,220319,2,0,L|438:228,1,128.250000489235,0|0,1:0|0:0,0:0:0:0:
297,122,220556,1,8,3:0:0:0:
263,196,220635,6,0,L|211:313,1,128.250000489235,4|0,1:2|3:0,0:0:0:0:
55,68,220951,2,0,L|90:205,1,128.250000489235,8|0,1:2|0:0,0:0:0:0:
115,384,221266,2,0,P|197:354|285:366,1,137.750004203797,0|0,3:0|3:0,0:0:0:0:
305,107,221582,2,0,P|331:180|380:241,1,156.750001494885,8|0,1:2|0:0,0:0:0:0:
492,326,221898,1,0,3:0:0:0:
208,264,222056,1,0,3:0:0:0:
23,224,222214,2,0,P|37:278|45:366,1,128.250000489235,0|8,1:0|1:3,0:0:0:0:
165,173,222450,1,4,1:3:0:0:
157,101,222529,2,0,P|139:39|113:-20,1,128.250000489235,0|0,1:0|3:0,0:0:0:0:
15,240,222766,1,0,0:0:0:0:
81,286,222845,2,0,P|177:250|245:249,1,128.250000489235,0|0,1:0|0:0,0:0:0:0:
488,163,223161,6,0,P|409:199|435:317,1,192.375000733852,4|0,1:2|0:0,0:0:0:0:
311,54,223477,2,0,P|347:132|327:176,1,128.250000489235,0|0,1:0|3:0,0:0:0:0:
359,360,223792,1,8,3:0:0:0:
319,181,223950,1,0,3:0:0:0:
288,44,224108,1,0,1:0:0:0:
430,210,224266,1,0,0:0:0:0:
208,152,224424,2,0,P|157:183|177:262,1,128.250000489235,8|0,1:3|3:0,0:0:0:0:
359,360,224740,2,0,P|362:298|311:266,1,128.250000489235,4|0,1:2|0:0,0:0:0:0:
36,316,225055,2,0,P|81:355|138:332,1,128.250000489235,0|0,3:2|3:0,0:0:0:0:
0,136,225371,2,0,P|19:77|79:70,1,128.250000489235,0|0,1:2|3:0,0:0:0:0:
184,128,225608,1,0,1:2:0:0:
252,162,225687,6,0,P|350:117|451:126,1,192.375000733852,4|0,1:0|0:0,0:0:0:0:
512,270,226003,2,0,P|464:295|426:266,1,64.1250002446175,0|0,3:0|0:0,0:0:0:0:
390,357,226161,2,0,P|295:341|219:284,1,192.375000733852,0|0,1:0|0:0,0:0:0:0:
473,187,226476,2,0,P|390:235|295:241,1,192.375000733852,0|0,3:0|0:0,0:0:0:0:
147,329,226792,2,0,P|115:326|92:305,1,64.1250002446175,0|0,3:0|0:0,0:0:0:0:
16,166,226950,2,0,P|83:109|154:78,1,128.250000489235,8|0,1:2|3:0,0:0:0:0:
444,8,227266,2,0,P|388:39|341:83,1,128.250000489235,8|0,1:2|3:0,0:0:0:0:
253,319,227581,5,8,1:2:0:0:
306,298,227660,1,8,1:2:0:0:
352,264,227739,1,8,1:2:0:0:
386,217,227818,1,8,1:2:0:0:
438,240,227897,5,4,1:3:0:0:
385,261,227976,1,4,1:3:0:0:
339,295,228055,1,4,1:3:0:0:
305,342,228134,1,4,1:3:0:0:
216,373,228213,6,0,P|111:336|21:332,1,166.250001585484,4|0,1:0|0:0,0:0:0:0:
383,138,228529,2,0,P|273:158|193:199,1,166.250001585484,4|0,1:0|0:0,0:0:0:0:
0,48,228844,6,0,P|109:68|189:109,1,166.250001585484,0|0,1:0|3:0,0:0:0:0:
512,295,229160,2,0,P|435:263|353:252,1,166.250001585484,0|0,1:0|3:0,0:0:0:0:
5,337,229476,2,0,P|81:305|163:294,1,166.250001585484,0|0,1:0|3:0,0:0:0:0:
398,31,229792,2,0,P|365:107|316:173,1,166.250001585484,0|0,1:0|3:0,0:0:0:0:
4,252,230108,2,0,P|81:283|164:294,1,166.250001585484,0|0,1:0|3:0,0:0:0:0:
482,379,230423,2,0,P|405:346|339:297,1,166.250001585484,0|0,1:0|3:0,0:0:0:0:
138,174,230739,5,0,1:0:0:0:
314,34,230897,1,0,0:0:0:0:
324,39,231055,1,0,1:0:0:0:
354,116,231213,1,0,0:0:0:0:
124,74,231371,1,0,1:0:0:0:
183,15,231528,5,0,3:0:0:0:
138,174,231686,1,0,1:0:0:0:
84,352,231844,1,0,3:0:0:0:
263,239,232002,1,0,1:0:0:0:
130,170,232160,1,0,3:0:0:0:
0,94,232318,1,0,1:0:0:0:
205,25,232476,1,0,0:0:0:0:
94,244,232634,6,0,L|18:398,1,147.250001123428,0|0,1:0|0:0,0:0:0:0:
472,273,232949,2,0,L|347:196,1,147.250001123428,0|0,1:0|0:0,0:0:0:0:
72,23,233265,6,0,P|138:75|222:115,1,166.250001585484,4|0,1:0|0:0,0:0:0:0:
27,243,233581,2,0,P|110:236|199:208,1,166.250001585484,4|0,1:0|0:0,0:0:0:0:
440,0,233897,6,0,P|370:47|307:116,1,166.250001585484,0|0,1:0|3:0,0:0:0:0:
463,384,234212,2,0,P|420:311|356:243,1,166.250001585484,0|0,1:0|3:0,0:0:0:0:
0,135,234528,2,0,P|84:136|174:157,1,166.250001585484,0|0,1:0|3:0,0:0:0:0:
512,68,234844,2,0,P|440:110|379:166,1,166.250001585484,0|0,1:0|3:0,0:0:0:0:
209,384,235160,2,0,P|236:317|214:226,1,166.250001585484,0|0,1:0|3:0,0:0:0:0:
104,10,235475,2,0,P|107:82|166:155,1,166.250001585484,0|0,1:0|3:0,0:0:0:0:
432,310,235791,5,0,1:0:0:0:
512,26,235949,2,0,L|471:167,1,147.250001123428,0|0,0:0|1:0,0:0:0:0:
443,330,236265,1,0,0:0:0:0:
284,109,236423,2,0,L|187:-23,1,147.250001123428,0|0,1:0|3:0,0:0:0:0:
52,333,236738,5,4,1:0:0:0:
342,286,236896,2,4,L|196:309,1,147.250001123428,4|4,3:0|1:0,0:0:0:0:
36,352,237212,1,4,3:0:0:0:
232,100,237370,2,4,L|322:-16,1,147.250001123428,4|0,1:0|0:0,0:0:0:0:
2,126,237686,1,4,1:0:0:0:
48,138,237765,1,0,3:0:0:0:
93,149,237844,1,0,3:0:0:0:
138,161,237922,1,0,3:0:0:0:
184,219,238001,6,0,B|384:171|384:171|353:247,1,277.875001060009,0|0,1:0|0:0,0:0:0:0:
512,299,238317,6,0,P|489:220|401:149,1,166.250001585484,4|0,1:0|0:0,0:0:0:0:
245,122,238633,1,0,1:0:0:0:
511,211,238791,2,0,P|487:319|417:372,1,166.250001585484,0|8,3:0|1:3,0:0:0:0:
210,380,239107,1,0,3:0:0:0:
3,202,239264,6,0,P|19:124|74:51,1,166.250001585484,0|0,1:0|3:0,0:0:0:0:
262,0,239580,1,0,1:0:0:0:
0,117,239738,2,0,P|2:199|44:269,1,166.250001585484,0|0,3:0|1:0,0:0:0:0:
303,344,240054,1,0,3:0:0:0:
402,325,240212,5,8,3:0:0:0:
160,196,240370,1,0,3:0:0:0:
345,116,240527,1,0,1:0:0:0:
308,220,240685,1,0,3:0:0:0:
512,105,240843,6,0,P|466:58|358:22,1,166.250001585484,0|0,1:0|3:0,0:0:0:0:
189,76,241159,1,0,1:0:0:0:
478,26,241317,2,0,P|484:109|447:182,1,166.250001585484,0|8,3:0|3:0,0:0:0:0:
257,292,241633,1,0,3:0:0:0:
41,184,241790,6,0,P|113:95|199:57,1,166.250001585484,0|0,1:0|3:0,0:0:0:0:
347,140,242106,1,0,1:0:0:0:
25,285,242264,2,0,P|16:205|45:93,1,166.250001585484,0|0,3:0|1:0,0:0:0:0:
215,2,242580,1,0,3:0:0:0:
411,268,242738,6,0,P|344:263|270:193,1,166.250001585484,8|0,3:0|3:0,0:0:0:0:
499,317,243054,1,0,1:0:0:0:
306,350,243211,1,0,3:0:0:0:
113,383,243369,6,0,P|73:317|42:203,1,166.250001585484,4|0,1:0|3:0,0:0:0:0:
96,50,243685,1,0,1:0:0:0:
31,362,243843,2,0,P|81:303|132:197,1,166.250001585484,0|8,3:0|3:0,0:0:0:0:
232,109,244159,1,0,3:0:0:0:
405,22,244317,6,0,P|447:93|471:172,1,166.250001585484,0|0,1:0|3:0,0:0:0:0:
426,345,244633,1,0,1:0:0:0:
495,12,244791,2,0,P|434:60|366:156,1,166.250001585484,0|0,3:0|1:0,0:0:0:0:
297,310,245107,1,0,3:0:0:0:
178,88,245264,2,0,B|135:44|47:27|20:77,1,166.250001585484,8|0,3:0|3:0,0:0:0:0:
390,357,245580,2,0,B|417:325|393:247|340:210,1,166.250001585484,4|0,1:0|0:0,0:0:0:0:
45,334,245895,5,0,1:3:0:0:
175,238,246053,1,0,3:3:0:0:
305,142,246211,1,4,1:3:0:0:
435,46,246369,1,4,1:3:0:0:
512,338,246843,5,4,1:2:0:0:
336,237,247001,1,4,3:2:0:0:
175,290,247158,1,4,3:1:0:0:
0,185,247316,1,4,1:0:0:0:
