osu file format v14

[General]
AudioFilename: audio.mp3
AudioLeadIn: 0
PreviewTime: 207926
Countdown: 0
SampleSet: Soft
StackLeniency: 0.7
Mode: 0
LetterboxInBreaks: 0
WidescreenStoryboard: 1

[Editor]
Bookmarks: 17761
DistanceSpacing: 1.1
BeatDivisor: 4
GridSize: 32
TimelineZoom: 1.5

[Metadata]
Title:Kanzen Kankaku Dreamer
TitleUnicode:完全感覚Dreamer
Artist:ONE OK ROCK
ArtistUnicode:ONE OK ROCK
Creator:Nevo
Version:Reform's Extra
Source:
Tags:japanese rock smokeman akitoshi agatsu kowari reform -Laura- xchorse corinn kujinn
BeatmapID:2035657
BeatmapSetID:940222

[Difficulty]
HPDrainRate:5.5
CircleSize:3.8
OverallDifficulty:8.5
ApproachRate:9.2
SliderMultiplier:1.7
SliderTickRate:1

[Events]
//Background and Video events
0,0,"851179.jpg",0,0
//Break Periods
2,93269,112076
//Storyboard Layer 0 (Background)
//Storyboard Layer 1 (Fail)
//Storyboard Layer 2 (Pass)
//Storyboard Layer 3 (Foreground)
//Storyboard Layer 4 (Overlay)
//Storyboard Sound Samples

[TimingPoints]
2132,315.756236185665,4,2,1,75,1,0
7184,-83.3333333333333,4,2,1,75,0,0
27392,-111.111111111111,4,2,1,75,0,0
31813,-100,4,2,1,75,0,0
52652,-133.333333333333,4,2,1,65,0,0
72861,-79.9999999999999,4,2,1,90,0,1
93069,-79.9999999999999,4,2,1,75,0,0
103173,-79.9999999999999,4,2,1,75,0,0
112646,-133.333333333333,4,2,1,75,0,0
113278,-133.333333333333,4,2,1,60,0,0
115804,-100,4,2,1,75,0,0
133486,-133.333333333333,4,2,1,65,0,0
153063,-100,4,2,1,70,0,0
153694,-79.9999999999999,4,2,1,90,0,1
173271,-79.9999999999999,4,2,1,70,0,0
178797,-100,4,2,1,70,0,0
186375,-83.3333333333333,4,2,1,70,0,0
208005,-80,4,2,1,90,0,1
227581,-80,4,2,1,90,0,0
228213,-80,4,2,1,90,0,1
246369,-80,4,2,1,90,0,0
246843,-80,4,2,1,90,0,1
247316,-80,4,2,1,90,0,0

[Colours]
Combo1 : 255,163,70
Combo2 : 217,0,217
Combo3 : 187,0,0
Combo4 : 2,77,189

[HitObjects]
148,137,2132,5,12,0:0:0:0:
74,247,2289,1,0,1:0:0:0:
257,139,2447,1,0,1:0:0:0:
62,167,2605,5,8,0:0:0:0:
225,245,2763,1,0,1:0:0:0:
181,75,2921,5,8,0:0:0:0:
126,280,3079,1,0,1:0:0:0:
237,145,3237,1,0,1:0:0:0:
240,337,3395,1,8,0:0:0:0:
129,141,3552,1,0,1:0:0:0:
344,271,3710,5,8,0:0:0:0:
114,239,3868,1,0,1:0:0:0:
305,149,4026,5,8,0:0:0:0:
305,149,4105,1,8,0:0:0:0:
305,149,4184,2,0,P|312:114|312:87,1,42.5,8|8,0:0|0:0,0:0:0:0:
201,221,4342,1,8,0:0:0:0:
201,221,4421,1,8,0:0:0:0:
201,221,4500,2,0,P|203:242|208:262,1,42.5,8|8,0:0|0:0,0:0:0:0:
310,326,4658,6,0,P|368:334|413:291,1,85,0|0,1:0|1:0,0:0:0:0:
449,265,4894,1,0,1:0:0:0:
449,265,4973,2,0,L|458:210,1,42.5,8|0,0:0|0:0,0:0:0:0:
411,140,5131,2,0,P|366:116|317:128,1,85,8|8,0:0|0:0,0:0:0:0:
280,182,5368,1,8,0:0:0:0:
280,182,5447,2,0,P|247:192|217:189,1,42.5,8|0,0:0|0:0,0:0:0:0:
159,143,5605,2,0,P|149:97|164:42,1,85,8|8,0:0|0:0,0:0:0:0:
232,19,5842,1,8,0:0:0:0:
232,19,5921,6,0,L|302:27,1,42.5,8|0,0:0|0:0,0:0:0:0:
348,109,6078,2,0,L|278:117,1,42.5,8|0,0:0|0:0,0:0:0:0:
239,192,6236,2,0,L|175:183,3,42.5,8|8|8|8,0:0|0:0|0:0|0:0,0:0:0:0:
99,272,6552,1,0,1:0:0:0:
127,291,6631,1,0,1:0:0:0:
159,299,6710,1,0,1:0:0:0:
192,291,6789,1,0,1:0:0:0:
218,269,6868,1,0,1:0:0:0:
250,258,6947,1,0,1:0:0:0:
284,258,7026,1,0,1:0:0:0:
316,266,7105,1,0,1:0:0:0:
350,288,7184,6,0,P|399:311|466:286,1,101.999996887207,4|0,1:0|1:0,0:0:0:0:
329,103,7499,2,0,P|279:94|234:117,1,101.999996887207,8|0,0:0|0:0,0:0:0:0:
103,238,7815,1,0,1:0:0:0:
174,59,7973,2,0,P|192:128|207:274,1,203.999993774414,0|8,1:0|0:0,0:0:0:0:
310,152,8447,2,0,P|355:129|428:155,1,101.999996887207,0|0,0:0|1:0,0:0:0:0:
324,346,8762,2,0,P|274:353|229:330,1,101.999996887207,8|0,0:0|0:0,0:0:0:0:
110,145,9078,1,0,0:0:0:0:
285,226,9236,1,0,1:0:0:0:
117,354,9394,2,0,P|109:289|102:235,1,101.999996887207,8|0,0:0|0:0,0:0:0:0:
265,82,9710,5,4,1:0:0:0:
234,256,9868,1,0,1:0:0:0:
355,60,10025,2,0,P|367:108|365:177,1,101.999996887207,8|0,0:0|0:0,0:0:0:0:
210,58,10341,1,0,1:0:0:0:
413,215,10499,2,0,B|284:189|351:266|209:233,1,203.999993774414,0|8,1:0|0:0,0:0:0:0:
89,105,10973,2,0,P|152:106|190:145,1,101.999996887207,0|0,0:0|1:0,0:0:0:0:
124,310,11288,2,0,P|114:221|107:169,1,101.999996887207,8|0,0:0|0:0,0:0:0:0:
292,102,11604,1,0,0:0:0:0:
237,270,11762,1,0,0:0:0:0:
143,91,11920,1,8,0:0:0:0:
320,143,12078,1,0,0:0:0:0:
104,258,12236,5,4,1:0:0:0:
330,228,12394,1,0,1:0:0:0:
62,180,12551,2,0,P|125:175|175:208,1,101.999996887207,8|0,0:0|0:0,0:0:0:0:
279,318,12867,1,0,1:0:0:0:
186,85,13025,2,0,P|171:153|171:204,1,101.999996887207,0|0,1:0|0:0,0:0:0:0:
372,313,13341,2,0,P|336:249|202:272,1,203.999993774414,8|0,0:0|1:0,0:0:0:0:
67,344,13814,2,0,P|134:334|162:301,1,101.999996887207,8|0,0:0|0:0,0:0:0:0:
65,145,14130,2,0,P|80:206|88:273,1,101.999996887207,0|0,1:0|1:0,0:0:0:0:
279,72,14446,2,0,P|264:133|256:200,1,101.999996887207,8|0,0:0|0:0,0:0:0:0:
136,70,14762,5,4,1:0:0:0:
190,271,14920,1,0,1:0:0:0:
109,76,15078,1,8,0:0:0:0:
327,159,15235,1,0,0:0:0:0:
84,208,15393,1,0,1:0:0:0:
258,69,15551,2,0,P|310:43|381:60,1,101.999996887207,0|0,1:0|0:0,0:0:0:0:
359,261,15867,6,0,P|308:262|264:237,1,101.999996887207,8|0,0:0|0:0,0:0:0:0:
116,143,16183,1,0,1:0:0:0:
154,347,16341,2,0,P|164:282|178:218,1,101.999996887207,8|0,0:0|0:0,0:0:0:0:
319,111,16656,1,0,1:0:0:0:
381,325,16814,1,8,0:0:0:0:
340,320,16893,1,8,0:0:0:0:
308,293,16972,1,8,0:0:0:0:
294,254,17051,1,8,0:0:0:0:
300,213,17130,1,8,0:0:0:0:
320,177,17209,1,8,0:0:0:0:
352,152,17288,6,0,P|403:132|469:151,1,101.999996887207,4|0,1:0|1:0,0:0:0:0:
277,321,17604,2,0,P|227:327|180:308,1,101.999996887207,8|0,0:0|0:0,0:0:0:0:
55,148,17919,1,0,1:0:0:0:
98,375,18077,2,0,P|124:287|147:164,1,203.999993774414,0|8,1:0|0:0,0:0:0:0:
53,37,18551,2,0,P|101:77|146:75,1,101.999996887207,0|0,0:0|1:0,0:0:0:0:
337,11,18867,2,0,P|287:16|251:51,1,101.999996887207,8|0,0:0|0:0,0:0:0:0:
266,232,19182,1,0,0:0:0:0:
331,90,19340,1,0,1:0:0:0:
142,164,19498,2,0,P|158:229|166:280,1,101.999996887207,8|0,0:0|0:0,0:0:0:0:
386,163,19814,5,4,1:0:0:0:
195,112,19972,1,0,1:0:0:0:
348,287,20130,2,0,P|421:288|460:248,1,101.999996887207,8|0,0:0|0:0,0:0:0:0:
358,63,20445,1,0,1:0:0:0:
205,238,20603,2,0,P|132:239|68:123,1,203.999993774414,0|8,1:0|0:0,0:0:0:0:
184,22,21077,2,0,P|196:82|197:136,1,101.999996887207,0|0,0:0|1:0,0:0:0:0:
68,312,21393,2,0,P|56:252|55:198,1,101.999996887207,8|0,0:0|0:0,0:0:0:0:
295,132,21708,1,0,0:0:0:0:
139,276,21866,1,0,1:0:0:0:
116,87,22024,1,8,0:0:0:0:
279,216,22182,1,0,0:0:0:0:
62,166,22340,5,4,1:0:0:0:
259,79,22498,1,0,1:0:0:0:
150,263,22656,2,0,P|97:287|36:274,1,101.999996887207,8|0,0:0|0:0,0:0:0:0:
151,49,22971,1,0,1:0:0:0:
260,233,23129,2,0,P|313:257|374:244,1,101.999996887207,0|0,1:0|0:0,0:0:0:0:
280,67,23445,6,0,P|246:147|247:275,1,203.999993774414,8|0,0:0|1:0,0:0:0:0:
436,191,23919,2,0,P|393:165|329:169,1,101.999996887207,8|0,0:0|0:0,0:0:0:0:
218,347,24234,2,0,P|268:346|311:320,1,101.999996887207,0|0,1:0|0:0,0:0:0:0:
193,110,24550,2,0,P|211:167|220:240,1,101.999996887207,8|0,0:0|0:0,0:0:0:0:
77,142,24866,5,4,1:0:0:0:
266,69,25024,1,0,1:0:0:0:
133,249,25182,1,8,0:0:0:0:
70,55,25340,1,0,0:0:0:0:
256,209,25497,2,0,P|320:226|381:235,1,101.999996887207,0|0,1:0|1:0,0:0:0:0:
153,102,25813,2,0,P|102:111|53:125,1,101.999996887207,0|8,0:0|0:0,0:0:0:0:
153,350,26129,6,0,P|166:295|179:227,1,101.999996887207,0|0,0:0|1:0,0:0:0:0:
276,74,26445,2,0,P|286:123|297:173,1,101.999996887207,8|0,0:0|1:0,0:0:0:0:
393,289,26760,1,8,0:0:0:0:
181,191,26918,1,0,1:0:0:0:
436,102,27076,2,0,P|425:151|414:201,1,101.999996887207,8|0,0:0|0:0,0:0:0:0:
241,328,27392,6,0,P|234:261|229:223,1,76.4999976654053,0|0,1:0|0:0,0:0:0:0:
185,186,27708,1,8,0:0:0:0:
185,186,27866,2,0,P|192:119|197:81,1,76.4999976654053,0|8,0:0|0:0,0:0:0:0:
348,41,28339,6,0,L|429:34,1,76.4999976654053,8|0,0:0|0:0,0:0:0:0:
490,88,28655,1,8,0:0:0:0:
490,88,28813,2,0,L|409:81,1,76.4999976654053,0|8,0:0|0:0,0:0:0:0:
268,132,29287,6,0,P|253:200|277:262,1,114.749996498108,8|0,0:0|0:0,0:0:0:0:
291,264,29602,2,0,P|306:332|282:394,1,114.749996498108,8|0,0:0|0:0,0:0:0:0:
210,369,29918,6,0,P|164:361|117:353,1,76.4999976654053,8|0,0:0|0:0,0:0:0:0:
67,320,30234,1,8,0:0:0:0:
67,320,30392,2,0,P|113:312|160:304,1,76.4999976654053,0|8,0:0|0:0,0:0:0:0:
303,167,30865,6,0,L|396:155,1,76.4999976654053,8|0,0:0|0:0,0:0:0:0:
446,118,31181,1,8,0:0:0:0:
446,118,31339,2,0,P|400:110|353:102,1,76.4999976654053,0|8,0:0|0:0,0:0:0:0:
64,194,31813,5,0,1:0:0:0:
94,222,31970,5,0,1:0:0:0:
175,187,32128,5,2,1:2:0:0:
256,240,32285,5,0,1:0:0:0:
332,168,32444,6,0,P|377:134|485:153,1,170,6|8,1:2|0:0,0:0:0:0:
407,221,32918,2,0,B|301:194|350:273|220:235,1,170,2|0,1:2|1:0,0:0:0:0:
187,130,33391,2,0,P|197:205|216:332,1,170,10|0,0:2|0:0,0:0:0:0:
80,329,33865,2,0,P|78:273|182:237,1,170,2|0,1:2|0:0,0:0:0:0:
267,345,34339,2,0,P|321:369|361:358,1,85,2|0,1:2|1:0,0:0:0:0:
446,276,34654,2,0,P|392:252|352:263,1,85,10|8,0:2|0:0,0:0:0:0:
245,322,34970,6,0,P|263:242|279:118,1,170,6|8,1:2|0:0,0:0:0:0:
154,76,35444,2,0,B|259:62|207:135|337:119,1,170,2|0,1:2|1:0,0:0:0:0:
462,59,35917,2,0,P|406:43|356:141,1,170,2|0,0:2|0:0,0:0:0:0:
440,270,36391,2,0,P|448:180|465:81,1,170,2|0,1:2|0:0,0:0:0:0:
352,20,36865,2,0,P|300:10|256:37,1,85,2|0,1:2|1:0,0:0:0:0:
186,92,37180,2,0,P|146:105|105:93,1,85,10|0,0:2|0:0,0:0:0:0:
24,177,37496,6,0,P|93:157|205:141,1,170,6|8,1:2|0:0,0:0:0:0:
315,252,37970,2,0,P|226:253|199:157,1,170,2|0,1:2|1:0,0:0:0:0:
323,61,38443,2,0,B|305:164|373:115|341:252,1,170,2|0,0:2|0:0,0:0:0:0:
472,98,38917,2,0,P|454:176|451:219,1,85,2|8,1:2|0:0,0:0:0:0:
489,298,39233,1,0,0:0:0:0:
373,230,39391,2,0,P|309:204|259:199,1,85,2|0,1:2|1:0,0:0:0:0:
152,319,39706,2,0,P|193:308|231:290,1,85,2|8,0:2|0:0,0:0:0:0:
241,90,40022,6,0,P|223:146|224:267,1,170,6|8,1:2|0:0,0:0:0:0:
415,271,40496,2,0,B|307:257|363:312|242:297,1,170,2|0,1:2|1:0,0:0:0:0:
131,255,40970,2,0,P|146:295|162:355,1,85,2|8,0:2|0:0,0:0:0:0:
299,181,41285,1,2,0:2:0:0:
299,181,41443,2,0,P|284:221|268:281,1,85,2|8,1:2|0:0,0:0:0:0:
220,127,41759,2,0,P|265:83|377:118,1,170,2|0,0:2|1:0,0:0:0:0:
471,216,42233,2,0,P|420:198|373:186,1,85,8|0,0:0|0:0,0:0:0:0:
238,269,42548,6,0,P|156:289|64:285,1,170,6|8,1:2|0:0,0:0:0:0:
3,145,43022,2,0,P|60:132|127:237,1,170,2|0,1:2|1:0,0:0:0:0:
193,353,43496,2,0,P|199:289|226:163,1,170,2|0,0:2|0:0,0:0:0:0:
356,80,43969,2,0,B|243:90|315:143|180:142,1,170,2|0,1:2|0:0,0:0:0:0:
62,51,44443,2,0,P|115:70|169:81,1,85,2|0,1:2|1:0,0:0:0:0:
38,207,44759,2,0,P|91:188|145:177,1,85,2|8,0:2|0:0,0:0:0:0:
305,314,45074,6,0,P|229:317|160:227,1,170,6|8,1:2|0:0,0:0:0:0:
292,203,45548,2,0,P|368:206|437:116,1,170,2|0,1:2|1:0,0:0:0:0:
262,49,46022,2,0,B|366:58|299:107|418:121,1,170,2|0,0:2|0:0,0:0:0:0:
468,41,46495,2,0,P|451:146|435:243,1,170,2|0,1:2|0:0,0:0:0:0:
326,242,46969,2,0,P|335:296|343:362,1,85,2|0,1:2|1:0,0:0:0:0:
190,169,47285,2,0,P|181:223|173:289,1,85,10|0,0:2|0:0,0:0:0:0:
307,104,47600,6,0,B|203:83|247:154|125:123,1,170,6|8,1:2|0:0,0:0:0:0:
3,59,48074,2,0,P|87:51|188:39,1,170,2|0,1:2|1:0,0:0:0:0:
280,75,48548,2,0,P|350:83|461:104,1,170,2|0,0:2|0:0,0:0:0:0:
332,210,49021,2,0,P|261:219|195:113,1,170,2|0,1:2|0:0,0:0:0:0:
246,41,49495,2,0,P|237:95|227:144,1,85,2|0,1:2|1:0,0:0:0:0:
109,233,49811,2,0,P|100:191|94:149,1,85,2|8,0:2|0:0,0:0:0:0:
319,184,50126,6,0,P|299:265|277:376,1,170,6|8,1:2|0:0,0:0:0:0:
120,320,50600,2,0,P|167:275|278:335,1,170,2|0,1:2|1:0,0:0:0:0:
458,228,51074,2,0,P|410:209|358:216,1,85,2|8,0:2|0:0,0:0:0:0:
328,374,51389,1,2,0:2:0:0:
401,290,51547,1,2,1:2:0:0:
237,172,51705,2,0,P|248:236|257:279,1,85,8|2,0:0|1:2,0:0:0:0:
405,72,52021,1,8,0:0:0:0:
361,225,52179,1,8,0:0:0:0:
232,68,52337,1,0,1:0:0:0:
260,177,52495,1,0,1:0:0:0:
370,83,52652,6,0,P|326:74|281:62,1,63.7500024318696,6|0,1:2|0:0,0:0:0:0:
212,142,52968,2,0,P|146:147|80:160,1,127.500004863739,2|0,0:2|0:0,0:0:0:0:
125,59,53442,1,0,1:0:0:0:
188,170,53600,2,0,P|184:218|176:253,1,63.7500024318696,10|8,0:2|0:0,0:0:0:0:
66,336,53916,2,0,P|60:304|59:272,1,63.7500024318696,10|0,0:2|0:0,0:0:0:0:
223,174,54231,2,0,P|265:169|322:241,1,127.500004863739,10|0,0:2|1:0,0:0:0:0:
222,347,54705,1,0,1:0:0:0:
222,347,54863,2,0,P|183:330|165:294,1,63.7500024318696,2|0,1:2|1:0,0:0:0:0:
90,217,55179,6,0,P|100:160|105:88,1,127.500004863739,6|2,1:2|0:2,0:0:0:0:
257,18,55652,2,0,P|260:58|264:97,1,63.7500024318696,2|0,1:2|0:0,0:0:0:0:
352,138,55968,2,0,P|349:178|345:217,1,63.7500024318696,2|0,1:2|0:0,0:0:0:0:
208,285,56284,2,0,B|306:278|237:243|346:233,1,127.500004863739,10|0,0:2|1:0,0:0:0:0:
457,338,56757,2,0,P|398:323|368:318,1,63.7500024318696,8|0,0:0|0:0,0:0:0:0:
324,193,57073,1,0,1:0:0:0:
405,213,57231,1,0,1:0:0:0:
346,101,57389,1,10,0:2:0:0:
266,121,57547,1,8,0:0:0:0:
266,121,57626,1,8,0:0:0:0:
266,121,57705,6,0,P|197:106|149:57,1,127.500004863739,6|2,1:2|0:2,0:0:0:0:
118,160,58178,2,0,P|72:152|43:135,1,63.7500024318696,2|0,1:2|0:0,0:0:0:0:
132,266,58494,2,0,P|97:280|61:279,1,63.7500024318696,2|0,1:2|0:0,0:0:0:0:
207,181,58810,2,0,P|269:160|342:173,1,127.500004863739,10|0,0:2|1:0,0:0:0:0:
383,278,59283,2,0,P|374:313|362:348,1,63.7500024318696,10|0,0:2|0:0,0:0:0:0:
256,180,59599,2,0,P|265:215|277:250,1,63.7500024318696,2|0,1:2|1:0,0:0:0:0:
417,91,59915,2,0,P|408:126|396:161,1,63.7500024318696,2|0,1:2|1:0,0:0:0:0:
263,42,60231,6,0,P|209:22|130:72,1,127.500004863739,6|2,1:2|0:2,0:0:0:0:
69,132,60704,2,0,P|82:190|93:282,1,127.500004863739,2|0,1:2|1:0,0:0:0:0:
227,290,61178,2,0,P|216:334|211:369,1,63.7500024318696,2|8,0:2|0:0,0:0:0:0:
291,208,61494,1,2,0:2:0:0:
291,208,61652,2,0,P|250:189|205:193,1,63.7500024318696,2|8,1:2|0:0,0:0:0:0:
120,281,61967,1,2,0:2:0:0:
237,263,62125,1,0,0:0:0:0:
98,171,62283,1,0,1:0:0:0:
204,188,62441,1,0,1:0:0:0:
73,249,62599,1,0,1:0:0:0:
147,108,62757,6,0,P|188:89|233:93,1,63.7500024318696,6|0,1:2|0:0,0:0:0:0:
293,151,63072,2,0,P|283:198|270:305,1,127.500004863739,2|0,0:2|0:0,0:0:0:0:
207,352,63546,1,0,1:0:0:0:
207,352,63704,2,0,P|161:346|135:317,1,63.7500024318696,2|8,0:2|0:0,0:0:0:0:
59,247,64020,2,0,P|105:241|131:212,1,63.7500024318696,2|0,0:2|1:0,0:0:0:0:
155,70,64335,6,0,P|141:146|127:215,1,127.500004863739,10|2,0:2|1:2,0:0:0:0:
45,72,64809,1,0,1:0:0:0:
45,72,64967,2,0,P|48:113|53:153,1,63.7500024318696,2|0,1:2|1:0,0:0:0:0:
177,194,65283,2,0,P|232:162|311:173,1,127.500004863739,6|2,1:2|0:2,0:0:0:0:
259,317,65756,2,0,P|220:313|190:294,1,63.7500024318696,2|0,1:2|0:0,0:0:0:0:
325,210,66072,2,0,P|364:214|394:233,1,63.7500024318696,2|0,1:2|0:0,0:0:0:0:
434,360,66388,2,0,P|425:283|416:213,1,127.500004863739,10|0,0:2|1:0,0:0:0:0:
333,112,66862,2,0,P|328:162|324:200,1,63.7500024318696,8|0,0:0|0:0,0:0:0:0:
230,247,67177,1,0,1:0:0:0:
135,266,67335,1,0,1:0:0:0:
221,163,67493,1,0,1:0:0:0:
126,182,67651,1,2,1:2:0:0:
45,63,67809,6,0,P|97:96|175:85,1,127.500004863739,6|0,1:2|0:0,0:0:0:0:
253,46,68282,2,0,P|306:12|368:16,1,127.500004863739,2|0,1:2|1:0,0:0:0:0:
419,94,68756,2,0,L|408:173,1,63.7500024318696,8|0,0:0|0:0,0:0:0:0:
317,220,69072,6,0,L|331:356,1,127.500004863739,6|2,1:2|0:2,0:0:0:0:
210,384,69545,2,0,L|223:257,1,127.500004863739,10|0,0:2|1:0,0:0:0:0:
101,161,70019,1,10,0:2:0:0:
168,292,70177,1,2,1:2:0:0:
238,151,70335,5,14,0:2:0:0:
238,151,70651,2,0,P|193:160|160:168,1,63.7500024318696,8|8,0:0|0:0,0:0:0:0:
326,247,70966,2,0,P|357:254|388:260,1,63.7500024318696,8|8,0:0|0:0,0:0:0:0:
192,264,71282,1,8,0:0:0:0:
322,142,71440,1,8,0:0:0:0:
202,313,71598,1,8,0:0:0:0:
136,113,71756,1,8,0:0:0:0:
358,308,71914,1,8,0:0:0:0:
70,232,72072,1,0,1:0:0:0:
70,232,72150,1,0,1:0:0:0:
70,232,72229,5,0,1:0:0:0:
286,33,72387,1,8,0:0:0:0:
286,33,72861,6,0,P|306:92|310:154,1,106.25,6|0,1:2|0:0,0:0:0:0:
414,317,73177,2,0,P|420:264|438:214,1,106.25,10|0,0:2|0:0,0:0:0:0:
507,100,73492,2,0,P|450:125|392:117,1,106.25,2|0,1:2|0:0,0:0:0:0:
252,2,73808,1,10,0:2:0:0:
436,45,73966,1,0,0:0:0:0:
173,148,74124,6,0,P|234:124|288:129,1,106.25,2|0,1:2|1:0,0:0:0:0:
467,307,74440,2,0,P|414:306|366:284,1,106.25,10|0,0:2|0:0,0:0:0:0:
231,146,74755,1,0,1:0:0:0:
270,316,74913,1,0,0:0:0:0:
384,65,75071,2,0,P|362:121|358:183,1,106.25,10|8,0:2|0:0,0:0:0:0:
406,268,75308,1,0,0:0:0:0:
406,268,75387,6,0,P|374:213|236:234,2,212.5,6|10|2,1:2|0:2|1:2,0:0:0:0:
307,354,76176,1,0,1:0:0:0:
140,283,76334,2,0,P|126:221|149:159,1,106.25,10|0,0:2|0:0,0:0:0:0:
336,99,76650,5,0,1:0:0:0:
240,262,76808,1,0,1:0:0:0:
120,71,76966,2,0,P|187:73|228:119,1,106.25,10|8,0:2|0:0,0:0:0:0:
245,136,77203,1,8,0:0:0:0:
245,136,77281,2,0,P|291:170|352:158,1,106.25,2|0,1:2|0:0,0:0:0:0:
470,22,77597,2,0,P|455:77|448:149,1,106.25,10|0,0:2|0:0,0:0:0:0:
314,85,77913,5,4,1:0:0:0:
373,295,78071,1,0,0:0:0:0:
290,108,78229,2,0,P|250:94|189:114,1,106.25,10|0,0:2|0:0,0:0:0:0:
74,293,78545,2,0,P|114:307|175:287,1,106.25,2|0,1:2|0:0,0:0:0:0:
94,95,78860,2,0,P|109:158|120:208,1,106.25,10|0,0:2|0:0,0:0:0:0:
279,98,79176,5,2,1:2:0:0:
209,286,79334,1,0,0:0:0:0:
318,88,79492,1,8,0:0:0:0:
127,152,79650,1,0,0:0:0:0:
362,198,79808,1,0,1:0:0:0:
234,22,79965,1,0,1:0:0:0:
272,243,80123,1,8,0:0:0:0:
431,89,80281,1,8,0:0:0:0:
431,89,80360,1,8,0:0:0:0:
431,89,80439,6,0,P|417:149|410:232,1,106.25,6|2,1:2|0:2,0:0:0:0:
307,54,80755,1,10,0:2:0:0:
203,195,80913,2,0,P|217:255|224:338,1,106.25,2|0,0:2|1:0,0:0:0:0:
104,150,81228,2,0,P|128:109|220:101,1,106.25,2|8,1:2|0:0,0:0:0:0:
313,212,81544,1,10,0:2:0:0:
77,167,81702,5,0,1:0:0:0:
329,134,81860,1,0,1:0:0:0:
74,274,82018,1,10,0:2:0:0:
336,332,82176,1,0,1:0:0:0:
208,117,82334,1,10,0:2:0:0:
208,117,82413,1,8,0:0:0:0:
208,117,82491,2,0,L|215:185,1,53.125,8|8,0:0|0:0,0:0:0:0:
205,326,82649,1,10,0:2:0:0:
205,326,82728,1,8,0:0:0:0:
205,326,82807,2,0,L|212:258,1,53.125,8|8,0:0|0:0,0:0:0:0:
317,132,82965,6,0,P|368:108|440:125,1,106.25,6|0,1:2|1:0,0:0:0:0:
420,303,83281,2,0,P|367:307|320:283,1,106.25,10|0,0:2|0:0,0:0:0:0:
193,92,83597,1,2,1:2:0:0:
376,196,83754,1,0,1:0:0:0:
196,325,83912,2,0,P|179:253|196:201,1,106.25,10|0,0:2|0:0,0:0:0:0:
389,105,84228,6,0,P|353:141|288:146,1,106.25,2|0,1:2|0:0,0:0:0:0:
118,31,84544,2,0,P|169:38|206:75,1,106.25,10|0,0:2|0:0,0:0:0:0:
128,253,84860,1,0,1:0:0:0:
94,118,85018,1,0,1:0:0:0:
252,271,85175,2,0,P|261:203|271:145,1,106.25,10|8,0:2|0:0,0:0:0:0:
300,128,85412,1,0,0:0:0:0:
300,128,85491,6,0,B|420:163|372:80|516:116,2,212.5,6|10|2,1:2|0:2|1:2,0:0:0:0:
445,209,86281,1,0,0:0:0:0:
292,25,86438,2,0,P|239:25|189:44,1,106.25,10|0,0:2|0:0,0:0:0:0:
165,249,86754,5,0,1:0:0:0:
272,120,86912,1,0,1:0:0:0:
105,32,87070,2,0,P|116:98|122:152,1,106.25,10|8,0:2|0:0,0:0:0:0:
144,175,87307,1,8,0:0:0:0:
144,175,87386,2,0,P|133:241|127:295,1,106.25,2|0,1:2|1:0,0:0:0:0:
332,177,87701,2,0,P|295:140|227:136,1,106.25,10|0,0:2|0:0,0:0:0:0:
357,355,88017,5,4,1:0:0:0:
451,239,88175,1,0,1:0:0:0:
238,224,88333,2,0,P|255:288|267:344,1,106.25,10|0,0:2|0:0,0:0:0:0:
463,93,88649,2,0,P|446:157|434:213,1,106.25,2|0,1:2|0:0,0:0:0:0:
269,71,88964,2,0,P|203:42|143:59,1,106.25,10|0,0:2|0:0,0:0:0:0:
113,246,89280,5,2,1:2:0:0:
194,134,89438,1,0,1:0:0:0:
47,61,89596,2,0,P|60:127|68:176,1,106.25,10|0,0:2|0:0,0:0:0:0:
246,251,89912,1,0,1:0:0:0:
219,91,90070,1,0,1:0:0:0:
14,230,90227,2,0,P|63:260|115:249,1,106.25,8|0,0:0|1:0,0:0:0:0:
295,113,90543,5,14,0:2:0:0:
141,60,90701,1,2,1:2:0:0:
329,107,90859,1,2,1:2:0:0:
192,202,91017,5,10,0:2:0:0:
265,33,91175,1,2,1:2:0:0:
325,234,91333,1,2,1:2:0:0:
172,107,91491,5,10,0:2:0:0:
376,81,91648,1,2,1:2:0:0:
245,246,91806,1,2,1:2:0:0:
220,21,91964,5,10,0:2:0:0:
393,181,92122,1,2,1:2:0:0:
149,208,92280,1,2,1:2:0:0:
397,44,92438,5,10,0:2:0:0:
347,314,92596,1,8,0:0:0:0:
192,117,92754,2,0,P|126:97|60:222,1,212.5,10|4,0:2|1:0,0:0:0:0:
330,228,112646,6,0,L|340:146,3,63.7500024318696,8|0|10|0,0:0|1:0|0:2|0:0,0:0:0:0:
289,70,113278,6,0,P|209:49|152:46,1,127.500004863739,2|0,0:2|0:0,0:0:0:0:
90,91,113751,2,0,P|153:84|214:66,1,127.500004863739,2|0,0:2|0:0,0:0:0:0:
333,12,114225,2,0,P|323:69|306:167,1,127.500004863739,2|0,0:2|0:0,0:0:0:0:
217,189,114699,2,0,P|227:246|244:344,1,127.500004863739,2|0,0:2|0:0,0:0:0:0:
326,235,115172,2,0,P|367:221|409:223,1,63.7500024318696,2|0,0:2|0:0,0:0:0:0:
240,347,115488,2,0,P|208:343|178:332,1,63.7500024318696,2|8,0:2|0:0,0:0:0:0:
37,193,115804,5,6,1:2:0:0:
94,341,115962,2,0,P|101:296|112:250,1,85,0|8,0:0|0:0,0:0:0:0:
271,134,116277,2,0,P|251:186|133:176,1,170,2|0,1:2|1:0,0:0:0:0:
102,102,116751,2,0,P|113:185|128:301,1,170,10|0,0:2|0:0,0:0:0:0:
209,375,117225,2,0,P|219:290|231:206,1,170,2|0,1:2|0:0,0:0:0:0:
282,97,117698,2,0,P|320:72|380:76,1,85,2|0,1:2|1:0,0:0:0:0:
354,236,118014,2,0,P|312:232|277:208,1,85,10|8,0:2|0:0,0:0:0:0:
128,54,118330,6,0,P|195:50|228:162,1,170,6|8,1:2|0:0,0:0:0:0:
101,231,118803,2,0,P|117:171|234:178,1,170,2|0,1:2|1:0,0:0:0:0:
297,286,119277,2,0,P|222:267|116:259,1,170,2|0,0:2|0:0,0:0:0:0:
25,334,119751,2,0,B|138:340|60:285|210:290,1,170,2|0,1:2|0:0,0:0:0:0:
295,368,120224,2,0,P|280:305|284:261,1,85,2|0,1:2|1:0,0:0:0:0:
415,212,120540,2,0,P|412:254|400:294,1,85,2|0,0:2|0:0,0:0:0:0:
323,178,120856,6,0,P|354:120|471:126,1,170,6|8,1:2|0:0,0:0:0:0:
399,259,121329,2,0,P|344:224|239:225,1,170,2|2,1:2|1:2,0:0:0:0:
152,348,121803,2,0,P|142:285|133:243,1,85,2|8,0:2|0:0,0:0:0:0:
31,143,122119,1,2,0:2:0:0:
31,143,122277,2,0,P|22:184|16:226,1,85,2|10,1:2|0:2,0:0:0:0:
188,112,122593,1,2,0:2:0:0:
41,71,122750,1,0,1:0:0:0:
211,158,122908,1,0,1:0:0:0:
43,201,123066,1,8,0:0:0:0:
137,52,123224,1,0,0:0:0:0:
261,187,123382,6,0,P|280:273|296:373,1,170,6|8,1:2|0:0,0:0:0:0:
353,136,123856,2,0,P|334:222|318:322,1,170,2|0,1:2|1:0,0:0:0:0:
266,106,124329,2,0,P|200:59|99:115,1,170,2|0,0:2|0:0,0:0:0:0:
39,178,124803,2,0,P|108:167|161:158,1,85,2|8,1:2|0:0,0:0:0:0:
328,239,125119,1,2,1:2:0:0:
328,239,125197,1,2,1:2:0:0:
328,239,125276,5,14,0:2:0:0:
102,120,125513,5,14,0:2:0:0:
332,6,125750,5,14,0:2:0:0:
231,100,125908,6,0,P|252:189|259:277,1,170,6|8,1:2|0:0,0:0:0:0:
371,182,126382,2,0,P|350:271|343:359,1,170,2|0,1:2|1:0,0:0:0:0:
205,370,126855,2,0,P|139:349|132:228,1,170,2|0,0:2|0:0,0:0:0:0:
306,200,127329,2,0,P|291:267|183:260,1,170,2|0,1:2|0:0,0:0:0:0:
136,102,127802,2,0,P|153:149|165:204,1,85,2|0,1:2|1:0,0:0:0:0:
352,39,128118,2,0,P|335:86|323:141,1,85,10|8,0:2|0:0,0:0:0:0:
203,37,128434,6,0,P|226:106|250:233,1,170,6|8,1:2|0:0,0:0:0:0:
134,301,128908,2,0,P|145:227|232:247,1,170,2|0,1:2|1:0,0:0:0:0:
385,330,129381,2,0,B|271:326|350:278|213:274,1,170,2|0,0:2|0:0,0:0:0:0:
117,146,129855,2,0,P|214:182|294:182,1,170,2|0,1:2|0:0,0:0:0:0:
420,92,130329,2,0,P|376:75|325:75,1,85,2|0,1:2|1:0,0:0:0:0:
340,261,130644,2,0,P|382:258|421:242,1,85,10|8,0:2|0:0,0:0:0:0:
245,134,130960,6,0,P|217:208|205:328,1,170,6|8,1:2|0:0,0:0:0:0:
131,85,131434,2,0,P|159:159|171:279,1,170,2|0,1:2|1:0,0:0:0:0:
322,135,131907,2,0,P|289:105|238:106,1,85,2|8,0:2|0:0,0:0:0:0:
128,198,132223,1,2,0:2:0:0:
128,198,132381,2,0,P|86:193|56:164,1,85,2|8,1:2|0:0,0:0:0:0:
188,54,132697,1,2,1:2:0:0:
226,258,132855,1,2,1:2:0:0:
107,93,133012,1,2,1:2:0:0:
174,331,133170,1,2,0:2:0:0:
226,185,133328,1,10,0:2:0:0:
91,286,133486,6,0,P|50:269|13:260,1,63.7500024318696,6|0,1:2|0:0,0:0:0:0:
8,137,133802,2,0,P|64:120|155:115,1,127.500004863739,10|0,0:2|0:0,0:0:0:0:
202,196,134275,1,0,1:0:0:0:
202,196,134433,2,0,P|244:207|282:212,1,63.7500024318696,2|8,0:2|0:0,0:0:0:0:
372,163,134749,2,0,P|384:120|381:88,1,63.7500024318696,2|0,0:2|1:0,0:0:0:0:
282,223,135065,2,0,P|297:286|312:369,1,127.500004863739,10|10,0:2|0:2,0:0:0:0:
424,230,135539,1,8,0:0:0:0:
424,230,135696,2,0,P|415:270|407:310,1,63.7500024318696,2|0,1:2|1:0,0:0:0:0:
338,166,136012,6,0,P|286:140|209:164,1,127.500004863739,6|2,1:2|0:2,0:0:0:0:
141,238,136486,2,0,P|105:257|69:256,1,63.7500024318696,2|0,1:2|0:0,0:0:0:0:
279,342,136802,2,0,P|243:323|207:324,1,63.7500024318696,2|8,1:2|0:0,0:0:0:0:
337,190,137117,2,0,P|344:251|417:286,1,127.500004863739,10|0,0:2|1:0,0:0:0:0:
422,133,137591,2,0,P|396:106|353:100,1,63.7500024318696,8|0,0:0|0:0,0:0:0:0:
221,165,137907,1,0,1:0:0:0:
273,90,138065,1,0,1:0:0:0:
335,201,138222,1,2,1:2:0:0:
335,201,138380,1,0,1:0:0:0:
173,145,138538,6,0,P|184:204|196:301,1,127.500004863739,6|2,1:2|0:2,0:0:0:0:
289,93,139012,2,0,P|276:142|269:184,1,63.7500024318696,2|0,1:2|0:0,0:0:0:0:
380,51,139328,2,0,P|393:100|400:142,1,63.7500024318696,2|0,1:2|0:0,0:0:0:0:
446,300,139643,2,0,P|458:245|482:155,1,127.500004863739,10|0,0:2|1:0,0:0:0:0:
461,43,140117,2,0,P|426:61|396:64,1,63.7500024318696,10|0,0:2|0:0,0:0:0:0:
256,110,140433,2,0,P|287:115|314:131,1,63.7500024318696,2|0,1:2|1:0,0:0:0:0:
411,260,140748,2,0,P|404:212|400:184,1,63.7500024318696,10|8,0:2|0:0,0:0:0:0:
248,43,141064,6,0,P|233:101|217:182,1,127.500004863739,6|2,1:2|0:2,0:0:0:0:
133,323,141538,2,0,P|120:260|104:198,1,127.500004863739,2|0,1:2|1:0,0:0:0:0:
60,62,142012,2,0,P|97:81|126:87,1,63.7500024318696,2|8,0:2|0:0,0:0:0:0:
202,210,142327,1,2,0:2:0:0:
202,210,142485,2,0,P|239:191|268:185,1,63.7500024318696,2|0,1:2|0:0,0:0:0:0:
333,104,142801,1,2,0:2:0:0:
364,235,142959,1,0,1:0:0:0:
294,101,143117,1,0,1:0:0:0:
409,161,143275,1,0,1:0:0:0:
283,197,143432,1,0,1:0:0:0:
381,71,143590,6,0,P|425:53|469:57,1,63.7500024318696,6|0,1:2|0:0,0:0:0:0:
364,235,143906,2,0,P|317:228|259:149,1,127.500004863739,2|0,0:2|0:0,0:0:0:0:
153,67,144380,1,0,1:0:0:0:
153,67,144538,2,0,P|158:114|160:156,1,63.7500024318696,2|8,0:2|0:0,0:0:0:0:
60,292,144853,2,0,P|62:260|66:228,1,63.7500024318696,2|0,0:2|1:0,0:0:0:0:
222,272,145169,2,0,P|200:319|109:314,1,127.500004863739,10|2,0:2|1:2,0:0:0:0:
169,171,145643,1,0,1:0:0:0:
295,236,145801,1,2,1:2:0:0:
187,274,145958,1,0,1:0:0:0:
300,153,146116,6,0,P|341:141|436:133,1,127.500004863739,6|2,1:2|0:2,0:0:0:0:
359,257,146590,2,0,P|410:259|445:270,1,63.7500024318696,2|0,1:2|0:0,0:0:0:0:
266,336,146906,2,0,P|303:346|342:368,1,63.7500024318696,2|0,1:2|0:0,0:0:0:0:
130,242,147221,2,0,P|150:304|169:380,1,127.500004863739,10|0,0:2|1:0,0:0:0:0:
288,165,147695,2,0,P|269:213|257:252,1,63.7500024318696,8|0,0:0|0:0,0:0:0:0:
137,72,148011,2,0,P|156:120|168:159,1,63.7500024318696,0|0,1:0|1:0,0:0:0:0:
261,22,148327,1,0,1:0:0:0:
261,22,148485,1,2,1:2:0:0:
192,234,148642,6,0,P|129:262|41:260,1,127.500004863739,6|0,1:2|0:0,0:0:0:0:
282,122,149116,2,0,P|295:192|310:272,1,127.500004863739,2|0,1:2|1:0,0:0:0:0:
433,77,149590,2,0,L|418:155,1,63.7500024318696,8|10,0:0|0:2,0:0:0:0:
261,42,149905,6,0,P|206:16|119:43,1,127.500004863739,2|2,1:2|0:2,0:0:0:0:
33,197,150379,2,0,P|88:171|175:198,1,127.500004863739,10|0,0:2|1:0,0:0:0:0:
242,278,150853,2,0,L|256:353,1,63.7500024318696,2|2,1:2|1:2,0:0:0:0:
365,202,151168,5,14,0:2:0:0:
365,202,151484,2,0,L|287:181,1,63.7500024318696,8|8,0:0|0:0,0:0:0:0:
163,89,151800,2,0,L|241:68,1,63.7500024318696,8|8,0:0|0:0,0:0:0:0:
407,137,152116,1,8,0:0:0:0:
188,118,152274,1,8,0:0:0:0:
381,249,152431,1,8,0:0:0:0:
127,180,152589,1,8,0:0:0:0:
330,105,152747,1,8,0:0:0:0:
219,300,152905,1,0,1:0:0:0:
219,300,152984,1,0,1:0:0:0:
219,300,153063,5,0,1:0:0:0:
151,32,153221,1,8,0:0:0:0:
151,32,153694,6,0,P|224:41|249:81,1,106.25,6|0,1:2|0:0,0:0:0:0:
386,235,154010,2,0,P|313:226|288:186,1,106.25,10|0,0:2|0:0,0:0:0:0:
375,39,154326,2,0,P|356:109|352:166,1,106.25,2|0,1:2|0:0,0:0:0:0:
139,70,154642,1,10,0:2:0:0:
325,23,154800,1,0,0:0:0:0:
174,154,154958,6,0,P|112:174|64:173,1,106.25,2|0,1:2|1:0,0:0:0:0:
274,245,155273,2,0,P|326:246|376:265,1,106.25,10|0,0:2|0:0,0:0:0:0:
127,213,155589,1,0,1:0:0:0:
180,369,155747,1,0,0:0:0:0:
296,121,155905,2,0,P|275:192|270:261,1,106.25,10|8,0:2|0:0,0:0:0:0:
341,336,156142,1,8,0:0:0:0:
341,336,156221,6,0,P|420:344|436:202,2,212.5,6|10|2,1:2|0:2|1:2,0:0:0:0:
247,194,157010,1,0,1:0:0:0:
141,332,157168,2,0,P|82:333|41:294,1,106.25,10|0,0:2|0:0,0:0:0:0:
105,92,157484,5,0,1:0:0:0:
157,250,157641,1,0,1:0:0:0:
161,40,157799,2,0,P|140:110|134:168,1,106.25,10|8,0:2|0:2,0:0:0:0:
73,197,158036,1,8,0:0:0:0:
73,197,158115,2,0,P|94:267|100:325,1,106.25,2|0,1:2|0:0,0:0:0:0:
322,213,158431,2,0,P|273:181|203:193,1,106.25,10|0,0:2|0:0,0:0:0:0:
380,342,158747,5,4,1:0:0:0:
441,180,158904,1,0,0:0:0:0:
274,310,159062,2,0,P|214:341|161:326,1,106.25,10|0,0:2|0:0,0:0:0:0:
19,154,159378,2,0,P|71:150|115:179,1,106.25,2|0,1:2|0:0,0:0:0:0:
62,361,159694,2,0,P|58:292|53:237,1,106.25,10|0,0:2|0:0,0:0:0:0:
242,119,160010,5,2,1:2:0:0:
176,295,160167,1,0,0:0:0:0:
96,81,160325,1,8,0:0:0:0:
284,202,160483,1,0,0:0:0:0:
79,125,160641,1,0,1:0:0:0:
289,53,160799,1,0,1:0:0:0:
205,247,160957,1,8,0:0:0:0:
156,26,161115,1,8,0:0:0:0:
156,26,161194,1,8,0:0:0:0:
156,26,161273,6,0,P|166:94|179:168,1,106.25,6|2,1:2|0:2,0:0:0:0:
293,275,161588,1,10,0:2:0:0:
306,27,161746,2,0,P|296:95|283:169,1,106.25,2|2,0:2|1:2,0:0:0:0:
108,253,162062,2,0,P|161:216|224:217,1,106.25,2|8,1:2|0:0,0:0:0:0:
351,331,162378,1,10,0:2:0:0:
215,233,162536,5,0,1:0:0:0:
426,197,162694,1,0,1:0:0:0:
228,318,162851,1,10,0:2:0:0:
443,360,163009,1,0,1:0:0:0:
318,146,163167,1,10,0:2:0:0:
318,146,163246,1,8,0:0:0:0:
318,146,163325,2,0,L|325:212,1,53.125,8|8,0:0|0:0,0:0:0:0:
224,356,163483,1,10,0:2:0:0:
224,356,163562,1,8,0:0:0:0:
224,356,163641,2,0,L|231:290,1,53.125,8|8,0:0|0:0,0:0:0:0:
185,142,163799,6,0,P|134:109|71:124,1,106.25,6|0,1:2|0:0,0:0:0:0:
267,318,164114,2,0,P|319:319|361:288,1,106.25,10|0,0:2|0:0,0:0:0:0:
313,84,164430,2,0,P|298:161|289:233,1,106.25,2|0,1:2|0:0,0:0:0:0:
93,75,164746,1,10,0:2:0:0:
156,267,164904,1,0,0:0:0:0:
261,69,165062,6,0,P|306:29|378:42,1,106.25,2|0,1:2|0:0,0:0:0:0:
444,257,165377,2,0,P|392:252|355:215,1,106.25,10|0,0:2|0:0,0:0:0:0:
486,48,165693,1,0,1:0:0:0:
447,215,165851,1,0,1:0:0:0:
242,59,166009,2,0,P|258:138|268:197,1,106.25,10|8,0:2|0:0,0:0:0:0:
195,286,166246,1,8,0:0:0:0:
195,286,166325,6,0,P|156:336|27:297,2,212.5,6|10|2,1:2|0:2|1:2,0:0:0:0:
70,160,167114,1,0,0:0:0:0:
236,43,167272,2,0,P|226:111|217:181,1,106.25,10|0,0:2|0:0,0:0:0:0:
106,86,167588,5,0,1:0:0:0:
172,297,167746,1,0,1:0:0:0:
33,137,167904,1,10,0:2:0:0:
233,217,168061,1,8,0:0:0:0:
233,217,168140,1,8,0:0:0:0:
233,217,168219,2,0,P|286:209|357:200,1,106.25,2|0,1:2|1:0,0:0:0:0:
169,362,168535,2,0,P|116:355|63:347,1,106.25,10|0,0:2|0:0,0:0:0:0:
239,136,168851,5,4,1:0:0:0:
286,322,169009,1,0,1:0:0:0:
127,176,169167,2,0,P|125:109|158:61,1,106.25,10|0,0:2|0:0,0:0:0:0:
316,237,169482,2,0,P|318:304|285:352,1,106.25,2|0,1:2|0:0,0:0:0:0:
241,106,169798,2,0,P|289:80|373:102,1,106.25,10|0,0:2|0:0,0:0:0:0:
146,306,170114,5,0,1:0:0:0:
95,141,170272,1,0,1:0:0:0:
263,260,170430,2,0,P|254:328|248:377,1,106.25,10|0,0:2|0:0,0:0:0:0:
65,193,170745,1,0,1:0:0:0:
291,114,170903,1,2,1:2:0:0:
154,275,171061,1,10,0:2:0:0:
113,81,171219,1,2,1:2:0:0:
298,270,171377,6,0,P|366:254|424:243,1,106.25,14|0,0:2|1:2,0:0:0:0:
190,160,171693,1,2,1:2:0:0:
344,100,171850,2,0,P|412:116|470:127,1,106.25,10|0,0:2|1:2,0:0:0:0:
221,210,172166,1,0,1:2:0:0:
241,19,172324,2,0,P|256:89|271:155,1,106.25,10|0,0:2|1:2,0:0:0:0:
378,256,172640,1,0,1:2:0:0:
392,46,172798,2,0,P|377:116|362:182,1,106.25,10|0,0:2|1:2,0:0:0:0:
224,305,173114,1,0,1:2:0:0:
119,120,173271,5,10,0:2:0:0:
119,120,173350,1,8,0:0:0:0:
119,120,173429,2,0,L|62:111,1,53.125,8|0,0:0|0:0,0:0:0:0:
174,237,173587,1,8,0:0:0:0:
174,237,173666,1,8,0:0:0:0:
174,237,173745,2,0,L|231:228,1,53.125,8|0,0:0|0:0,0:0:0:0:
306,105,173903,6,0,P|381:123|428:130,1,106.25,0|0,1:0|0:0,0:0:0:0:
468,203,174140,1,0,1:0:0:0:
468,203,174219,2,0,P|421:212|388:221,1,53.125,8|0,0:0|0:0,0:0:0:0:
335,294,174377,2,0,P|260:276|213:269,1,106.25,0|0,1:0|0:0,0:0:0:0:
173,196,174614,1,0,1:0:0:0:
173,196,174693,2,0,P|220:187|253:178,1,53.125,8|0,0:0|0:0,0:0:0:0:
318,144,174850,2,0,P|307:78|299:13,1,106.25,0|0,1:0|0:0,0:0:0:0:
220,18,175087,1,0,1:0:0:0:
220,18,175166,6,0,L|160:34,1,53.125,8|0,0:0|0:0,0:0:0:0:
338,122,175324,2,0,L|398:138,1,53.125,8|0,0:0|0:0,0:0:0:0:
200,228,175482,1,8,0:0:0:0:
200,228,175561,2,0,P|143:239|70:254,1,106.25,8|8,0:0|0:0,0:0:0:0:
52,328,175797,1,0,1:0:0:0:
52,328,175876,1,0,1:0:0:0:
52,328,175955,1,0,1:0:0:0:
52,328,176034,1,0,1:0:0:0:
52,328,176113,2,0,L|39:256,1,53.125,0|0,1:0|0:0,0:0:0:0:
53,105,176271,6,0,B|183:125|99:190|247:203,1,212.5,0|0,1:0|1:0,0:0:0:0:
312,285,176745,2,0,P|379:268|449:264,1,106.25,8|0,0:0|0:0,0:0:0:0:
501,73,177060,2,0,P|424:60|356:186,1,212.5,0|8,0:0|0:0,0:0:0:0:
369,186,178008,5,8,0:0:0:0:
391,208,178639,5,8,0:0:0:0:
306,332,178797,6,0,B|176:306|285:280|130:256,1,170,0|0,1:0|1:0,0:0:0:0:
24,352,179271,2,0,P|84:346|121:329,1,85,8|0,0:0|0:0,0:0:0:0:
202,182,179587,2,0,P|128:171|72:270,1,170,0|8,0:0|0:0,0:0:0:0:
326,373,180218,6,0,P|305:303|302:188,1,170,0|8,0:0|0:0,0:0:0:0:
223,156,180692,2,0,P|237:105|237:55,1,85
161,9,181007,2,0,P|110:8|69:54,1,85,0|8,0:0|0:0,0:0:0:0:
108,174,181323,6,0,P|198:192|282:227,1,170,0|0,1:0|1:0,0:0:0:0:
427,119,181797,2,0,P|372:137|330:137,1,85,8|0,0:0|0:0,0:0:0:0:
221,51,182113,2,0,P|258:115|278:248,1,170,0|8,0:0|0:0,0:0:0:0:
264,224,183060,5,8,0:0:0:0:
276,240,183692,5,8,0:0:0:0:
138,318,183849,6,0,P|213:315|316:379,1,170,0|0,1:0|1:0,0:0:0:0:
464,251,184323,2,0,P|418:257|382:286,1,85,8|0,0:0|0:0,0:0:0:0:
256,141,184639,2,0,P|279:216|299:340,1,170,0|8,0:0|0:0,0:0:0:0:
356,53,185270,6,0,P|325:128|304:241,1,170,0|8,0:0|0:0,0:0:0:0:
229,76,185744,2,0,P|182:50|137:58,1,85,0|0,0:0|1:0,0:0:0:0:
156,226,186060,2,0,P|197:225|232:201,1,85,0|8,1:0|0:0,0:0:0:0:
45,142,186375,6,0,P|68:228|98:369,1,203.999993774414,4|0,1:0|1:0,0:0:0:0:
225,102,186849,1,8,0:0:0:0:
303,270,187007,1,0,1:0:0:0:
303,270,187086,1,0,1:0:0:0:
303,270,187165,1,0,0:0:0:0:
137,162,187323,1,8,0:0:0:0:
110,348,187480,1,0,1:0:0:0:
110,348,187559,1,0,1:0:0:0:
110,348,187638,1,0,1:0:0:0:
302,154,187796,5,8,0:0:0:0:
103,256,187954,1,0,0:0:0:0:
103,256,188033,1,8,0:0:0:0:
103,256,188112,1,0,1:0:0:0:
212,96,188270,1,0,1:0:0:0:
212,96,188349,1,0,1:0:0:0:
212,96,188428,1,8,0:0:0:0:
310,296,188586,1,8,0:0:0:0:
105,176,188743,1,0,1:0:0:0:
330,47,188901,6,0,P|413:37|468:169,1,203.999993774414,4|0,1:0|1:0,0:0:0:0:
315,328,189375,2,0,P|266:301|245:230,1,101.999996887207,12|0,0:0|1:0,0:0:0:0:
208,122,189691,1,0,1:0:0:0:
378,132,189849,2,0,P|357:192|312:214,1,101.999996887207,12|0,0:0|1:0,0:0:0:0:
150,234,190164,1,0,1:0:0:0:
198,57,190322,6,0,P|249:70|277:120,1,101.999996887207,12|0,0:0|1:0,0:0:0:0:
291,256,190638,1,0,1:0:0:0:
72,176,190796,2,0,P|114:140|173:141,1,101.999996887207,12|0,0:0|1:0,0:0:0:0:
305,339,191112,2,0,P|255:333|218:299,1,101.999996887207,14|8,0:2|0:0,0:0:0:0:
376,131,191427,6,0,P|401:238|430:368,1,203.999993774414,6|0,1:2|1:0,0:0:0:0:
210,109,191901,1,8,0:0:0:0:
421,186,192059,1,0,1:0:0:0:
421,186,192138,1,0,1:0:0:0:
421,186,192217,1,0,1:0:0:0:
262,31,192375,1,10,0:2:0:0:
302,221,192533,1,0,1:0:0:0:
302,221,192611,1,0,1:0:0:0:
302,221,192690,1,2,1:2:0:0:
302,221,192769,1,0,1:0:0:0:
302,221,192848,6,0,L|292:290,3,50.9999984436036,0|0|0|0,1:0|1:0|1:0|1:0,0:0:0:0:
160,157,193164,2,0,L|150:88,3,50.9999984436036,0|0|0|0,1:0|1:0|1:0|1:0,0:0:0:0:
140,285,193480,2,0,L|79:298,1,50.9999984436036,0|0,1:0|1:0,0:0:0:0:
259,121,193638,2,0,L|308:131,1,50.9999984436036,2|0,1:2|1:0,0:0:0:0:
139,307,193796,2,0,L|78:320,1,50.9999984436036,0|0,1:0|1:0,0:0:0:0:
53,137,193953,6,0,B|198:146|104:208|256:219,1,203.999993774414,6|0,1:2|1:0,0:0:0:0:
357,40,194427,2,0,P|346:101|337:161,1,101.999996887207,12|0,0:0|1:0,0:0:0:0:
424,310,194743,1,0,1:0:0:0:
147,64,194901,2,0,P|158:125|167:185,1,101.999996887207,8|4,0:0|1:0,0:0:0:0:
80,334,195217,1,0,1:0:0:0:
338,107,195374,6,0,P|327:168|318:228,1,101.999996887207,12|0,0:0|1:0,0:0:0:0:
405,377,195690,1,0,1:0:0:0:
177,174,195848,2,0,P|129:152|65:161,1,101.999996887207,8|0,0:0|1:0,0:0:0:0:
257,331,196164,1,8,0:0:0:0:
365,141,196322,1,8,0:0:0:0:
84,186,196479,6,0,P|106:258|131:394,1,203.999993774414,6|0,1:2|1:0,0:0:0:0:
283,111,196953,2,0,P|266:180|257:237,1,101.999996887207,12|0,0:0|0:0,0:0:0:0:
146,36,197269,1,2,1:2:0:0:
168,228,197427,1,0,0:0:0:0:
112,44,197585,1,10,0:2:0:0:
293,214,197742,6,0,P|367:249|462:170,1,203.999993774414,6|0,1:2|1:0,0:0:0:0:
366,28,198216,2,0,P|316:24|274:62,1,101.999996887207,12|0,0:0|0:0,0:0:0:0:
250,270,198532,1,2,1:2:0:0:
329,122,198690,1,0,0:0:0:0:
268,309,198848,1,8,0:0:0:0:
184,121,199006,6,0,P|122:92|37:212,1,203.999993774414,6|0,1:2|1:0,0:0:0:0:
210,252,199479,1,14,0:2:0:0:
102,384,199637,2,0,P|92:308|56:166,1,203.999993774414,2|0,0:2|1:0,0:0:0:0:
190,79,200111,1,10,0:2:0:0:
291,270,200269,6,0,P|341:301|393:291,1,101.999996887207,6|0,1:2|0:0,0:0:0:0:
409,97,200584,1,2,1:2:0:0:
240,163,200742,1,14,0:2:0:0:
431,254,200900,1,2,0:2:0:0:
303,79,201058,2,0,P|319:146|329:216,1,101.999996887207,0|0,1:0|1:0,0:0:0:0:
414,17,201374,1,8,0:0:0:0:
500,273,201532,6,0,P|444:244|296:233,1,203.999993774414,6|0,1:2|1:0,0:0:0:0:
172,365,202005,2,0,P|230:356|265:310,1,101.999996887207,12|0,0:0|0:0,0:0:0:0:
156,120,202321,1,2,1:2:0:0:
188,279,202479,1,0,1:0:0:0:
123,113,202637,1,10,0:2:0:0:
329,294,202795,6,0,P|337:212|375:69,1,203.999993774414,6|0,1:2|1:0,0:0:0:0:
244,11,203268,2,0,P|219:58|241:125,1,101.999996887207,12|0,0:0|0:0,0:0:0:0:
453,151,203584,1,2,1:2:0:0:
317,75,203742,1,0,1:0:0:0:
440,30,203900,1,10,0:2:0:0:
325,241,204058,6,0,B|191:222|286:158|130:137,1,203.999993774414,6|8,1:2|0:0,0:0:0:0:
61,251,204531,1,8,0:0:0:0:
153,64,204689,1,8,0:0:0:0:
193,282,204847,1,8,0:0:0:0:
79,124,205005,1,8,0:0:0:0:
138,341,205163,1,8,0:0:0:0:
238,167,205321,1,8,0:0:0:0:
353,325,205479,6,0,P|389:342|431:345,2,67.9999979248048,8|0|0,0:0|0:0|0:0,0:0:0:0:
236,217,205794,2,0,P|202:222|172:237,2,67.9999979248048,8|0|0,0:0|0:0|0:0,0:0:0:0:
407,136,206110,5,10,0:2:0:0:
283,37,206347,1,10,0:2:0:0:
154,126,206584,1,10,0:2:0:0:
231,186,206742,5,10,0:2:0:0:
355,285,206979,1,10,0:2:0:0:
484,196,207216,1,10,0:2:0:0:
459,197,208005,6,0,P|398:166|336:181,1,106.25,6|0,1:2|0:0,0:0:0:0:
260,289,208320,2,0,P|199:320|138:306,1,106.25,10|0,0:2|0:0,0:0:0:0:
52,118,208636,2,0,P|71:174|84:250,1,106.25,2|0,1:2|0:0,0:0:0:0:
269,53,208952,1,10,0:2:0:0:
213,231,209110,1,0,0:0:0:0:
119,50,209268,6,0,P|61:23|-5:42,1,106.25,2|0,1:2|1:0,0:0:0:0:
245,224,209583,2,0,P|297:227|343:202,1,106.25,10|0,0:2|0:0,0:0:0:0:
89,129,209899,1,0,1:0:0:0:
272,42,210057,1,0,0:0:0:0:
178,310,210215,2,0,P|170:249|155:174,1,106.25,10|8,0:2|0:0,0:0:0:0:
74,113,210452,1,8,0:0:0:0:
74,113,210531,6,0,P|118:180|241:141,2,212.5,6|10|2,1:2|0:2|1:2,0:0:0:0:
182,10,211320,1,0,1:0:0:0:
349,116,211478,2,0,P|340:181|333:253,1,106.25,10|0,0:2|0:0,0:0:0:0:
114,190,211794,5,0,1:0:0:0:
192,348,211952,1,0,1:0:0:0:
253,145,212109,2,0,P|201:114|132:132,1,106.25,10|8,0:2|0:0,0:0:0:0:
117,146,212346,1,8,0:0:0:0:
117,146,212425,2,0,P|65:177|-4:159,1,106.25,2|0,1:2|0:0,0:0:0:0:
232,248,212741,2,0,P|250:307|260:362,1,106.25,10|0,0:2|0:0,0:0:0:0:
390,116,213057,5,4,1:0:0:0:
350,287,213215,1,0,0:0:0:0:
282,90,213372,2,0,P|312:38|378:36,1,106.25,10|0,0:2|0:0,0:0:0:0:
436,246,213688,2,0,P|371:229|325:225,1,106.25,2|0,1:2|0:0,0:0:0:0:
126,352,214004,2,0,P|178:345|229:331,1,106.25,10|0,0:2|0:0,0:0:0:0:
301,125,214320,5,2,1:2:0:0:
112,166,214478,1,0,0:0:0:0:
310,262,214635,1,8,0:0:0:0:
129,140,214793,1,0,0:0:0:0:
204,319,214951,1,0,1:0:0:0:
268,86,215109,1,0,1:0:0:0:
91,222,215267,1,8,0:0:0:0:
170,16,215425,1,8,0:0:0:0:
170,16,215504,1,8,0:0:0:0:
170,16,215583,6,0,P|182:81|194:149,1,106.25,6|0,1:2|0:0,0:0:0:0:
124,279,215898,1,10,0:2:0:0:
338,86,216056,2,0,P|326:151|314:219,1,106.25,2|0,0:2|1:0,0:0:0:0:
170,363,216372,2,0,P|160:310|150:258,1,106.25,2|8,1:2|0:0,0:0:0:0:
70,107,216688,1,10,0:2:0:0:
254,265,216846,5,0,1:0:0:0:
48,215,217004,1,0,1:0:0:0:
288,120,217161,1,10,0:2:0:0:
97,301,217319,1,0,1:0:0:0:
185,61,217477,1,10,0:2:0:0:
185,61,217556,1,8,0:0:0:0:
185,61,217635,2,0,L|178:146,1,53.125,8|8,0:0|0:0,0:0:0:0:
270,248,217793,1,10,0:2:0:0:
270,248,217872,1,8,0:0:0:0:
270,248,217951,2,0,L|277:333,1,53.125,8|8,0:0|0:0,0:0:0:0:
420,136,218109,6,0,P|371:104|300:120,1,106.25,6|0,1:2|0:0,0:0:0:0:
173,322,218425,2,0,P|225:322|267:292,1,106.25,10|0,0:2|0:0,0:0:0:0:
150,90,218740,1,2,1:2:0:0:
196,242,218898,1,0,0:0:0:0:
279,23,219056,2,0,P|259:87|251:142,1,106.25,10|0,0:2|0:0,0:0:0:0:
371,324,219372,6,0,P|361:271|344:221,1,106.25,2|0,1:2|0:0,0:0:0:0:
104,198,219688,2,0,P|157:238|213:237,1,106.25,10|0,0:2|0:0,0:0:0:0:
341,74,220003,1,0,1:0:0:0:
182,151,220161,1,0,1:0:0:0:
323,321,220319,2,0,P|337:255|351:199,1,106.25,10|8,0:2|0:0,0:0:0:0:
369,126,220556,1,8,0:0:0:0:
369,126,220635,6,0,P|355:51|214:85,2,212.5,6|10|2,1:2|0:2|1:2,0:0:0:0:
266,246,221424,1,0,0:0:0:0:
160,111,221582,2,0,P|102:108|62:179,1,106.25,10|0,0:2|0:0,0:0:0:0:
246,332,221898,5,0,1:0:0:0:
307,120,222056,1,0,1:0:0:0:
112,218,222214,2,0,P|128:291|140:348,1,106.25,10|8,0:2|0:0,0:0:0:0:
170,350,222450,1,0,0:0:0:0:
170,350,222529,2,0,P|181:298|192:246,1,106.25,2|0,1:2|1:0,0:0:0:0:
305,98,222845,2,0,P|316:149|327:201,1,106.25,10|0,0:2|0:0,0:0:0:0:
145,91,223161,5,4,1:0:0:0:
318,20,223319,1,0,1:0:0:0:
170,195,223477,2,0,P|106:192|65:157,1,106.25,10|0,0:2|0:0,0:0:0:0:
291,105,223792,2,0,P|355:108|396:143,1,106.25,2|0,1:2|0:0,0:0:0:0:
271,341,224108,2,0,P|254:281|258:218,1,106.25,10|0,0:2|0:0,0:0:0:0:
428,88,224424,5,2,1:2:0:0:
341,296,224582,1,0,1:0:0:0:
239,58,224740,1,8,0:0:0:0:
361,246,224898,1,0,0:0:0:0:
124,149,225055,1,0,1:0:0:0:
332,69,225213,1,0,1:0:0:0:
230,263,225371,1,8,0:0:0:0:
145,56,225529,1,2,1:2:0:0:
145,56,225608,1,0,0:0:0:0:
145,56,225687,6,0,P|214:79|260:74,1,106.25,14|0,0:2|1:0,0:0:0:0:
400,25,226003,1,2,1:2:0:0:
188,194,226161,2,0,P|257:171|303:176,1,106.25,10|0,0:2|1:0,0:0:0:0:
433,336,226476,2,0,P|384:296|368:238,1,106.25,2|8,1:2|0:0,0:0:0:0:
407,86,226792,1,2,1:2:0:0:
278,253,226950,5,8,0:0:0:0:
469,157,227108,1,0,1:0:0:0:
288,340,227266,1,10,0:2:0:0:
298,90,227424,1,0,1:0:0:0:
372,283,227581,1,10,0:2:0:0:
372,283,227660,1,8,0:0:0:0:
372,283,227739,2,0,L|382:346,1,53.125,8|8,0:0|0:0,0:0:0:0:
223,158,227897,1,10,0:2:0:0:
223,158,227976,1,8,0:0:0:0:
223,158,228055,2,0,L|213:95,1,53.125,8|8,0:0|0:0,0:0:0:0:
95,251,228213,6,0,P|90:319|87:371,1,106.25,6|0,1:2|1:0,0:0:0:0:
317,139,228529,2,0,P|322:207|325:259,1,106.25,10|0,0:2|1:0,0:0:0:0:
142,81,228844,1,10,0:2:0:0:
195,231,229002,1,0,1:0:0:0:
374,82,229160,2,0,P|326:48|248:65,1,106.25,10|0,0:2|1:0,0:0:0:0:
50,156,229476,6,0,P|129:146|191:138,1,106.25,14|0,0:2|1:0,0:0:0:0:
430,267,229792,2,0,P|377:260|324:253,1,106.25,10|0,0:2|1:0,0:0:0:0:
151,187,230108,1,8,0:0:0:0:
330,156,230265,1,0,1:0:0:0:
139,289,230423,1,8,0:0:0:0:
341,308,230581,1,0,1:0:0:0:
211,58,230739,6,0,P|222:126|233:198,1,106.25,12|0,0:0|1:0,0:0:0:0:
100,327,231055,2,0,P|108:274|116:222,1,106.25,8|0,0:0|1:0,0:0:0:0:
351,154,231371,1,8,0:0:0:0:
216,277,231528,1,0,1:0:0:0:
233,91,231686,1,8,0:0:0:0:
343,256,231844,1,0,1:0:0:0:
167,132,232002,6,0,P|116:114|64:131,1,106.25,12|0,0:0|1:0,0:0:0:0:
260,287,232318,2,0,P|311:305|363:288,1,106.25,8|0,0:0|1:0,0:0:0:0:
114,208,232634,1,10,0:0:0:0:
300,141,232791,1,0,1:0:0:0:
170,319,232949,1,8,0:0:0:0:
144,102,233107,1,0,1:0:0:0:
332,322,233265,6,0,P|392:353|444:342,1,106.25,14|0,0:2|1:0,0:0:0:0:
421,106,233581,2,0,P|408:171|395:246,1,106.25,10|0,0:2|1:0,0:0:0:0:
179,63,233897,1,10,0:2:0:0:
352,14,234054,1,0,1:0:0:0:
150,102,234212,2,0,P|163:167|176:242,1,106.25,10|0,0:2|1:0,0:0:0:0:
408,280,234528,6,0,P|349:248|294:253,1,106.25,14|0,0:2|1:0,0:0:0:0:
106,364,234844,2,0,P|180:354|224:326,1,106.25,10|0,0:2|1:0,0:0:0:0:
285,163,235160,1,8,0:0:0:0:
115,237,235317,1,0,1:0:0:0:
306,320,235475,1,8,0:0:0:0:
169,138,235633,1,0,1:0:0:0:
196,369,235791,6,0,P|202:305|215:242,1,106.25,12|0,0:0|1:0,0:0:0:0:
74,55,236107,2,0,P|83:107|87:160,1,106.25,8|0,0:0|1:0,0:0:0:0:
234,90,236423,1,8,0:0:0:0:
115,264,236581,1,0,1:0:0:0:
315,172,236738,1,8,0:0:0:0:
127,102,236896,1,0,1:0:0:0:
300,278,237054,6,0,P|361:290|418:290,1,106.25,12|0,0:0|1:0,0:0:0:0:
210,78,237370,2,0,P|156:79|105:90,1,106.25,8|0,0:0|1:0,0:0:0:0:
56,228,237686,1,8,0:0:0:0:
56,228,237765,1,8,0:0:0:0:
56,228,237844,1,8,0:0:0:0:
56,228,237922,1,8,0:0:0:0:
56,228,238001,2,0,P|65:296|72:346,1,106.25,10|0,0:2|1:0,0:0:0:0:
315,119,238317,6,0,P|245:53|148:98,1,212.5,14|8,0:2|0:0,0:0:0:0:
208,226,238791,1,2,1:2:0:0:
208,226,238949,2,0,P|279:217|340:208,1,106.25,8|0,0:0|1:0,0:0:0:0:
140,331,239264,2,0,P|87:323|34:317,1,106.25,10|0,0:2|1:0,0:0:0:0:
92,76,239580,6,0,P|109:141|126:198,1,106.25,12|2,0:0|1:2,0:0:0:0:
249,366,239896,2,0,P|263:314|276:263,1,106.25,8|0,0:0|1:0,0:0:0:0:
219,62,240212,1,10,0:2:0:0:
372,208,240370,1,0,1:0:0:0:
171,144,240527,1,10,0:2:0:0:
351,67,240685,1,0,1:0:0:0:
237,238,240843,6,0,B|110:226|200:163|46:148,1,212.5,14|8,0:2|0:0,0:0:0:0:
262,42,241317,1,2,1:2:0:0:
262,42,241475,2,0,P|250:114|242:178,1,106.25,8|0,0:0|1:0,0:0:0:0:
121,343,241790,2,0,P|114:291|105:239,1,106.25,10|0,0:2|1:0,0:0:0:0:
31,62,242106,6,0,P|95:86|149:85,1,106.25,12|2,0:0|1:2,0:0:0:0:
358,185,242422,2,0,P|305:189|256:210,1,106.25,8|0,0:0|1:0,0:0:0:0:
92,319,242738,1,10,0:2:0:0:
202,134,242896,1,0,1:0:0:0:
186,351,243054,1,10,0:2:0:0:
62,171,243211,1,0,1:0:0:0:
273,318,243369,6,0,P|361:346|421:220,1,212.5,14|8,0:2|0:0,0:0:0:0:
381,117,243843,1,2,1:2:0:0:
381,117,244001,2,0,P|325:104|277:137,1,106.25,8|0,0:0|1:0,0:0:0:0:
165,283,244317,2,0,P|221:296|269:263,1,106.25,10|0,0:2|1:0,0:0:0:0:
191,72,244632,6,0,P|205:149|209:200,1,106.25,12|2,0:0|1:2,0:0:0:0:
363,351,244948,2,0,P|369:298|379:246,1,106.25,8|0,0:0|1:0,0:0:0:0:
231,321,245264,1,10,0:2:0:0:
319,107,245422,1,0,1:0:0:0:
208,298,245580,2,0,P|157:323|88:302,1,106.25,10|0,0:2|1:0,0:0:0:0:
145,64,245895,5,14,0:2:0:0:
365,122,246053,1,0,1:2:0:0:
134,247,246211,1,2,1:2:0:0:
375,223,246369,1,10,0:2:0:0:
401,242,246843,5,10,0:2:0:0:
97,280,247001,1,0,1:0:0:0:
400,107,247159,1,10,0:2:0:0:
100,54,247317,1,6,1:2:0:0:
