osu file format v14

[General]
AudioFilename: audio.mp3
AudioLeadIn: 0
PreviewTime: 207926
Countdown: 0
SampleSet: Soft
StackLeniency: 0.7
Mode: 0
LetterboxInBreaks: 0
WidescreenStoryboard: 0

[Editor]
DistanceSpacing: 1.1
BeatDivisor: 4
GridSize: 4
TimelineZoom: 1.5

[Metadata]
Title:Kanzen Kankaku Dreamer
TitleUnicode:完全感覚Dreamer
Artist:ONE OK ROCK
ArtistUnicode:ONE OK ROCK
Creator:Nevo
Version:Judgement
Source:
Tags:japanese rock smokeman akitoshi agatsu kowari reform -Laura- xchorse corinn kujinn
BeatmapID:1963713
BeatmapSetID:940222

[Difficulty]
HPDrainRate:6
CircleSize:4
OverallDifficulty:9
ApproachRate:9.3
SliderMultiplier:1.7
SliderTickRate:1

[Events]
//Background and Video events
0,0,"851179.jpg",0,0
//Break Periods
2,93269,101988
//Storyboard Layer 0 (Background)
//Storyboard Layer 1 (Fail)
//Storyboard Layer 2 (Pass)
//Storyboard Layer 3 (Foreground)
//Storyboard Layer 4 (Overlay)
//Storyboard Sound Samples

[TimingPoints]
2132,315.756236185665,4,2,1,75,1,0
7184,-83.3333333333333,4,2,1,75,0,0
31813,-100,4,2,1,75,0,0
52652,-133.333333333333,4,2,1,65,0,0
72072,-100,4,2,1,65,0,0
72861,-79.9999999999999,4,2,1,90,0,1
93069,-79.9999999999999,4,2,1,75,0,0
103173,-79.9999999999999,4,2,1,75,0,0
113278,-133.333333333333,4,2,1,60,0,0
115804,-100,4,2,1,75,0,0
133486,-133.333333333333,4,2,1,65,0,0
153063,-100,4,2,1,70,0,0
153694,-79.9999999999999,4,2,1,90,0,1
173271,-79.9999999999999,4,2,1,70,0,0
178797,-100,4,2,1,70,0,0
186375,-83.3333333333333,4,2,1,70,0,0
208005,-76.9230769230769,4,2,1,90,0,1
227581,-76.9230769230769,4,2,1,90,0,0
228213,-76.9230769230769,4,2,1,90,0,1
246369,-76.9230769230769,4,2,1,90,0,0
246843,-76.9230769230769,4,2,1,90,0,1
247316,-76.9230769230769,4,2,1,90,0,0

[Colours]
Combo1 : 255,163,70
Combo2 : 217,0,217
Combo3 : 187,0,0
Combo4 : 2,77,189

[HitObjects]
200,138,2132,5,12,0:0:0:0:
188,323,2289,1,0,1:0:0:0:
271,281,2447,1,0,1:0:0:0:
80,173,2605,5,8,0:0:0:0:
125,384,2763,1,0,1:0:0:0:
321,191,2921,5,8,0:0:0:0:
153,216,3079,1,0,1:0:0:0:
200,138,3237,1,0,1:0:0:0:
274,326,3395,5,8,0:0:0:0:
321,191,3552,1,0,1:0:0:0:
474,296,3710,5,8,0:0:0:0:
417,132,3868,1,0,1:0:0:0:
247,229,4026,5,8,0:0:0:0:
215,240,4105,1,8,0:0:0:0:
181,239,4184,1,8,0:0:0:0:
149,227,4263,1,8,0:0:0:0:
123,205,4342,1,8,0:0:0:0:
107,176,4421,1,8,0:0:0:0:
101,143,4500,2,0,L|42:150,1,42.5,8|8,0:0|0:0,0:0:0:0:
156,77,4658,6,0,L|262:89,1,85,0|0,1:0|1:0,0:0:0:0:
306,143,4894,1,0,1:0:0:0:
306,143,4973,2,0,L|412:130,1,85,8|8,0:0|0:0,0:0:0:0:
355,304,5289,5,8,0:0:0:0:
355,304,5368,1,8,0:0:0:0:
355,304,5447,1,8,0:0:0:0:
206,205,5605,1,8,0:0:0:0:
155,349,5763,5,8,0:0:0:0:
155,349,5842,1,8,0:0:0:0:
155,349,5921,1,8,0:0:0:0:
290,231,6078,1,8,0:0:0:0:
77,167,6236,6,0,L|88:219,3,42.5,8|8|8|8,0:0|0:0|0:0|0:0,0:0:0:0:
100,80,6552,1,0,1:0:0:0:
139,64,6631,1,0,1:0:0:0:
181,63,6710,1,0,1:0:0:0:
221,77,6789,1,0,1:0:0:0:
253,105,6868,1,0,1:0:0:0:
292,120,6947,1,0,1:0:0:0:
334,121,7026,1,0,1:0:0:0:
374,107,7105,1,0,1:0:0:0:
406,79,7184,6,0,L|392:199,1,101.999996887207,4|0,1:0|1:0,0:0:0:0:
240,295,7499,1,8,0:0:0:0:
467,234,7657,1,0,0:0:0:0:
238,198,7815,1,0,1:0:0:0:
303,368,7973,2,0,B|333:315|333:315|311:138,1,203.999993774414,0|8,1:0|0:0,0:0:0:0:
227,14,8447,5,0,0:0:0:0:
402,182,8605,1,0,1:0:0:0:
148,163,8762,1,8,0:0:0:0:
379,100,8920,2,0,P|328:76|227:141,1,152.999995330811
315,172,9236,1,0,1:0:0:0:
154,61,9394,2,0,L|146:179,1,101.999996887207,8|0,0:0|0:0,0:0:0:0:
237,320,9710,5,4,1:0:0:0:
12,236,9868,1,0,1:0:0:0:
229,199,10025,1,8,0:0:0:0:
183,384,10183,1,0,0:0:0:0:
147,162,10341,1,0,1:0:0:0:
41,314,10499,2,0,B|83:334|148:326|127:300|192:284|236:319,1,203.999993774414,0|8,1:0|0:0,0:0:0:0:
440,305,10973,5,0,0:0:0:0:
265,242,11131,1,0,1:0:0:0:
419,143,11288,1,8,0:0:0:0:
354,380,11446,2,0,P|350:309|345:147,1,203.999993774414
430,41,11920,2,0,P|428:88|417:148,1,101.999996887207,8|0,0:0|0:0,0:0:0:0:
167,135,12236,5,4,1:0:0:0:
321,77,12394,1,0,1:0:0:0:
227,219,12551,1,8,0:0:0:0:
222,44,12709,1,0,0:0:0:0:
337,178,12867,1,0,1:0:0:0:
45,186,13025,2,0,L|169:173,1,101.999996887207,0|0,1:0|0:0,0:0:0:0:
321,77,13341,1,8,0:0:0:0:
107,0,13499,6,0,P|85:59|90:103,1,101.999996887207,0|0,0:0|1:0,0:0:0:0:
261,133,13814,2,0,P|220:84|180:66,1,101.999996887207,8|0,0:0|0:0,0:0:0:0:
72,254,14130,1,0,1:0:0:0:
241,227,14288,1,0,1:0:0:0:
156,384,14446,2,0,L|165:283,1,101.999996887207,8|0,0:0|0:0,0:0:0:0:
117,120,14762,5,4,1:0:0:0:
412,206,14920,1,0,1:0:0:0:
314,3,15078,1,8,0:0:0:0:
241,227,15235,1,0,0:0:0:0:
195,11,15393,1,0,1:0:0:0:
419,87,15551,1,0,1:0:0:0:
170,160,15709,2,0,P|235:133|275:138,1,101.999996887207,0|8,0:0|0:0,0:0:0:0:
412,206,16025,5,0,0:0:0:0:
241,227,16183,1,0,1:0:0:0:
348,376,16341,2,0,L|335:275,1,101.999996887207,8|0,0:0|0:0,0:0:0:0:
292,50,16656,1,0,1:0:0:0:
158,241,16814,1,8,0:0:0:0:
113,273,16893,1,8,0:0:0:0:
58,274,16972,1,8,0:0:0:0:
13,242,17051,1,8,0:0:0:0:
0,190,17130,1,8,0:0:0:0:
10,137,17209,1,8,0:0:0:0:
53,103,17288,6,0,L|164:111,1,101.999996887207,4|0,1:0|1:0,0:0:0:0:
407,119,17604,1,8,0:0:0:0:
217,210,17761,1,0,0:0:0:0:
408,284,17919,1,0,1:0:0:0:
327,48,18077,2,0,B|296:100|296:100|319:263,1,203.999993774414,0|8,1:0|0:0,0:0:0:0:
126,362,18551,6,0,L|132:241,1,101.999996887207,0|0,0:0|1:0,0:0:0:0:
53,103,18867,1,8,0:0:0:0:
238,171,19024,2,0,P|164:216|38:180,1,203.999993774414,0|0,0:0|1:0,0:0:0:0:
198,76,19498,2,0,L|310:82,1,101.999996887207,8|0,0:0|0:0,0:0:0:0:
511,149,19814,5,4,1:0:0:0:
371,10,19972,1,0,1:0:0:0:
388,209,20130,1,8,0:0:0:0:
494,53,20287,1,0,0:0:0:0:
466,295,20445,1,0,1:0:0:0:
248,211,20603,2,0,B|194:184|137:203|148:230|85:240|40:217,1,203.999993774414,0|8,1:0|0:0,0:0:0:0:
180,6,21077,6,0,P|199:61|192:119,1,101.999996887207,0|0,0:0|1:0,0:0:0:0:
96,319,21393,1,8,0:0:0:0:
333,239,21551,2,0,P|396:208|517:262,1,203.999993774414,0|0,0:0|1:0,0:0:0:0:
372,340,22024,2,0,L|251:332,1,101.999996887207,8|0,0:0|0:0,0:0:0:0:
32,261,22340,5,4,1:0:0:0:
325,268,22498,1,0,1:0:0:0:
114,117,22656,1,8,0:0:0:0:
177,356,22814,1,0,0:0:0:0:
260,132,22971,1,0,1:0:0:0:
128,269,23129,2,0,B|212:257|212:257|252:278|252:278|331:268,1,203.999993774414,0|8,1:0|0:0,0:0:0:0:
412,103,23603,6,0,P|376:167|369:208,1,101.999996887207,0|0,0:0|1:0,0:0:0:0:
483,301,23919,2,0,L|471:177,1,101.999996887207,8|0,0:0|0:0,0:0:0:0:
229,88,24234,2,0,P|303:100|374:62,1,152.999995330811,0|0,1:0|0:0,0:0:0:0:
421,1,24550,2,0,L|409:125,1,101.999996887207,8|0,0:0|0:0,0:0:0:0:
356,271,24866,5,4,1:0:0:0:
502,172,25024,1,0,1:0:0:0:
291,155,25182,1,8,0:0:0:0:
450,277,25340,1,0,0:0:0:0:
272,339,25497,2,0,L|154:325,1,101.999996887207,0|0,1:0|1:0,0:0:0:0:
0,275,25813,2,0,L|108:267,1,101.999996887207,0|8,0:0|0:0,0:0:0:0:
68,72,26129,6,0,P|48:120|52:173,1,101.999996887207,0|0,0:0|1:0,0:0:0:0:
170,326,26445,2,0,P|190:278|186:225,1,101.999996887207,8|0,0:0|1:0,0:0:0:0:
75,353,26760,1,8,0:0:0:0:
300,260,26918,1,0,1:0:0:0:
50,169,27076,1,8,0:0:0:0:
36,183,27392,5,0,1:0:0:0:
40,201,27708,1,8,0:0:0:0:
44,219,28024,1,8,0:0:0:0:
51,248,28339,1,8,0:0:0:0:
55,266,28655,1,8,0:0:0:0:
59,284,28971,1,8,0:0:0:0:
151,169,29287,1,8,0:0:0:0:
147,187,29602,1,8,0:0:0:0:
476,183,29918,5,8,0:0:0:0:
472,201,30234,1,8,0:0:0:0:
468,219,30550,1,8,0:0:0:0:
461,248,30865,1,8,0:0:0:0:
457,266,31181,1,8,0:0:0:0:
453,284,31497,1,8,0:0:0:0:
353,124,31813,2,0,L|372:222,3,85,0|0|2|0,1:0|1:0|1:2|1:0,0:0:0:0:
332,295,32444,6,0,P|273:266|163:315,1,170,6|8,1:2|0:0,0:0:0:0:
46,180,32918,2,0,P|105:209|215:160,1,170,2|0,1:2|1:0,0:0:0:0:
149,35,33391,2,0,B|120:-3|120:-3|123:135,1,170,10|0,0:2|0:0,0:0:0:0:
44,272,33865,2,0,B|93:306|156:289|156:289|209:298|213:337,1,170,2|0,1:2|0:0,0:0:0:0:
293,360,34339,2,0,L|303:276,1,85,2|0,1:2|1:0,0:0:0:0:
224,138,34654,2,0,L|237:256,1,85,10|8,0:2|0:0,0:0:0:0:
462,101,34970,6,0,B|417:78|366:93|381:119|319:119|283:90,1,170,6|8,1:2|0:0,0:0:0:0:
466,114,35444,2,0,B|421:91|370:106|385:132|323:132|287:103,1,170,2|0,1:2|1:0,0:0:0:0:
97,207,35917,2,0,B|145:161|233:179|233:179|183:208,1,170,2|0,0:2|0:0,0:0:0:0:
91,193,36391,2,0,B|139:147|227:165|227:165|177:194,1,170,2|0,1:2|0:0,0:0:0:0:
316,355,36865,2,0,L|322:251,1,85,2|0,1:2|1:0,0:0:0:0:
417,191,37180,2,0,L|423:295,1,85,10|0,0:2|0:0,0:0:0:0:
39,345,37496,6,0,P|109:317|219:365,1,170,6|8,1:2|0:0,0:0:0:0:
333,225,37970,2,0,P|263:253|153:205,1,170,2|0,1:2|1:0,0:0:0:0:
58,87,38443,2,0,B|95:124|95:124|85:256,1,170,2|0,0:2|0:0,0:0:0:0:
168,311,38917,2,0,L|177:203,1,85,2|8,1:2|0:0,0:0:0:0:
233,120,39233,1,0,0:0:0:0:
303,213,39391,2,0,P|351:220|402:201,1,85,2|0,1:2|1:0,0:0:0:0:
377,39,39706,2,0,P|346:77|337:130,1,85,2|8,0:2|0:0,0:0:0:0:
445,282,40022,6,0,B|477:237|477:237|453:100,1,170,6|8,1:2|0:0,0:0:0:0:
459,291,40496,2,0,B|491:246|491:246|467:109,1,170,2|0,1:2|1:0,0:0:0:0:
270,33,40970,2,0,L|257:124,1,85,2|8,0:2|0:0,0:0:0:0:
165,187,41285,1,2,0:2:0:0:
346,229,41443,2,0,P|297:197|255:198,1,85,2|8,1:2|0:0,0:0:0:0:
117,318,41759,2,0,B|158:300|198:314|198:314|215:295|215:295|254:301|300:262,1,170,2|0,0:2|1:0,0:0:0:0:
82,151,42233,2,0,P|75:198|91:241,1,85,8|0,0:0|0:0,0:0:0:0:
214,90,42548,6,0,B|139:84|139:84|119:70|119:70|45:63,1,170,6|8,1:2|0:0,0:0:0:0:
282,22,43022,2,0,P|308:66|252:173,1,170,2|0,1:2|1:0,0:0:0:0:
149,256,43496,6,0,B|224:250|224:250|243:258|243:258|322:252,1,170,2|0,0:2|0:0,0:0:0:0:
81,188,43969,2,0,P|55:232|111:339,1,170,2|0,1:2|0:0,0:0:0:0:
173,165,44443,2,0,L|161:52,1,85,2|0,1:2|1:0,0:0:0:0:
325,167,44759,2,0,L|313:280,1,85,2|8,0:2|0:0,0:0:0:0:
234,344,45074,6,0,P|281:305|396:315,1,170,6|8,1:2|0:0,0:0:0:0:
229,329,45548,2,0,P|276:290|391:300,1,170,2|0,1:2|1:0,0:0:0:0:
203,208,46022,6,0,P|156:169|41:179,1,170,2|0,0:2|0:0,0:0:0:0:
208,193,46495,2,0,P|161:154|46:164,1,170,2|0,1:2|0:0,0:0:0:0:
122,322,46969,2,0,L|118:232,1,85,2|0,1:2|1:0,0:0:0:0:
292,115,47285,2,0,L|288:205,1,85,10|0,0:2|0:0,0:0:0:0:
227,49,47600,6,0,B|267:24|267:24|402:39,1,170,6|8,1:2|0:0,0:0:0:0:
447,162,48074,2,0,B|413:128|413:128|278:112,1,170,2|0,1:2|1:0,0:0:0:0:
105,247,48548,6,0,P|141:206|275:213,1,170,2|0,0:2|0:0,0:0:0:0:
360,345,49021,2,0,P|324:304|190:311,1,170,2|0,1:2|0:0,0:0:0:0:
94,331,49495,2,0,L|105:241,1,85,2|0,1:2|1:0,0:0:0:0:
18,96,49811,2,0,L|29:186,1,85,2|8,0:2|0:0,0:0:0:0:
200,267,50126,6,0,B|239:287|293:278|281:263|335:251|379:273,1,170,6|8,1:2|0:0,0:0:0:0:
201,247,50600,2,0,B|240:267|294:258|282:243|336:231|380:253,1,170,2|0,1:2|1:0,0:0:0:0:
483,158,51074,2,0,L|380:165,1,85,2|8,0:2|0:0,0:0:0:0:
248,89,51389,1,2,0:2:0:0:
334,98,51547,1,2,1:2:0:0:
179,167,51705,2,0,P|156:122|155:67,1,85,8|2,0:0|1:2,0:0:0:0:
287,170,52021,1,8,0:0:0:0:
114,251,52179,1,8,0:0:0:0:
283,276,52337,1,0,1:0:0:0:
196,318,52495,1,0,1:0:0:0:
352,353,52652,6,0,P|403:323|463:323,1,95.6250036478044,6|0,1:2|0:0,0:0:0:0:
495,376,52968,2,0,L|477:223,1,127.500004863739,2|0,0:2|0:0,0:0:0:0:
461,159,53442,1,0,1:0:0:0:
386,206,53600,2,0,L|312:194,1,63.7500024318696,10|8,0:2|0:0,0:0:0:0:
106,134,53916,6,0,P|157:104|217:104,1,95.6250036478044,10|0,0:2|0:0,0:0:0:0:
249,157,54231,2,0,L|231:4,1,127.500004863739,10|0,0:2|1:0,0:0:0:0:
384,50,54705,1,0,1:0:0:0:
329,113,54863,1,2,1:2:0:0:
458,101,55021,1,0,1:0:0:0:
460,194,55179,6,0,P|417:178|347:197,1,95.6250036478044,6|0,1:2|0:0,0:0:0:0:
306,242,55494,1,2,0:2:0:0:
392,384,55652,2,0,B|414:345|414:345|407:246,2,127.500004863739,2|2|10,1:2|1:2|0:2,0:0:0:0:
116,197,56599,1,0,1:0:0:0:
202,223,56757,1,8,0:0:0:0:
326,68,57073,1,0,1:0:0:0:
231,101,57231,1,0,1:0:0:0:
374,164,57389,1,10,0:2:0:0:
434,90,57547,2,0,L|372:83,1,31.8750012159348,8|8,0:0|0:0,0:0:0:0:
452,81,57705,6,0,L|319:67,1,127.500004863739,6|2,1:2|0:2,0:0:0:0:
167,108,58178,2,0,L|255:97,1,63.7500024318696,2|0,1:2|0:0,0:0:0:0:
86,19,58494,2,0,L|174:30,1,63.7500024318696,2|0,1:2|0:0,0:0:0:0:
37,220,58810,2,0,B|62:197|62:197|181:183,1,127.500004863739,10|0,0:2|1:0,0:0:0:0:
129,344,59283,2,0,P|108:311|105:281,1,63.7500024318696,10|0,0:2|0:0,0:0:0:0:
240,220,59599,2,0,P|221:254|197:272,1,63.7500024318696,2|0,1:2|1:0,0:0:0:0:
211,133,59915,1,2,1:2:0:0:
330,230,60073,1,0,1:0:0:0:
287,26,60231,6,0,L|296:166,1,127.500004863739,6|2,1:2|0:2,0:0:0:0:
499,168,60704,2,0,P|410:144|361:159,1,127.500004863739,2|0,1:2|1:0,0:0:0:0:
421,295,61178,2,0,L|426:223,1,63.7500024318696,2|8,0:2|0:0,0:0:0:0:
295,256,61494,1,2,0:2:0:0:
348,350,61652,2,0,P|318:339|280:341,1,63.7500024318696,2|8,1:2|0:0,0:0:0:0:
90,307,61967,2,0,P|162:312|219:283,1,127.500004863739,2|0,0:2|1:0,0:0:0:0:
207,154,62441,1,0,1:0:0:0:
141,223,62599,1,0,1:0:0:0:
77,95,62757,6,0,L|160:88,1,63.7500024318696,6|0,1:2|0:0,0:0:0:0:
68,79,63072,2,0,L|220:65,1,127.500004863739,2|0,0:2|0:0,0:0:0:0:
288,59,63546,1,0,1:0:0:0:
396,147,63704,2,0,L|323:136,1,63.7500024318696,2|8,0:2|0:0,0:0:0:0:
211,214,64020,6,0,L|294:207,1,63.7500024318696,2|0,0:2|1:0,0:0:0:0:
204,231,64335,2,0,L|356:217,1,127.500004863739,10|2,0:2|1:2,0:0:0:0:
466,238,64809,1,0,1:0:0:0:
280,307,64967,1,2,1:2:0:0:
414,356,65125,1,0,1:0:0:0:
402,157,65283,6,0,P|372:210|384:297,1,127.500004863739,6|2,1:2|0:2,0:0:0:0:
477,361,65756,2,0,L|391:353,1,63.7500024318696,2|0,1:2|0:0,0:0:0:0:
280,307,66072,2,0,L|194:315,1,63.7500024318696,2|0,1:2|0:0,0:0:0:0:
322,225,66388,2,0,P|358:257|364:338,1,127.500004863739,10|0,0:2|1:0,0:0:0:0:
235,224,66862,2,0,L|227:149,1,63.7500024318696,8|0,0:0|0:0,0:0:0:0:
318,75,67177,1,0,1:0:0:0:
347,83,67335,1,0,1:0:0:0:
415,141,67493,1,0,1:0:0:0:
444,133,67651,1,2,1:2:0:0:
354,222,67809,6,0,P|301:205|218:207,1,127.500004863739,6|0,1:2|0:0,0:0:0:0:
92,122,68282,2,0,L|178:131,1,63.7500024318696,2|0,1:2|0:0,0:0:0:0:
265,69,68598,1,0,1:0:0:0:
106,210,68756,1,8,0:0:0:0:
117,224,69072,6,0,L|135:355,1,127.500004863739,6|2,1:2|0:2,0:0:0:0:
337,288,69545,2,0,L|343:153,1,127.500004863739,10|0,0:2|1:0,0:0:0:0:
132,136,70019,1,10,0:2:0:0:
208,206,70177,1,2,1:2:0:0:
293,71,70335,5,14,0:2:0:0:
334,41,70414,1,8,0:0:0:0:
384,40,70493,1,8,0:0:0:0:
427,66,70572,1,8,0:0:0:0:
450,111,70651,1,8,0:0:0:0:
444,161,70730,1,8,0:0:0:0:
413,200,70808,1,8,0:0:0:0:
364,220,70887,1,8,0:0:0:0:
336,266,70966,1,8,0:0:0:0:
338,319,71045,1,8,0:0:0:0:
371,361,71124,1,8,0:0:0:0:
422,377,71203,1,8,0:0:0:0:
473,362,71282,1,8,0:0:0:0:
444,314,71361,1,8,0:0:0:0:
394,293,71440,1,8,0:0:0:0:
344,308,71519,1,8,0:0:0:0:
302,337,71598,1,8,0:0:0:0:
263,369,71677,1,8,0:0:0:0:
212,384,71756,1,8,0:0:0:0:
164,372,71835,1,8,0:0:0:0:
121,349,71914,1,8,0:0:0:0:
93,308,71993,1,8,0:0:0:0:
88,261,72072,2,0,L|104:200,1,42.5,0|0,1:0|1:0,0:0:0:0:
136,58,72229,5,0,1:0:0:0:
354,133,72387,1,8,0:0:0:0:
199,284,72861,6,0,P|184:237|189:158,1,106.25,6|0,1:2|0:0,0:0:0:0:
423,193,73177,2,0,P|438:240|433:319,1,106.25,10|0,0:2|0:0,0:0:0:0:
301,80,73492,1,2,1:2:0:0:
500,29,73650,1,0,0:0:0:0:
335,224,73808,2,0,L|226:213,1,106.25,10|0,0:2|0:0,0:0:0:0:
84,109,74124,6,0,L|193:98,1,106.25,2|0,1:2|1:0,0:0:0:0:
10,52,74440,2,0,P|-12:110|93:203,1,212.5,10|0,0:2|1:0,0:0:0:0:
274,161,74913,1,0,0:0:0:0:
194,319,75071,2,0,L|181:200,1,106.25,10|8,0:2|0:0,0:0:0:0:
367,59,75387,6,0,L|354:178,1,106.25,6|0,1:2|0:0,0:0:0:0:
108,158,75703,2,0,P|157:126|217:130,1,106.25,10|0,0:2|0:0,0:0:0:0:
397,255,76018,2,0,P|339:263|286:234,1,106.25,2|0,1:2|1:0,0:0:0:0:
452,130,76334,2,0,L|432:341,1,212.5,10|0,0:2|1:0,0:0:0:0:
258,356,76808,5,0,1:0:0:0:
353,226,76966,2,0,L|237:210,1,106.25,10|8,0:2|0:0,0:0:0:0:
174,167,77203,1,8,0:0:0:0:
174,167,77281,2,0,L|58:183,1,106.25,2|0,1:2|0:0,0:0:0:0:
218,80,77597,2,0,B|294:89|294:89|313:105|313:105|392:115,1,159.375,10|0,0:2|0:0,0:0:0:0:
461,45,77913,6,0,L|329:29,1,106.25,4|0,1:0|0:0,0:0:0:0:
117,81,78229,1,10,0:2:0:0:
251,172,78387,1,0,0:0:0:0:
166,278,78545,2,0,L|155:158,1,106.25,2|0,1:2|0:0,0:0:0:0:
345,196,78860,2,0,L|334:316,1,106.25,10|0,0:2|0:0,0:0:0:0:
189,372,79176,5,2,1:2:0:0:
445,326,79334,1,0,0:0:0:0:
248,242,79492,1,8,0:0:0:0:
447,191,79650,1,0,0:0:0:0:
244,109,79808,1,0,1:0:0:0:
368,277,79965,1,0,1:0:0:0:
388,69,80123,1,8,0:0:0:0:
248,242,80281,1,8,0:0:0:0:
248,242,80360,1,8,0:0:0:0:
248,242,80439,6,0,L|104:225,1,106.25,6|2,1:2|0:2,0:0:0:0:
19,127,80755,1,10,0:2:0:0:
199,38,80913,2,0,P|212:96|200:155,1,106.25,2|0,0:2|1:0,0:0:0:0:
55,286,81228,2,0,P|98:245|155:226,1,106.25,2|8,1:2|0:0,0:0:0:0:
375,297,81544,1,10,0:2:0:0:
146,334,81702,5,0,1:0:0:0:
298,151,81860,1,0,1:0:0:0:
317,384,82018,1,10,0:2:0:0:
146,197,82176,1,0,1:0:0:0:
363,223,82334,5,10,0:2:0:0:
389,189,82413,1,8,0:0:0:0:
399,149,82491,1,8,0:0:0:0:
391,107,82570,1,8,0:0:0:0:
367,72,82649,1,10,0:2:0:0:
331,51,82728,1,8,0:0:0:0:
289,46,82807,1,8,0:0:0:0:
249,59,82886,1,8,0:0:0:0:
218,88,82965,6,0,L|231:227,1,106.25,6|0,1:2|1:0,0:0:0:0:
65,349,83281,2,0,L|77:210,1,106.25,10|0,0:2|0:0,0:0:0:0:
306,237,83597,1,2,1:2:0:0:
190,284,83754,1,0,1:0:0:0:
406,313,83912,2,0,P|429:271|426:211,1,106.25,10|0,0:2|0:0,0:0:0:0:
260,131,84228,6,0,L|385:121,1,106.25,2|0,1:2|0:0,0:0:0:0:
197,54,84544,2,0,B|165:114|165:114|190:273,1,212.5,10|0,0:2|1:0,0:0:0:0:
294,325,85018,1,0,1:0:0:0:
79,375,85175,2,0,L|98:263,1,106.25,10|8,0:2|0:0,0:0:0:0:
260,131,85491,6,0,L|283:244,1,106.25,6|0,1:2|0:0,0:0:0:0:
71,55,85807,2,0,L|48:168,1,106.25,10|0,0:2|0:0,0:0:0:0:
309,57,86123,2,0,P|257:40|187:76,1,106.25,2|0,1:2|0:0,0:0:0:0:
346,130,86438,2,0,B|371:121|389:92|389:92|443:82|514:133,1,159.375,10|0,0:2|0:0,0:0:0:0:
512,187,86754,6,0,L|503:303,1,106.25,0|0,1:0|1:0,0:0:0:0:
358,350,87070,1,10,0:2:0:0:
417,237,87228,1,8,0:0:0:0:
417,237,87307,1,8,0:0:0:0:
417,237,87386,2,0,P|361:224|297:239,1,106.25,2|0,1:2|1:0,0:0:0:0:
154,307,87701,2,0,L|275:312,1,106.25,10|0,0:2|0:0,0:0:0:0:
90,136,88017,6,0,P|77:192|99:253,1,106.25,4|0,1:0|1:0,0:0:0:0:
191,105,88333,2,0,L|175:-13,1,106.25,10|0,0:2|0:0,0:0:0:0:
160,186,88649,2,0,P|215:189|269:141,1,106.25,2|0,1:2|0:0,0:0:0:0:
81,65,88964,2,0,L|65:183,1,106.25,10|0,0:2|0:0,0:0:0:0:
42,307,89280,5,2,1:2:0:0:
160,186,89438,1,0,1:0:0:0:
207,353,89596,1,10,0:2:0:0:
71,218,89754,1,0,0:0:0:0:
227,257,89912,2,0,L|347:248,1,106.25,0|0,1:0|1:0,0:0:0:0:
454,174,90227,2,0,L|338:159,1,106.25,8|0,0:0|1:0,0:0:0:0:
136,41,90543,5,14,0:2:0:0:
277,99,90701,1,2,1:2:0:0:
53,179,90859,1,2,1:2:0:0:
227,24,91017,5,10,0:2:0:0:
67,96,91175,1,2,1:2:0:0:
298,188,91333,1,2,1:2:0:0:
64,275,91491,5,10,0:2:0:0:
151,157,91648,1,2,1:2:0:0:
227,350,91806,1,2,1:2:0:0:
53,179,91964,5,10,0:2:0:0:
139,330,92122,1,2,1:2:0:0:
241,119,92280,1,2,1:2:0:0:
18,287,92438,5,10,0:2:0:0:
312,262,92596,1,8,0:0:0:0:
148,59,92754,2,0,B|135:99|135:99|151:235,1,159.375,10|0,0:2|0:0,0:0:0:0:
216,264,93069,5,6,0:0:0:0:
210,52,102542,6,0,L|140:61,3,53.125,0|0|8|8,1:0|1:0|0:0|0:0,0:0:0:0:
276,109,102858,2,0,L|346:118,3,53.125,8|8|8|8,0:0|0:0|0:0|0:0,0:0:0:0:
226,183,103173,6,0,P|169:167|86:198,1,106.25,4|0,1:0|1:0,0:0:0:0:
9,287,103489,1,8,0:0:0:0:
167,268,103647,1,0,0:0:0:0:
32,148,103805,1,0,1:0:0:0:
94,332,103963,2,0,P|165:308|303:337,1,212.5,0|8,1:0|0:0,0:0:0:0:
458,227,104437,5,0,0:0:0:0:
323,247,104594,1,0,1:0:0:0:
416,147,104752,1,8,0:0:0:0:
385,364,104910,2,0,P|374:251|370:134,1,212.5,0|0,0:0|1:0,0:0:0:0:
257,27,105384,2,0,L|273:147,1,106.25,8|0,0:0|0:0,0:0:0:0:
69,157,105700,5,4,1:0:0:0:
156,110,105857,1,0,1:0:0:0:
73,58,106015,1,8,0:0:0:0:
157,212,106173,1,0,0:0:0:0:
240,50,106331,1,0,1:0:0:0:
365,229,106489,2,0,P|283:207|134:217,1,212.5,0|8,1:0|0:0,0:0:0:0:
29,306,106963,5,0,0:0:0:0:
205,290,107120,1,0,1:0:0:0:
72,214,107278,1,8,0:0:0:0:
94,383,107436,2,0,B|129:333|129:333|112:183,1,212.5,0|0,0:0|1:0,0:0:0:0:
221,71,107910,2,0,L|205:183,1,106.25,8|0,0:0|0:0,0:0:0:0:
37,63,108226,5,4,1:0:0:0:
130,28,108383,1,0,1:0:0:0:
205,176,108541,1,8,0:0:0:0:
118,127,108699,1,0,0:0:0:0:
299,132,108857,1,0,1:0:0:0:
260,305,109015,2,0,L|247:83,1,212.5,0|8,1:0|0:0,0:0:0:0:
442,173,109489,6,0,P|388:199|336:198,1,106.25,0|0,0:0|1:0,0:0:0:0:
269,5,109804,2,0,P|318:38|343:84,1,106.25,8|0,0:0|0:0,0:0:0:0:
142,106,110120,2,0,L|261:91,1,106.25,0|0,1:0|1:0,0:0:0:0:
365,318,110436,2,0,L|246:303,1,106.25,8|0,0:0|0:0,0:0:0:0:
52,240,110752,5,4,1:0:0:0:
280,208,110910,1,0,1:0:0:0:
103,330,111067,1,8,0:0:0:0:
94,109,111225,1,0,0:0:0:0:
243,345,111383,1,0,1:0:0:0:
186,154,111541,1,0,1:0:0:0:
14,321,111699,1,0,0:0:0:0:
280,208,111857,1,8,0:0:0:0:
94,109,112015,6,0,P|91:190|136:241,1,106.25,0|0,0:0|1:0,0:0:0:0:
264,92,112330,2,0,P|195:48|128:62,1,106.25,8|0,0:0|1:0,0:0:0:0:
280,208,112646,2,0,L|404:194,3,106.25,8|0|10|0,0:0|1:0|0:2|0:0,0:0:0:0:
473,316,113278,6,0,P|414:288|330:289,1,127.500004863739,2|0,0:2|0:0,0:0:0:0:
273,374,113751,2,0,L|264:288,1,63.7500024318696,2|0,0:2|0:0,0:0:0:0:
91,167,114225,6,0,P|140:209|222:230,1,127.500004863739,2|0,0:2|0:0,0:0:0:0:
299,162,114699,2,0,L|285:247,1,63.7500024318696,2|0,0:2|0:0,0:0:0:0:
387,161,115014,1,0,0:0:0:0:
387,161,115172,2,0,L|373:75,1,63.7500024318696,2|0,0:2|0:0,0:0:0:0:
311,7,115488,2,0,L|297:92,1,63.7500024318696,2|8,0:2|0:0,0:0:0:0:
245,142,115804,6,0,P|191:126|145:138,1,85,6|0,1:2|0:0,0:0:0:0:
94,178,116120,1,8,0:0:0:0:
179,318,116277,2,0,B|205:345|205:345|193:195,1,170,2|0,1:2|1:0,0:0:0:0:
292,384,116751,2,0,L|280:205,1,170,10|0,0:2|0:0,0:0:0:0:
512,249,117225,2,0,P|474:289|362:281,1,170,2|0,1:2|0:0,0:0:0:0:
412,127,117698,2,0,L|427:235,1,85,2|0,1:2|1:0,0:0:0:0:
268,298,118014,2,0,L|283:190,1,85,10|8,0:2|0:0,0:0:0:0:
131,143,118330,6,0,B|191:158|232:139|219:116|272:106|317:125,1,170,6|8,1:2|0:0,0:0:0:0:
125,130,118803,2,0,B|185:145|226:126|213:103|266:93|311:112,1,170,2|0,1:2|1:0,0:0:0:0:
74,205,119277,2,0,P|44:161|90:45,1,170,2|0,0:2|0:0,0:0:0:0:
56,206,119751,2,0,P|26:162|72:46,1,170,2|0,1:2|0:0,0:0:0:0:
166,247,120224,2,0,L|148:345,1,85,2|0,1:2|1:0,0:0:0:0:
309,218,120540,2,0,L|291:120,1,85,2|0,0:2|0:0,0:0:0:0:
464,255,120856,6,0,P|397:236|305:292,1,170,6|8,1:2|0:0,0:0:0:0:
141,108,121329,2,0,P|208:89|300:145,1,170,2|2,1:2|1:2,0:0:0:0:
473,42,121803,2,0,L|385:61,1,85,2|8,0:2|0:0,0:0:0:0:
208,174,122119,6,0,L|316:191,1,85,2|2,0:2|1:2,0:0:0:0:
500,270,122435,1,10,0:2:0:0:
378,296,122593,1,2,0:2:0:0:
459,344,122750,1,0,1:0:0:0:
423,222,122908,1,0,1:0:0:0:
294,311,123066,2,0,L|150:302,1,127.5,8|0,0:0|0:0,0:0:0:0:
89,269,123382,6,0,P|82:312|101:358,1,85,6|0,1:2|0:0,0:0:0:0:
188,211,123698,1,8,0:0:0:0:
188,211,123856,2,0,L|14:228,1,170,2|0,1:2|1:0,0:0:0:0:
120,116,124329,2,0,L|294:133,1,170,2|0,0:2|0:0,0:0:0:0:
322,288,124803,2,0,P|288:243|276:206,1,85,2|8,1:2|0:0,0:0:0:0:
319,52,125119,1,2,1:2:0:0:
319,52,125197,1,2,1:2:0:0:
319,52,125276,5,14,0:2:0:0:
100,219,125513,1,14,0:2:0:0:
378,209,125750,1,14,0:2:0:0:
285,148,125908,6,0,B|238:125|238:125|110:141,1,170,6|8,1:2|0:0,0:0:0:0:
288,127,126382,2,0,B|241:104|241:104|113:120,1,170,2|0,1:2|1:0,0:0:0:0:
29,279,126855,2,0,P|95:245|209:277,1,170,2|0,0:2|0:0,0:0:0:0:
27,263,127329,2,0,P|93:229|207:261,1,170,2|0,1:2|0:0,0:0:0:0:
286,379,127802,2,0,L|271:290,1,85,2|0,1:2|1:0,0:0:0:0:
444,189,128118,2,0,L|429:278,1,85,10|8,0:2|0:0,0:0:0:0:
309,124,128434,6,0,B|385:120|385:120|402:106|402:106|488:102,1,170,6|8,1:2|0:0,0:0:0:0:
266,38,128908,2,0,B|190:34|190:34|173:20|173:20|87:16,1,170,2|0,1:2|1:0,0:0:0:0:
103,250,129381,2,0,P|143:164|119:88,1,170,2|0,0:2|0:0,0:0:0:0:
270,296,129855,2,0,P|230:210|254:134,1,170,2|0,1:2|0:0,0:0:0:0:
416,191,130329,2,0,L|307:209,1,85,2|0,1:2|1:0,0:0:0:0:
165,127,130644,2,0,L|274:145,1,85,10|8,0:2|0:0,0:0:0:0:
348,328,130960,6,0,B|319:328|298:316|298:316|265:326|265:326|214:312|164:318,1,170,6|8,1:2|0:0,0:0:0:0:
352,311,131434,2,0,B|323:311|302:299|302:299|269:309|269:309|218:295|168:301,1,170,2|0,1:2|1:0,0:0:0:0:
38,245,131907,2,0,P|98:238|131:231,1,85,2|8,0:2|0:0,0:0:0:0:
256,137,132223,5,2,0:2:0:0:
127,122,132381,1,2,1:2:0:0:
270,227,132539,1,8,0:0:0:0:
193,62,132697,1,2,1:2:0:0:
122,233,132855,5,2,1:2:0:0:
346,174,133012,1,2,1:2:0:0:
127,122,133170,1,2,0:2:0:0:
393,65,133328,1,10,0:2:0:0:
278,290,133486,6,0,L|266:203,1,63.7500024318696,6|0,1:2|0:0,0:0:0:0:
270,307,133802,2,0,L|249:156,1,127.500004863739,10|0,0:2|0:0,0:0:0:0:
281,91,134275,1,0,1:0:0:0:
354,152,134433,2,0,P|389:158|422:153,1,63.7500024318696,2|8,0:2|0:0,0:0:0:0:
495,47,134749,6,0,L|408:59,1,63.7500024318696,2|0,0:2|1:0,0:0:0:0:
512,55,135065,2,0,L|361:75,1,127.500004863739,10|10,0:2|0:2,0:0:0:0:
281,91,135539,1,8,0:0:0:0:
191,64,135696,1,2,1:2:0:0:
215,149,135854,1,0,1:0:0:0:
138,1,136012,6,0,B|108:36|108:36|118:142,1,127.500004863739,6|2,1:2|0:2,0:0:0:0:
77,192,136486,2,0,P|37:184|2:190,1,63.7500024318696,2|0,1:2|0:0,0:0:0:0:
136,257,136802,2,0,P|176:249|211:255,1,63.7500024318696,2|8,1:2|0:0,0:0:0:0:
67,384,137117,6,0,B|37:349|37:349|47:243,1,127.500004863739,10|0,0:2|1:0,0:0:0:0:
115,117,137591,1,8,0:0:0:0:
108,134,137907,5,0,1:0:0:0:
254,167,138065,1,0,1:0:0:0:
173,274,138222,2,0,L|162:190,1,63.7500024318696,2|0,1:2|1:0,0:0:0:0:
361,337,138538,6,0,P|310:317|229:335,1,127.500004863739,6|2,1:2|0:2,0:0:0:0:
303,276,139012,2,0,P|315:235|310:188,1,63.7500024318696,2|0,1:2|0:0,0:0:0:0:
206,125,139328,2,0,P|235:155|278:175,1,63.7500024318696,2|0,1:2|0:0,0:0:0:0:
411,81,139643,2,0,B|377:72|338:80|352:96|311:101|281:84,1,127.500004863739,10|0,0:2|1:0,0:0:0:0:
443,2,140117,2,0,P|482:33|486:119,1,127.500004863739,10|2,0:2|1:2,0:0:0:0:
388,170,140591,1,0,1:0:0:0:
495,218,140748,1,10,0:2:0:0:
422,269,140906,1,8,0:0:0:0:
500,334,141064,6,0,P|465:313|359:326,1,127.500004863739,6|2,1:2|0:2,0:0:0:0:
218,258,141538,2,0,P|280:265|337:238,1,127.500004863739,2|0,1:2|1:0,0:0:0:0:
187,172,142012,2,0,L|110:183,1,63.7500024318696,2|8,0:2|0:0,0:0:0:0:
229,93,142327,5,2,0:2:0:0:
229,93,142485,2,0,L|357:105,1,127.500004863739,2|2,1:2|0:2,0:0:0:0:
496,160,142959,1,0,1:0:0:0:
368,186,143117,1,0,1:0:0:0:
491,250,143275,1,0,1:0:0:0:
404,267,143432,1,0,1:0:0:0:
484,313,143590,6,0,L|492:233,1,63.7500024318696,6|0,1:2|0:0,0:0:0:0:
494,329,143906,2,0,L|509:172,1,127.500004863739,2|0,0:2|0:0,0:0:0:0:
467,116,144380,1,0,1:0:0:0:
390,165,144538,2,0,P|349:170|317:166,1,63.7500024318696,2|8,0:2|0:0,0:0:0:0:
190,104,144853,6,0,L|270:96,1,63.7500024318696,2|0,0:2|1:0,0:0:0:0:
179,90,145169,2,0,L|335:74,1,127.500004863739,10|2,0:2|1:2,0:0:0:0:
391,34,145643,1,0,1:0:0:0:
423,124,145801,2,0,P|418:163|405:190,1,63.7500024318696,2|0,1:2|1:0,0:0:0:0:
340,235,146116,6,0,L|256:229,1,63.7500024318696,6|0,1:2|0:0,0:0:0:0:
151,254,146432,1,2,0:2:0:0:
279,329,146590,1,2,1:2:0:0:
232,118,146906,1,2,1:2:0:0:
58,216,147221,6,0,B|52:258|52:258|69:355,1,127.500004863739,10|0,0:2|1:0,0:0:0:0:
131,171,147695,2,0,L|115:92,1,63.7500024318696,8|0,0:0|0:0,0:0:0:0:
201,30,148011,1,0,1:0:0:0:
231,35,148169,1,0,1:0:0:0:
309,102,148327,1,0,1:0:0:0:
339,97,148485,1,2,1:2:0:0:
438,9,148642,6,0,B|416:40|416:40|433:157,1,127.500004863739,6|0,1:2|0:0,0:0:0:0:
329,216,149116,2,0,B|351:185|351:185|334:68,1,127.500004863739,2|0,1:2|1:0,0:0:0:0:
202,170,149590,2,0,L|276:159,1,63.7500024318696,8|10,0:0|0:2,0:0:0:0:
133,82,149905,6,0,P|85:65|13:96,1,127.500004863739,2|2,1:2|0:2,0:0:0:0:
73,221,150379,2,0,B|91:248|91:248|81:143,1,127.500004863739,10|0,0:2|1:0,0:0:0:0:
182,252,150853,1,2,1:2:0:0:
158,334,151011,1,2,1:2:0:0:
137,177,151168,5,14,0:2:0:0:
169,156,151247,1,8,0:0:0:0:
206,147,151326,1,8,0:0:0:0:
244,149,151405,1,8,0:0:0:0:
279,163,151484,1,8,0:0:0:0:
311,183,151563,1,8,0:0:0:0:
348,192,151642,1,8,0:0:0:0:
386,190,151721,1,8,0:0:0:0:
421,176,151800,1,8,0:0:0:0:
440,133,151879,1,8,0:0:0:0:
433,86,151958,1,8,0:0:0:0:
403,50,152037,1,8,0:0:0:0:
359,35,152116,1,8,0:0:0:0:
313,45,152195,1,8,0:0:0:0:
279,78,152274,1,8,0:0:0:0:
268,122,152353,1,8,0:0:0:0:
279,163,152431,1,8,0:0:0:0:
305,202,152510,1,8,0:0:0:0:
311,249,152589,1,8,0:0:0:0:
297,294,152668,1,8,0:0:0:0:
265,329,152747,1,8,0:0:0:0:
221,347,152826,1,8,0:0:0:0:
174,345,152905,1,0,1:0:0:0:
132,322,152984,1,0,1:0:0:0:
116,281,153063,6,0,L|160:269,1,42.5,0|0,1:0|0:0,0:0:0:0:
399,138,153221,2,0,L|356:125,1,42.5,8|0,0:0|0:0,0:0:0:0:
21,75,153694,6,0,B|64:40|64:40|182:33,1,159.375,6|0,1:2|0:0,0:0:0:0:
215,117,154010,2,0,L|66:126,1,106.25,10|0,0:2|0:0,0:0:0:0:
326,52,154326,1,2,1:2:0:0:
294,234,154484,1,0,0:0:0:0:
418,4,154642,1,10,0:2:0:0:
473,177,154800,1,0,0:0:0:0:
204,177,154958,6,0,P|257:139|318:128,1,106.25,2|0,1:2|1:0,0:0:0:0:
462,357,155273,2,0,P|409:319|348:308,1,106.25,10|0,0:2|0:0,0:0:0:0:
70,261,155589,1,0,1:0:0:0:
294,234,155747,1,0,0:0:0:0:
86,371,155905,1,10,0:2:0:0:
203,137,156063,1,8,0:0:0:0:
203,137,156142,1,8,0:0:0:0:
203,137,156221,6,0,L|194:256,1,106.25,6|0,1:2|0:0,0:0:0:0:
393,350,156536,2,0,L|384:231,1,106.25,10|0,0:2|0:0,0:0:0:0:
504,70,156852,2,0,P|459:129|418:162,1,106.25,2|0,1:2|1:0,0:0:0:0:
143,50,157168,2,0,L|296:36,1,106.25,10|0,0:2|0:0,0:0:0:0:
422,218,157484,5,0,1:0:0:0:
196,145,157641,1,0,1:0:0:0:
390,51,157799,1,10,0:2:0:0:
362,308,157957,1,8,0:2:0:0:
362,308,158036,1,8,0:0:0:0:
362,308,158115,1,2,1:2:0:0:
295,99,158273,1,0,0:0:0:0:
494,203,158431,2,0,L|313:187,1,159.375,10|0,0:2|0:0,0:0:0:0:
240,232,158747,6,0,L|358:218,1,106.25,4|0,1:0|0:0,0:0:0:0:
229,27,159062,2,0,P|202:81|207:137,1,106.25,10|0,0:2|0:0,0:0:0:0:
306,313,159378,1,2,1:2:0:0:
295,99,159536,1,0,0:0:0:0:
145,193,159694,2,0,B|36:179|36:179|95:153,1,159.375,10|0,0:2|0:0,0:0:0:0:
203,125,160010,2,0,P|232:173|209:255,1,106.25,2|0,1:2|0:0,0:0:0:0:
83,375,160325,2,0,L|77:249,1,106.25,8|0,0:0|0:0,0:0:0:0:
24,70,160641,1,0,1:0:0:0:
145,193,160799,1,0,1:0:0:0:
174,18,160957,1,8,0:0:0:0:
39,203,161115,1,8,0:0:0:0:
39,203,161194,1,8,0:0:0:0:
39,203,161273,6,0,L|156:191,1,106.25,6|2,1:2|0:2,0:0:0:0:
272,216,161588,1,10,0:2:0:0:
264,36,161746,2,0,P|223:87|214:142,1,106.25,2|2,0:2|1:2,0:0:0:0:
372,215,162062,2,0,P|348:153|305:118,1,106.25,2|8,1:2|0:0,0:0:0:0:
232,324,162378,1,10,0:2:0:0:
437,314,162536,5,0,1:0:0:0:
146,234,162694,1,0,1:0:0:0:
394,137,162851,1,10,0:2:0:0:
158,129,163009,1,0,1:0:0:0:
413,49,163167,5,10,0:2:0:0:
456,66,163246,1,8,0:0:0:0:
484,103,163325,1,8,0:0:0:0:
490,149,163404,1,8,0:0:0:0:
473,191,163483,1,10,0:2:0:0:
438,221,163562,1,8,0:0:0:0:
392,229,163641,2,0,L|313:217,1,53.125,8|8,0:0|0:0,0:0:0:0:
146,109,163799,6,0,B|261:89|261:89|346:110,1,159.375,6|0,1:2|0:0,0:0:0:0:
258,176,164114,2,0,L|126:200,1,106.25,10|0,0:2|0:0,0:0:0:0:
7,64,164430,2,0,P|52:111|57:225,1,159.375,2|0,1:2|0:0,0:0:0:0:
42,322,164746,2,0,P|55:257|89:221,1,106.25,10|0,0:2|0:0,0:0:0:0:
239,314,165062,6,0,L|124:303,1,106.25,2|0,1:2|0:0,0:0:0:0:
339,221,165377,2,0,L|454:210,1,106.25,10|0,0:2|0:0,0:0:0:0:
240,80,165693,1,0,1:0:0:0:
197,210,165851,1,0,1:0:0:0:
359,105,166009,1,10,0:2:0:0:
127,125,166167,1,8,0:0:0:0:
127,125,166246,1,8,0:0:0:0:
127,125,166325,6,0,P|47:112|-2:123,1,106.25,6|0,1:2|0:0,0:0:0:0:
132,378,166640,2,0,P|183:315|198:267,1,106.25,10|0,0:2|0:0,0:0:0:0:
212,54,166956,1,2,1:2:0:0:
65,253,167114,1,0,0:0:0:0:
296,221,167272,2,0,L|427:202,1,106.25,10|0,0:2|0:0,0:0:0:0:
238,297,167588,6,0,P|201:242|202:196,1,106.25,0|0,1:0|1:0,0:0:0:0:
396,102,167904,1,10,0:2:0:0:
375,322,168061,1,8,0:0:0:0:
375,322,168140,1,8,0:0:0:0:
375,322,168219,1,2,1:2:0:0:
274,116,168377,1,0,1:0:0:0:
506,219,168535,2,0,L|385:203,1,106.25,10|0,0:2|0:0,0:0:0:0:
146,165,168851,5,4,1:0:0:0:
396,102,169009,1,0,1:0:0:0:
183,63,169167,1,10,0:2:0:0:
249,307,169324,1,0,0:0:0:0:
336,16,169482,1,2,1:2:0:0:
347,232,169640,1,0,0:0:0:0:
40,174,169798,2,0,L|185:161,1,106.25,10|0,0:2|0:0,0:0:0:0:
359,144,170114,5,0,1:0:0:0:
95,85,170272,1,0,1:0:0:0:
249,307,170430,2,0,L|255:176,1,106.25,10|0,0:2|0:0,0:0:0:0:
201,11,170745,1,0,1:0:0:0:
449,91,170903,1,2,1:2:0:0:
153,244,171061,1,10,0:2:0:0:
270,107,171219,1,2,1:2:0:0:
407,344,171377,5,14,0:2:0:0:
216,190,171535,1,0,1:2:0:0:
365,140,171693,1,2,1:2:0:0:
169,324,171850,5,10,0:2:0:0:
433,227,172008,1,0,1:2:0:0:
270,107,172166,1,0,1:2:0:0:
299,340,172324,5,10,0:2:0:0:
394,66,172482,1,0,1:2:0:0:
433,227,172640,1,0,1:2:0:0:
182,154,172798,5,10,0:2:0:0:
465,138,172956,1,0,1:2:0:0:
283,12,173114,1,0,1:2:0:0:
258,256,173271,5,10,0:2:0:0:
223,279,173350,1,8,0:0:0:0:
181,289,173429,1,8,0:0:0:0:
140,282,173508,1,8,0:0:0:0:
103,261,173587,1,8,0:0:0:0:
78,227,173666,1,8,0:0:0:0:
66,187,173745,2,0,L|56:126,1,53.125,8|0,0:0|0:0,0:0:0:0:
85,56,173903,6,0,L|221:70,1,106.25,0|0,1:0|0:0,0:0:0:0:
191,67,174140,1,0,1:0:0:0:
191,67,174219,1,8,0:0:0:0:
410,34,174377,2,0,L|294:40,1,106.25,0|0,1:0|0:0,0:0:0:0:
303,39,174613,1,0,1:0:0:0:
303,39,174692,1,8,0:0:0:0:
339,236,174850,2,0,P|358:179|351:135,1,106.25,0|0,1:0|0:0,0:0:0:0:
350,134,175087,1,0,1:0:0:0:
350,134,175166,1,8,0:0:0:0:
163,114,175324,1,8,0:0:0:0:
211,307,175482,5,8,0:0:0:0:
255,335,175561,1,8,0:0:0:0:
307,340,175640,1,8,0:0:0:0:
357,322,175718,1,8,0:0:0:0:
392,285,175797,1,0,1:0:0:0:
419,266,175876,1,0,1:0:0:0:
452,263,175955,1,0,1:0:0:0:
484,275,176034,1,0,1:0:0:0:
506,299,176113,2,0,L|499:353,1,53.125,0|0,1:0|0:0,0:0:0:0:
289,246,176271,6,0,L|271:108,1,106.25,0|0,1:0|0:0,0:0:0:0:
198,46,176587,1,0,1:0:0:0:
390,126,176745,1,8,0:0:0:0:
407,209,177376,1,8,0:0:0:0:
424,292,178008,1,8,0:0:0:0:
441,375,178639,1,8,0:0:0:0:
318,299,178797,6,0,P|233:276|156:321,1,170,0|0,1:0|1:0,0:0:0:0:
57,361,179271,1,8,0:0:0:0:
74,278,179902,1,8,0:0:0:0:
91,195,180534,1,8,0:0:0:0:
108,112,181165,1,8,0:0:0:0:
175,215,181323,6,0,B|220:239|220:239|355:225,1,170,0|0,1:0|1:0,0:0:0:0:
390,126,181797,1,8,0:0:0:0:
108,112,182428,1,8,0:0:0:0:
424,292,183060,1,8,0:0:0:0:
110,269,183691,1,8,0:0:0:0:
272,163,183849,6,0,L|261:346,1,170,0|0,1:0|1:0,0:0:0:0:
181,206,184323,1,8,0:0:0:0:
367,141,184954,1,8,0:0:0:0:
191,69,185586,1,8,0:0:0:0:
278,48,185902,5,0,1:0:0:0:
190,235,186060,1,0,1:0:0:0:
81,118,186217,1,8,0:0:0:0:
118,303,186375,6,0,B|160:333|160:333|284:318,1,152.999995330811,4|0,1:0|0:0,0:0:0:0:
348,262,186691,1,0,1:0:0:0:
74,198,186849,1,8,0:0:0:0:
294,92,187007,1,0,1:0:0:0:
294,92,187086,1,0,1:0:0:0:
294,92,187165,1,0,0:0:0:0:
190,235,187323,1,8,0:0:0:0:
117,32,187480,1,0,1:0:0:0:
117,32,187559,1,0,1:0:0:0:
117,32,187638,1,0,1:0:0:0:
314,182,187796,1,8,0:0:0:0:
74,198,187954,1,0,0:0:0:0:
74,198,188033,1,8,0:0:0:0:
74,198,188112,1,0,1:0:0:0:
224,67,188270,1,0,1:0:0:0:
224,67,188349,1,0,1:0:0:0:
224,67,188428,1,8,0:0:0:0:
191,300,188586,5,8,0:0:0:0:
137,138,188743,1,0,1:0:0:0:
341,302,188901,6,0,B|271:294|271:294|241:305|241:305|168:297,1,152.999995330811,4|0,1:0|0:0,0:0:0:0:
98,248,189217,1,0,1:0:0:0:
324,190,189375,5,12,0:0:0:0:
137,138,189533,1,0,1:0:0:0:
333,67,189691,1,0,1:0:0:0:
95,42,189849,5,12,0:0:0:0:
254,127,190006,1,0,1:0:0:0:
42,178,190164,1,0,1:0:0:0:
213,30,190322,5,12,0:0:0:0:
162,242,190480,1,0,1:0:0:0:
25,94,190638,1,0,1:0:0:0:
60,306,190796,5,12,0:0:0:0:
131,117,190954,1,0,1:0:0:0:
274,281,191112,2,0,L|268:398,1,101.999996887207,14|8,0:2|0:0,0:0:0:0:
350,73,191427,6,0,L|361:292,1,203.999993774414,6|0,1:2|1:0,0:0:0:0:
249,146,191901,1,8,0:0:0:0:
436,162,192059,1,0,1:0:0:0:
474,157,192138,1,0,1:0:0:0:
512,152,192217,1,0,1:0:0:0:
350,73,192375,1,10,0:2:0:0:
285,253,192533,1,0,1:0:0:0:
234,259,192611,1,0,1:0:0:0:
187,242,192690,1,2,1:2:0:0:
154,204,192769,1,0,1:0:0:0:
142,155,192848,6,0,L|79:173,1,50.9999984436036,0|0,1:0|1:0,0:0:0:0:
119,56,193006,1,0,1:0:0:0:
169,59,193085,1,0,1:0:0:0:
220,63,193164,1,0,1:0:0:0:
271,67,193243,1,0,1:0:0:0:
323,72,193322,2,0,L|338:142,3,50.9999984436036,0|0|0|0,1:0|1:0|1:0|1:0,0:0:0:0:
403,177,193638,1,2,1:2:0:0:
394,214,193717,1,0,1:0:0:0:
386,245,193796,2,0,L|368:308,1,50.9999984436036,0|0,1:0|1:0,0:0:0:0:
276,354,193953,6,0,P|225:333|94:358,1,152.999995330811,6|0,1:2|0:0,0:0:0:0:
46,368,194269,1,0,1:0:0:0:
225,244,194427,5,12,0:0:0:0:
52,132,194585,1,0,1:0:0:0:
218,68,194743,1,0,1:0:0:0:
51,247,194901,5,8,0:0:0:0:
299,158,195059,1,4,1:0:0:0:
129,103,195216,1,0,1:0:0:0:
164,325,195374,5,12,0:0:0:0:
216,153,195532,1,0,1:0:0:0:
289,350,195690,1,0,1:0:0:0:
352,86,195848,5,8,0:0:0:0:
279,262,196006,1,0,1:0:0:0:
148,20,196164,5,8,0:0:0:0:
413,156,196322,1,8,0:0:0:0:
198,237,196479,6,0,B|114:228|114:228|84:246|84:246|-14:239,1,203.999993774414,6|0,1:2|1:0,0:0:0:0:
107,53,196953,2,0,P|138:108|136:158,1,101.999996887207,12|0,0:0|0:0,0:0:0:0:
175,368,197269,2,0,B|173:306|173:306|227:139,1,203.999993774414,2|10,1:2|0:2,0:0:0:0:
430,321,197742,6,0,P|378:359|253:278,1,203.999993774414,6|0,1:2|1:0,0:0:0:0:
363,166,198216,2,0,L|349:285,1,101.999996887207,12|0,0:0|0:0,0:0:0:0:
214,112,198532,2,0,B|263:88|321:108|306:138|360:155|426:119,1,203.999993774414,2|8,1:2|0:0,0:0:0:0:
169,28,199006,6,0,B|122:74|122:74|141:221,1,203.999993774414,6|0,1:2|1:0,0:0:0:0:
224,369,199479,1,14,0:2:0:0:
27,310,199637,2,0,P|116:254|218:285,1,203.999993774414,2|0,0:2|1:0,0:0:0:0:
331,365,200111,1,10,0:2:0:0:
425,201,200269,6,0,B|278:219|278:219|228:192,1,203.999993774414,6|2,1:2|1:2,0:0:0:0:
156,69,200742,1,14,0:2:0:0:
298,117,200900,1,2,0:2:0:0:
149,264,201058,2,0,L|134:146,1,101.999996887207,0|0,1:0|1:0,0:0:0:0:
43,53,201374,1,8,0:0:0:0:
228,192,201532,6,0,P|280:142|416:167,1,203.999993774414,6|0,1:2|1:0,0:0:0:0:
326,332,202005,2,0,L|329:226,1,101.999996887207,12|0,0:0|0:0,0:0:0:0:
225,90,202321,2,0,L|228:196,1,101.999996887207,2|0,1:2|1:0,0:0:0:0:
417,223,202637,1,10,0:2:0:0:
285,8,202795,6,0,B|201:2|201:2|175:15|175:15|72:9,1,203.999993774414,6|0,1:2|1:0,0:0:0:0:
0,116,203268,2,0,L|115:102,1,101.999996887207,12|0,0:0|0:0,0:0:0:0:
268,206,203584,2,0,L|153:192,1,101.999996887207,2|0,1:2|1:0,0:0:0:0:
329,121,203900,1,10,0:2:0:0:
401,312,204058,6,0,L|283:296,1,101.999996887207,6|0,1:2|0:0,0:0:0:0:
90,274,204373,1,8,0:0:0:0:
268,206,204531,1,8,0:0:0:0:
75,104,204689,1,8,0:0:0:0:
181,296,204847,1,8,0:0:0:0:
253,75,205005,1,8,0:0:0:0:
31,194,205163,1,8,0:0:0:0:
324,319,205321,1,8,0:0:0:0:
82,382,205479,6,0,L|10:368,2,67.9999979248048,8|0|0,0:0|0:0|0:0,0:0:0:0:
181,296,205794,2,0,L|247:284,2,67.9999979248048,8|0|0,0:0|0:0|0:0,0:0:0:0:
100,219,206110,5,10,0:2:0:0:
336,244,206347,1,10,0:2:0:0:
254,46,206584,1,10,0:2:0:0:
232,166,206742,5,10,0:2:0:0:
466,194,206978,1,10,0:2:0:0:
327,358,207215,1,10,0:2:0:0:
248,89,208005,6,0,B|176:99|176:99|153:119|153:119|89:127,1,165.749992412568,6|0,1:2|0:0,0:0:0:0:
2,54,208320,2,0,L|122:40,1,110.499994941712,10|0,0:2|0:0,0:0:0:0:
195,225,208636,1,2,1:2:0:0:
28,186,208794,1,0,0:0:0:0:
275,175,208952,2,0,L|395:189,1,110.499994941712,10|0,0:2|0:0,0:0:0:0:
334,378,209268,6,0,P|315:315|327:252,1,110.499994941712,2|0,1:2|1:0,0:0:0:0:
437,99,209583,2,0,L|407:328,1,220.999989883423,10|0,0:2|1:0,0:0:0:0:
191,276,210057,1,0,0:0:0:0:
335,198,210215,1,10,0:2:0:0:
186,153,210373,1,8,0:0:0:0:
152,144,210452,1,8,0:0:0:0:
123,139,210531,6,0,L|12:151,1,110.499994941712,6|0,1:2|0:0,0:0:0:0:
224,366,210846,2,0,L|333:377,1,110.499994941712,10|0,0:2|0:0,0:0:0:0:
92,238,211162,2,0,P|87:280|114:356,1,110.499994941712,2|0,1:2|1:0,0:0:0:0:
296,278,211478,2,0,P|301:236|274:160,1,110.499994941712,10|0,0:2|0:0,0:0:0:0:
159,27,211794,5,0,1:0:0:0:
327,78,211952,1,0,1:0:0:0:
39,114,212109,1,10,0:2:0:0:
281,171,212267,1,8,0:0:0:0:
312,182,212346,1,8,0:0:0:0:
347,192,212425,2,0,L|458:180,1,110.499994941712,2|0,1:2|0:0,0:0:0:0:
183,123,212741,2,0,P|172:190|197:248,1,110.499994941712,10|0,0:2|0:0,0:0:0:0:
332,384,213057,6,0,L|348:233,1,110.499994941712,4|0,1:0|0:0,0:0:0:0:
499,104,213372,2,0,L|515:255,1,110.499994941712,10|0,0:2|0:0,0:0:0:0:
322,79,213688,2,0,P|382:50|438:57,1,110.499994941712,2|0,1:2|0:0,0:0:0:0:
327,183,214004,2,0,L|208:169,1,110.499994941712,10|0,0:2|0:0,0:0:0:0:
24,120,214320,5,2,1:2:0:0:
245,77,214478,1,0,0:0:0:0:
10,225,214635,1,8,0:0:0:0:
217,170,214793,1,0,0:0:0:0:
91,35,214951,5,0,1:0:0:0:
206,260,215109,1,0,1:0:0:0:
183,0,215267,1,8,0:0:0:0:
96,205,215425,1,8,0:0:0:0:
86,241,215504,1,8,0:0:0:0:
78,275,215583,6,0,L|96:391,1,110.499994941712,6|0,1:2|0:0,0:0:0:0:
305,152,215898,1,10,0:2:0:0:
270,319,216056,1,2,0:2:0:0:
153,103,216214,1,0,1:0:0:0:
179,265,216372,1,2,1:2:0:0:
330,63,216530,1,8,0:0:0:0:
317,247,216688,1,10,0:2:0:0:
114,183,216846,5,0,1:0:0:0:
415,76,217004,1,0,1:0:0:0:
78,73,217161,1,10,0:2:0:0:
363,178,217319,1,0,1:0:0:0:
233,2,217477,5,10,0:2:0:0:
191,37,217556,1,8,0:0:0:0:
172,88,217635,1,8,0:0:0:0:
181,142,217714,1,8,0:0:0:0:
216,184,217793,1,10,0:2:0:0:
257,219,217872,1,8,0:0:0:0:
276,270,217951,1,8,0:0:0:0:
267,324,218030,1,8,0:0:0:0:
232,366,218109,6,0,B|112:349|112:349|23:367,1,165.749992412568,6|0,1:2|0:0,0:0:0:0:
52,274,218425,2,0,B|112:262|112:262|194:274,1,110.499994941712,10|0,0:2|0:0,0:0:0:0:
464,141,218740,2,0,P|408:173|296:114,1,165.749992412568,2|0,1:2|0:0,0:0:0:0:
258,81,219056,2,0,L|276:227,1,110.499994941712,10|0,0:2|0:0,0:0:0:0:
95,43,219372,6,0,P|154:11|226:32,1,110.499994941712,2|0,1:2|0:0,0:0:0:0:
182,256,219688,2,0,B|148:222|148:222|165:73,1,165.749992412568,10|0,0:2|0:0,0:0:0:0:
258,81,220003,2,0,L|237:229,1,110.499994941712,0|0,1:0|1:0,0:0:0:0:
274,359,220319,1,10,0:2:0:0:
409,241,220477,1,8,0:0:0:0:
409,241,220556,1,8,0:0:0:0:
409,241,220635,6,0,P|315:240|266:264,1,110.499994941712,6|0,1:2|0:0,0:0:0:0:
69,346,220951,2,0,P|163:347|212:323,1,110.499994941712,10|0,0:2|0:0,0:0:0:0:
107,136,221266,2,0,L|117:262,1,110.499994941712,2|0,1:2|0:0,0:0:0:0:
362,142,221582,2,0,L|372:16,1,110.499994941712,10|0,0:2|0:0,0:0:0:0:
179,162,221898,5,0,1:0:0:0:
283,215,222056,1,0,1:0:0:0:
99,251,222214,1,10,0:2:0:0:
161,67,222371,1,8,0:0:0:0:
255,308,222529,2,0,P|292:314|357:285,1,110.499994941712,2|0,1:2|1:0,0:0:0:0:
416,93,222845,2,0,P|392:122|384:192,1,110.499994941712,10|0,0:2|0:0,0:0:0:0:
484,365,223161,5,4,1:0:0:0:
479,165,223319,1,0,1:0:0:0:
291,228,223477,1,10,0:2:0:0:
509,276,223634,1,0,0:0:0:0:
295,114,223792,2,0,L|166:123,1,110.499994941712,2|0,1:2|0:0,0:0:0:0:
26,252,224108,2,0,L|136:259,1,110.499994941712,10|0,0:2|0:0,0:0:0:0:
340,350,224424,5,2,1:2:0:0:
221,171,224582,1,0,1:0:0:0:
162,355,224740,1,8,0:0:0:0:
374,253,224898,1,0,0:0:0:0:
123,207,225055,1,0,1:0:0:0:
253,374,225213,1,0,1:0:0:0:
335,159,225371,1,8,0:0:0:0:
109,97,225529,1,2,1:2:0:0:
109,97,225608,1,0,0:0:0:0:
109,97,225687,6,0,L|124:223,1,110.499994941712,14|0,0:2|1:0,0:0:0:0:
291,64,226003,1,2,1:2:0:0:
321,268,226161,2,0,L|336:142,1,110.499994941712,10|0,0:2|1:0,0:0:0:0:
46,318,226476,2,0,L|31:192,1,110.499994941712,2|8,1:2|0:0,0:0:0:0:
205,98,226792,1,2,1:2:0:0:
13,32,226950,5,8,0:0:0:0:
178,184,227108,1,0,1:0:0:0:
189,0,227266,1,10,0:2:0:0:
32,208,227424,1,0,1:0:0:0:
205,98,227581,5,10,0:2:0:0:
237,76,227660,1,8,0:0:0:0:
274,66,227739,1,8,0:0:0:0:
312,67,227818,1,8,0:0:0:0:
348,80,227897,1,10,0:2:0:0:
380,101,227976,1,8,0:0:0:0:
417,111,228055,1,8,0:0:0:0:
455,110,228134,1,8,0:0:0:0:
491,97,228213,6,0,L|479:223,1,110.499994941712,6|0,1:2|1:0,0:0:0:0:
273,355,228529,1,10,0:2:0:0:
512,305,228687,1,0,1:0:0:0:
417,111,228844,1,10,0:2:0:0:
464,377,229002,1,0,1:0:0:0:
298,85,229160,1,10,0:2:0:0:
211,289,229318,1,0,1:0:0:0:
140,79,229476,5,14,0:2:0:0:
379,6,229634,1,0,1:0:0:0:
160,203,229792,2,0,L|21:185,1,110.499994941712,10|0,0:2|1:0,0:0:0:0:
229,0,230108,2,0,P|254:55|242:127,1,110.499994941712,8|0,0:0|1:0,0:0:0:0:
329,286,230423,2,0,P|304:231|316:159,1,110.499994941712,8|0,0:0|1:0,0:0:0:0:
486,27,230739,5,12,0:0:0:0:
157,75,230897,1,0,1:0:0:0:
400,219,231055,1,8,0:0:0:0:
122,291,231213,1,0,1:0:0:0:
338,81,231371,1,8,0:0:0:0:
270,345,231528,1,0,1:0:0:0:
140,55,231686,1,8,0:0:0:0:
208,261,231844,1,0,1:0:0:0:
442,95,232002,5,12,0:0:0:0:
223,138,232160,1,0,1:0:0:0:
347,311,232318,2,0,L|357:171,1,110.499994941712,8|0,0:0|1:0,0:0:0:0:
19,196,232634,2,0,P|85:201|127:182,1,110.499994941712,10|0,0:0|1:0,0:0:0:0:
251,310,232949,2,0,P|185:305|143:324,1,110.499994941712,8|0,0:0|1:0,0:0:0:0:
424,354,233265,5,14,0:2:0:0:
201,215,233423,1,0,1:0:0:0:
477,169,233581,1,10,0:2:0:0:
223,106,233739,1,0,1:0:0:0:
432,0,233897,1,10,0:2:0:0:
365,252,234054,1,0,1:0:0:0:
145,27,234212,2,0,L|296:12,1,110.499994941712,10|0,0:2|1:0,0:0:0:0:
477,169,234528,6,0,L|360:161,1,110.499994941712,14|0,0:2|1:0,0:0:0:0:
55,132,234844,1,10,0:2:0:0:
291,79,235002,1,0,1:0:0:0:
145,304,235160,1,8,0:0:0:0:
102,41,235317,1,0,1:0:0:0:
316,214,235475,1,8,0:0:0:0:
38,294,235633,1,0,1:0:0:0:
195,85,235791,6,0,P|220:147|214:217,1,110.499994941712,12|0,0:0|1:0,0:0:0:0:
341,318,236107,2,0,P|316:256|322:186,1,110.499994941712,8|0,0:0|1:0,0:0:0:0:
416,37,236423,1,8,0:0:0:0:
435,250,236581,1,0,1:0:0:0:
195,85,236738,1,8,0:0:0:0:
429,124,236896,1,0,1:0:0:0:
130,251,237054,6,0,L|7:243,1,110.499994941712,12|0,0:0|1:0,0:0:0:0:
318,131,237370,2,0,L|428:123,1,110.499994941712,8|0,0:0|1:0,0:0:0:0:
241,303,237686,1,8,0:0:0:0:
235,257,237765,1,8,0:0:0:0:
229,208,237844,1,8,0:0:0:0:
222,156,237922,1,8,0:0:0:0:
219,114,238001,2,0,L|204:261,1,110.499994941712,10|0,0:2|1:0,0:0:0:0:
42,72,238317,6,0,P|113:47|183:52,1,110.499994941712,14|0,0:2|1:0,0:0:0:0:
404,187,238633,1,8,0:0:0:0:
118,152,238791,1,2,1:2:0:0:
402,77,238949,1,8,0:0:0:0:
353,327,239107,1,0,1:0:0:0:
78,252,239264,6,0,B|171:242|171:242|214:254|214:254|302:246,1,220.999989883423,10|12,0:2|0:0,0:0:0:0:
277,72,239738,2,0,P|240:106|236:185,1,110.499994941712,2|8,1:2|0:0,0:0:0:0:
403,294,240054,1,0,1:0:0:0:
430,139,240212,2,0,L|306:149,1,110.499994941712,10|0,0:2|1:0,0:0:0:0:
69,30,240527,2,0,L|179:38,1,110.499994941712,10|0,0:2|1:0,0:0:0:0:
158,254,240843,6,0,P|131:184|140:126,1,110.499994941712,14|0,0:2|1:0,0:0:0:0:
317,0,241159,1,8,0:0:0:0:
239,179,241317,1,2,1:2:0:0:
69,30,241475,1,8,0:0:0:0:
351,102,241633,1,0,1:0:0:0:
254,289,241790,2,0,L|237:158,1,110.499994941712,10|0,0:2|1:0,0:0:0:0:
451,63,242106,6,0,L|434:194,1,110.499994941712,12|2,0:0|1:2,0:0:0:0:
110,153,242422,1,8,0:0:0:0:
351,102,242580,1,0,1:0:0:0:
149,261,242738,2,0,L|21:249,1,110.499994941712,10|0,0:2|1:0,0:0:0:0:
315,364,243054,2,0,L|443:352,1,110.499994941712,10|0,0:2|1:0,0:0:0:0:
244,52,243369,6,0,P|235:119|248:168,1,110.499994941712,14|0,0:2|1:0,0:0:0:0:
423,245,243685,2,0,L|289:229,1,110.499994941712,8|2,0:0|1:2,0:0:0:0:
71,164,244001,1,8,0:0:0:0:
337,106,244159,1,0,1:0:0:0:
151,294,244317,1,10,0:2:0:0:
77,49,244474,1,0,1:0:0:0:
329,239,244632,5,12,0:0:0:0:
41,267,244790,1,2,1:2:0:0:
278,115,244948,1,8,0:0:0:0:
243,298,245106,1,0,1:0:0:0:
86,76,245264,2,0,L|109:211,1,110.499994941712,10|0,0:2|1:0,0:0:0:0:
394,47,245580,2,0,L|371:182,1,110.499994941712,10|0,0:2|1:0,0:0:0:0:
152,348,245895,5,14,0:2:0:0:
189,121,246053,1,0,1:2:0:0:
370,336,246211,1,2,1:2:0:0:
290,60,246369,1,10,0:2:0:0:
301,50,246843,5,10,0:2:0:0:
298,285,247000,1,0,1:0:0:0:
85,74,247158,1,10,0:2:0:0:
157,363,247316,1,6,1:2:0:0:
