osu file format v14

[General]
AudioFilename: audio.mp3
AudioLeadIn: 0
PreviewTime: 207926
Countdown: 0
SampleSet: Soft
StackLeniency: 0.7
Mode: 0
LetterboxInBreaks: 0
WidescreenStoryboard: 1

[Editor]
DistanceSpacing: 1.3
BeatDivisor: 4
GridSize: 32
TimelineZoom: 0.9999999

[Metadata]
Title:Kanzen Kankaku Dreamer
TitleUnicode:完全感覚Dreamer
Artist:ONE OK ROCK
ArtistUnicode:ONE OK ROCK
Creator:Nevo
Version:Agatsu's Hard
Source:
Tags:japanese rock smokeman akitoshi agatsu kowari reform -Laura- xchorse corinn kujinn
BeatmapID:2235031
BeatmapSetID:940222

[Difficulty]
HPDrainRate:4.5
CircleSize:3.7
OverallDifficulty:6
ApproachRate:8
SliderMultiplier:1.4
SliderTickRate:1

[Events]
//Background and Video events
0,0,"851179.jpg",0,0
//Break Periods
//Storyboard Layer 0 (Background)
//Storyboard Layer 1 (Fail)
//Storyboard Layer 2 (Pass)
//Storyboard Layer 3 (Foreground)
//Storyboard Layer 4 (Overlay)
//Storyboard Sound Samples

[TimingPoints]
2132,315.756236185665,4,2,1,75,1,0
7184,-100,4,2,1,75,0,0
31813,-100,4,2,1,75,0,0
32444,-111.111111111111,4,2,1,75,0,0
52652,-111.111111111111,4,2,1,65,0,0
70335,-100,4,2,1,65,0,0
72861,-100,4,2,1,90,0,1
93069,-100,4,2,1,75,0,0
103173,-100,4,2,1,75,0,0
113278,-125,4,2,1,60,0,0
115804,-111.111111111111,4,2,1,75,0,0
133486,-111.111111111111,4,2,1,65,0,0
153063,-100,4,2,1,70,0,0
153694,-100,4,2,1,90,0,1
173271,-100,4,2,1,70,0,0
178797,-100,4,2,1,70,0,0
186375,-100,4,2,1,70,0,0
208005,-100,4,2,1,90,0,1
227581,-100,4,2,1,90,0,0
228213,-100,4,2,1,90,0,1
246369,-100,4,2,1,90,0,0
246843,-100,4,2,1,90,0,1
247316,-100,4,2,1,90,0,0

[Colours]
Combo1 : 255,163,70
Combo2 : 217,0,217
Combo3 : 187,0,0
Combo4 : 2,77,189

[HitObjects]
21,141,2132,6,0,L|25:68,2,70,12|0|0,0:0|1:0|1:0,0:0:0:0:
68,210,2605,2,0,L|147:207,1,70,8|0,0:0|1:0,0:0:0:0:
207,159,2921,2,0,L|286:162,1,70,8|0,0:0|1:0,0:0:0:0:
349,117,3237,1,0,1:0:0:0:
415,167,3395,6,0,P|416:209|411:253,1,70,8|0,0:0|1:0,0:0:0:0:
359,301,3710,2,0,P|358:343|363:387,1,70,8|0,0:0|1:0,0:0:0:0:
272,280,4026,2,0,L|225:274,3,35,8|8|8|8,0:0|0:0|0:0|0:0,0:0:0:0:
203,301,4342,2,0,L|156:307,3,35,8|8|8|8,0:0|0:0|0:0|0:0,0:0:0:0:
164,347,4658,6,0,L|54:359,1,105,0|0,1:0|1:0,0:0:0:0:
19,369,4973,1,8,0:0:0:0:
12,285,5131,2,0,L|3:162,1,105,8|8,0:0|0:0,0:0:0:0:
4,137,5447,1,8,0:0:0:0:
70,86,5605,2,0,P|106:88|151:85,1,70,8|8,0:0|0:0,0:0:0:0:
163,121,5842,1,8,0:0:0:0:
163,121,5921,5,8,0:0:0:0:
246,104,6078,1,8,0:0:0:0:
327,126,6236,1,8,0:0:0:0:
327,126,6315,2,0,L|413:118,1,70,8|8,0:0|0:0,0:0:0:0:
435,137,6552,2,0,L|441:89,3,35,0|0|0|0,1:0|1:0|1:0|1:0,0:0:0:0:
473,76,6868,2,0,L|468:41,3,35,0|0|0|0,1:0|1:0|1:0|1:0,0:0:0:0:
432,12,7184,6,0,L|360:9,1,70,4|0,1:0|1:0,0:0:0:0:
276,40,7499,2,0,P|245:102|253:183,1,140,8|0,0:0|1:0,0:0:0:0:
318,230,7973,2,0,L|398:222,2,70,0|0|8,1:0|0:0|0:0,0:0:0:0:
264,304,8447,6,0,L|183:297,1,70,0|0,0:0|1:0,0:0:0:0:
141,223,8762,2,0,P|145:177|144:141,1,70,8|0,0:0|0:0,0:0:0:0:
219,99,9078,1,0,0:0:0:0:
219,99,9236,1,0,1:0:0:0:
163,26,9394,2,0,L|83:20,1,70,8|0,0:0|0:0,0:0:0:0:
11,61,9710,6,0,P|10:107|4:161,1,70,4|0,1:0|1:0,0:0:0:0:
57,207,10025,2,0,L|59:356,1,140,8|0,0:0|1:0,0:0:0:0:
146,373,10499,1,0,1:0:0:0:
228,334,10657,2,0,L|315:344,1,70,0|8,0:0|0:0,0:0:0:0:
382,307,10973,6,0,L|387:227,2,70,0|0|8,0:0|1:0|0:0,0:0:0:0:
434,381,11446,1,0,0:0:0:0:
512,335,11604,2,0,P|514:291|509:245,1,70
451,196,11920,2,0,L|371:190,1,70,8|0,0:0|0:0,0:0:0:0:
309,134,12236,6,0,L|313:53,1,70,4|0,1:0|1:0,0:0:0:0:
383,6,12551,2,0,P|452:10|501:68,1,140,8|0,0:0|1:0,0:0:0:0:
492,150,13025,2,0,L|487:236,1,70,0|0,1:0|0:0,0:0:0:0:
434,294,13341,6,0,B|357:273|375:307|286:283,1,140,8|0,0:0|1:0,0:0:0:0:
224,228,13814,2,0,L|229:148,1,70,8|0,0:0|0:0,0:0:0:0:
169,88,14130,1,0,1:0:0:0:
169,88,14288,1,0,1:0:0:0:
83,119,14446,2,0,L|87:188,1,70,8|0,0:0|0:0,0:0:0:0:
32,262,14762,6,0,P|27:309|28:349,1,70,4|0,1:0|1:0,0:0:0:0:
113,360,15078,2,0,L|264:353,1,140,8|0,0:0|1:0,0:0:0:0:
332,309,15551,2,0,L|428:318,1,70,0|0,1:0|0:0,0:0:0:0:
480,269,15867,6,0,P|478:204|485:114,1,140,8|0,0:0|1:0,0:0:0:0:
415,67,16341,2,0,L|334:64,1,70,8|0,0:0|0:0,0:0:0:0:
262,102,16656,1,0,1:0:0:0:
318,187,16814,1,8,0:0:0:0:
318,187,16893,1,8,0:0:0:0:
318,187,16972,2,0,L|318:241,3,35,8|8|8|8,0:0|0:0|0:0|0:0,0:0:0:0:
360,240,17288,6,0,L|354:322,1,70,4|0,1:0|1:0,0:0:0:0:
284,368,17604,2,0,P|219:371|156:333,1,140,8|0,0:0|1:0,0:0:0:0:
124,248,18077,1,0,1:0:0:0:
178,175,18235,2,0,P|179:127|177:88,1,70,0|8,0:0|0:0,0:0:0:0:
112,41,18551,6,0,L|42:37,2,70,0|0|8,0:0|1:0|0:0,0:0:0:0:
196,6,19024,1,0,0:0:0:0:
271,56,19182,1,0,0:0:0:0:
271,56,19340,1,0,1:0:0:0:
268,147,19498,2,0,P|265:184|266:237,1,70,8|0,0:0|0:0,0:0:0:0:
328,283,19814,6,0,L|406:280,1,70,4|0,1:0|1:0,0:0:0:0:
484,311,20130,2,0,P|500:232|485:163,1,140,8|0,0:0|1:0,0:0:0:0:
422,112,20603,1,0,1:0:0:0:
336,143,20761,2,0,L|248:140,1,70,0|8,0:0|0:0,0:0:0:0:
199,77,21077,6,0,L|111:82,1,70,0|0,0:0|1:0,0:0:0:0:
58,139,21393,2,0,P|53:189|54:221,1,70,8|0,0:0|0:0,0:0:0:0:
109,280,21708,1,0,0:0:0:0:
109,280,21866,1,0,1:0:0:0:
195,253,22024,2,0,L|282:255,1,70,8|0,0:0|0:0,0:0:0:0:
344,208,22340,6,0,L|349:129,1,70,4|0,1:0|1:0,0:0:0:0:
435,166,22656,2,0,L|445:329,1,140,8|0,0:0|1:0,0:0:0:0:
381,372,23129,2,0,L|296:366,1,70,0|0,1:0|0:0,0:0:0:0:
243,305,23445,6,0,P|164:297|99:332,1,140,8|0,0:0|1:0,0:0:0:0:
38,265,23919,2,0,P|36:224|39:184,1,70,8|0,0:0|0:0,0:0:0:0:
91,121,24234,1,0,1:0:0:0:
91,121,24392,1,0,0:0:0:0:
176,151,24550,2,0,L|277:145,1,70,8|0,0:0|0:0,0:0:0:0:
317,89,24866,6,0,P|314:46|314:7,2,70,4|0|8,1:0|1:0|0:0,0:0:0:0:
379,155,25340,1,0,0:0:0:0:
322,225,25497,1,0,1:0:0:0:
322,225,25655,2,0,L|317:311,1,70,0|0,1:0|0:0,0:0:0:0:
260,366,25971,6,0,P|336:337|409:351,1,140,8|0,0:0|1:0,0:0:0:0:
482,363,26445,1,8,0:0:0:0:
482,363,26603,1,0,1:0:0:0:
510,277,26760,2,0,L|506:201,1,70,8|0,0:0|1:0,0:0:0:0:
436,147,27076,1,8,0:0:0:0:
267,216,27392,6,0,L|185:211,1,70,0|0,1:0|0:0,0:0:0:0:
155,137,27708,2,0,L|73:142,1,70,8|0,0:0|0:0,0:0:0:0:
24,200,28024,1,8,0:0:0:0:
52,365,28339,2,0,L|134:360,1,70,8|0,0:0|0:0,0:0:0:0:
164,286,28655,2,0,L|246:291,1,70,8|0,0:0|0:0,0:0:0:0:
295,349,28971,1,8,0:0:0:0:
447,278,29287,6,0,P|450:238|448:190,1,70,8|0,0:0|0:0,0:0:0:0:
362,135,29602,2,0,P|359:175|361:223,1,70,8|0,0:0|0:0,0:0:0:0:
283,241,29918,6,0,L|206:235,1,70,8|0,0:0|0:0,0:0:0:0:
145,184,30234,1,8,0:0:0:0:
145,184,30392,2,0,L|68:190,1,70,0|8,0:0|0:0,0:0:0:0:
165,47,30865,2,0,L|242:53,1,70,8|0,0:0|0:0,0:0:0:0:
303,104,31181,2,0,L|380:98,1,70,8|0,0:0|0:0,0:0:0:0:
442,50,31497,1,8,0:0:0:0:
500,208,31813,6,0,L|506:135,2,70,0|0|2,1:0|1:0|1:2,0:0:0:0:
427,251,32286,1,0,1:0:0:0:
471,320,32444,6,0,P|422:300|336:300,1,125.999996154785,6|8,1:2|0:0,0:0:0:0:
293,237,32918,2,0,L|303:87,1,125.999996154785,2|0,1:2|1:0,0:0:0:0:
246,50,33391,1,10,0:2:0:0:
246,50,33549,6,0,L|169:43,1,62.9999980773926,8|0,0:0|0:0,0:0:0:0:
110,83,33865,1,2,1:2:0:0:
146,156,34023,2,0,P|149:204|146:241,1,62.9999980773926,8|0,0:0|0:0,0:0:0:0:
89,276,34339,2,0,L|21:271,1,62.9999980773926,2|0,1:2|1:0,0:0:0:0:
54,367,34654,2,0,L|122:362,1,62.9999980773926,10|8,0:2|0:0,0:0:0:0:
187,319,34970,6,0,B|260:311|240:349|324:333,1,125.999996154785,6|8,1:2|0:0,0:0:0:0:
386,365,35444,1,2,1:2:0:0:
491,239,35760,1,0,1:0:0:0:
428,186,35917,1,2,0:2:0:0:
428,186,36075,6,0,L|348:178,1,62.9999980773926,8|0,0:0|0:0,0:0:0:0:
307,121,36391,2,0,P|304:80|305:42,1,62.9999980773926,2|8,1:2|0:0,0:0:0:0:
369,8,36707,1,0,0:0:0:0:
446,36,36865,2,0,L|438:103,1,62.9999980773926,2|0,1:2|1:0,0:0:0:0:
504,146,37180,2,0,L|512:213,1,62.9999980773926,10|0,0:2|0:0,0:0:0:0:
457,270,37496,6,0,P|391:281|322:264,1,125.999996154785,6|8,1:2|0:0,0:0:0:0:
257,242,37970,2,0,L|247:380,1,125.999996154785,2|0,1:2|1:0,0:0:0:0:
169,342,38443,2,0,L|92:332,1,62.9999980773926,2|8,0:2|0:0,0:0:0:0:
41,283,38759,5,0,0:0:0:0:
82,212,38917,2,0,P|76:158|68:128,1,62.9999980773926,2|8,1:2|0:0,0:0:0:0:
111,75,39233,1,0,0:0:0:0:
111,75,39391,2,0,L|179:66,1,62.9999980773926,2|0,1:2|1:0,0:0:0:0:
228,5,39706,2,0,L|296:14,1,62.9999980773926,2|8,0:2|0:0,0:0:0:0:
355,64,40022,6,0,P|416:73|483:50,1,125.999996154785,6|8,1:2|0:0,0:0:0:0:
507,130,40496,1,2,1:2:0:0:
389,244,40812,1,0,1:0:0:0:
459,285,40970,2,0,L|464:360,1,62.9999980773926,2|8,0:2|0:0,0:0:0:0:
383,365,41285,5,2,0:2:0:0:
383,365,41443,2,0,P|344:360|308:356,1,62.9999980773926,2|8,1:2|0:0,0:0:0:0:
259,302,41759,1,2,0:2:0:0:
291,226,41917,2,0,L|285:149,1,62.9999980773926,0|0,1:0|1:0,0:0:0:0:
212,126,42233,2,0,L|218:49,1,62.9999980773926,8|0,0:0|0:0,0:0:0:0:
150,15,42548,6,0,P|68:26|28:66,1,125.999996154785,6|8,1:2|0:0,0:0:0:0:
31,135,43022,2,0,L|38:280,1,125.999996154785,2|0,1:2|1:0,0:0:0:0:
91,323,43496,1,2,0:2:0:0:
91,323,43653,6,0,L|178:315,1,62.9999980773926,8|0,0:0|0:0,0:0:0:0:
220,268,43969,1,2,1:2:0:0:
188,192,44127,2,0,L|192:120,1,62.9999980773926,8|0,0:0|0:0,0:0:0:0:
249,70,44443,2,0,L|322:72,1,62.9999980773926,2|0,1:2|1:0,0:0:0:0:
376,122,44759,2,0,L|449:120,1,62.9999980773926,2|8,0:2|0:0,0:0:0:0:
500,174,45074,6,0,P|495:239|495:318,1,125.999996154785,6|8,1:2|0:0,0:0:0:0:
430,352,45548,2,0,P|381:369|296:335,1,125.999996154785,2|0,1:2|1:0,0:0:0:0:
293,268,46022,2,0,L|297:198,1,62.9999980773926,2|8,0:2|0:0,0:0:0:0:
242,143,46337,5,0,0:0:0:0:
166,175,46495,2,0,P|126:175|81:168,1,62.9999980773926,2|8,1:2|0:0,0:0:0:0:
45,113,46811,1,0,0:0:0:0:
88,43,46969,2,0,L|170:38,1,62.9999980773926,2|0,1:2|1:0,0:0:0:0:
230,59,47285,2,0,L|312:54,1,62.9999980773926,10|0,0:2|0:0,0:0:0:0:
361,100,47600,6,0,L|358:242,1,125.999996154785,6|8,1:2|0:0,0:0:0:0:
275,227,48074,2,0,L|278:369,1,125.999996154785,2|0,1:2|1:0,0:0:0:0:
358,369,48548,1,2,0:2:0:0:
358,369,48706,6,0,L|430:364,1,62.9999980773926,8|0,0:0|0:0,0:0:0:0:
482,310,49021,2,0,P|482:262|477:222,1,62.9999980773926,2|8,1:2|0:0,0:0:0:0:
434,178,49337,1,0,0:0:0:0:
483,112,49495,2,0,L|491:40,1,62.9999980773926,2|0,1:2|1:0,0:0:0:0:
420,5,49811,2,0,L|338:10,1,62.9999980773926,2|8,0:2|0:0,0:0:0:0:
280,37,50126,6,0,P|256:74|256:159,1,125.999996154785,6|8,1:2|0:0,0:0:0:0:
314,210,50600,2,0,L|319:348,1,125.999996154785,2|0,1:2|1:0,0:0:0:0:
240,363,51074,2,0,L|166:359,1,62.9999980773926,2|8,0:2|0:0,0:0:0:0:
113,308,51389,5,2,0:2:0:0:
158,239,51547,2,0,P|159:193|155:155,1,62.9999980773926,2|8,1:2|0:0,0:0:0:0:
106,111,51863,1,2,1:2:0:0:
159,49,52021,2,0,L|229:55,1,62.9999980773926,8|8,0:0|0:0,0:0:0:0:
289,102,52337,1,0,1:0:0:0:
259,178,52495,1,0,1:0:0:0:
293,251,52652,6,0,L|296:331,1,62.9999980773926,6|0,1:2|0:0,0:0:0:0:
361,362,52968,1,2,0:2:0:0:
361,362,53126,2,0,P|419:364|489:331,1,125.999996154785,0|0,0:0|1:0,0:0:0:0:
494,256,53600,2,0,L|499:187,1,62.9999980773926,10|8,0:2|0:0,0:0:0:0:
446,129,53916,6,0,L|375:126,1,62.9999980773926,10|0,0:2|0:0,0:0:0:0:
329,64,54231,2,0,L|203:75,1,125.999996154785,10|0,0:2|1:0,0:0:0:0:
141,129,54705,1,0,1:0:0:0:
194,190,54863,2,0,L|188:259,1,62.9999980773926,2|0,1:2|1:0,0:0:0:0:
235,320,55179,6,0,P|186:300|104:301,1,125.999996154785,6|2,1:2|0:2,0:0:0:0:
38,265,55652,2,0,P|32:224|33:186,1,62.9999980773926,2|0,1:2|0:0,0:0:0:0:
79,135,55968,2,0,L|152:129,1,62.9999980773926,2|0,1:2|0:0,0:0:0:0:
201,73,56284,6,0,L|346:86,1,125.999996154785,10|0,0:2|1:0,0:0:0:0:
399,47,56757,1,8,0:0:0:0:
497,178,57073,2,0,L|499:253,1,62.9999980773926,0|0,1:0|1:0,0:0:0:0:
444,303,57389,1,10,0:2:0:0:
375,258,57547,1,8,0:0:0:0:
375,258,57626,1,8,0:0:0:0:
375,258,57705,6,0,P|319:248|247:271,1,125.999996154785,6|2,1:2|0:2,0:0:0:0:
190,214,58178,2,0,L|194:142,1,62.9999980773926,2|0,1:2|0:0,0:0:0:0:
142,86,58494,2,0,L|69:82,1,62.9999980773926,2|0,1:2|0:0,0:0:0:0:
15,134,58810,6,0,P|18:197|14:282,1,125.999996154785,10|0,0:2|1:0,0:0:0:0:
47,335,59283,1,10,0:2:0:0:
208,304,59599,2,0,L|287:311,1,62.9999980773926,2|0,1:2|1:0,0:0:0:0:
333,362,59915,2,0,L|395:356,1,62.9999980773926,2|0,1:2|1:0,0:0:0:0:
478,359,60231,6,0,P|483:285|465:225,1,125.999996154785,6|2,1:2|0:2,0:0:0:0:
409,180,60704,2,0,L|269:171,1,125.999996154785,2|0,1:2|1:0,0:0:0:0:
215,218,61178,2,0,L|143:226,1,62.9999980773926,2|8,0:2|0:0,0:0:0:0:
77,190,61494,5,2,0:2:0:0:
77,190,61652,2,0,P|72:147|75:101,1,62.9999980773926,2|8,1:2|0:0,0:0:0:0:
116,58,61967,1,2,0:2:0:0:
194,80,62125,2,0,L|265:78,1,62.9999980773926,0|0,0:0|1:0,0:0:0:0:
328,119,62441,1,0,1:0:0:0:
393,69,62599,1,0,1:0:0:0:
462,112,62757,6,0,L|466:180,1,62.9999980773926,6|0,1:2|0:0,0:0:0:0:
407,232,63072,1,2,0:2:0:0:
407,232,63230,2,0,L|397:362,1,125.999996154785,0|0,0:0|1:0,0:0:0:0:
316,372,63704,2,0,L|243:369,1,62.9999980773926,2|8,0:2|0:0,0:0:0:0:
187,319,64020,6,0,L|190:246,1,62.9999980773926,2|0,0:2|1:0,0:0:0:0:
246,196,64335,2,0,P|258:141|249:68,1,125.999996154785,10|2,0:2|1:2,0:0:0:0:
184,22,64809,1,0,1:0:0:0:
111,59,64967,2,0,L|43:62,1,62.9999980773926,2|0,1:2|1:0,0:0:0:0:
12,136,65283,6,0,P|23:199|23:280,1,125.999996154785,6|2,1:2|0:2,0:0:0:0:
71,327,65756,2,0,L|145:321,1,62.9999980773926,2|0,1:2|0:0,0:0:0:0:
232,252,66072,2,0,L|158:246,1,62.9999980773926,2|0,1:2|0:0,0:0:0:0:
131,173,66388,6,0,L|136:35,1,125.999996154785,10|0,0:2|1:0,0:0:0:0:
205,3,66862,2,0,P|271:17|301:66,1,125.999996154785,8|0,0:0|1:0,0:0:0:0:
280,143,67335,1,0,1:0:0:0:
328,208,67493,2,0,L|414:198,1,62.9999980773926,0|2,1:0|1:2,0:0:0:0:
466,233,67809,6,0,P|493:308|479:366,1,125.999996154785,6|0,1:2|0:0,0:0:0:0:
405,370,68282,2,0,L|277:360,1,125.999996154785,2|0,1:2|1:0,0:0:0:0:
210,314,68756,1,8,0:0:0:0:
55,368,69072,6,0,L|48:278,1,62.9999980773926,6|0,1:2|0:0,0:0:0:0:
49,222,69388,1,2,0:2:0:0:
130,238,69545,2,0,L|139:93,1,125.999996154785,10|0,0:2|1:0,0:0:0:0:
76,57,70019,1,10,0:2:0:0:
147,17,70177,1,2,1:2:0:0:
212,69,70335,6,0,L|294:74,1,70,14|8,0:2|0:0,0:0:0:0:
352,27,70651,2,0,L|444:22,1,70,8|8,0:0|0:0,0:0:0:0:
490,71,70966,1,8,0:0:0:0:
490,71,71124,1,8,0:0:0:0:
431,131,71282,1,8,0:0:0:0:
431,131,71440,1,8,0:0:0:0:
475,202,71598,6,0,L|472:278,1,70,8|8,0:0|0:0,0:0:0:0:
412,331,71914,1,8,0:0:0:0:
337,292,72072,1,0,1:0:0:0:
337,292,72150,1,0,1:0:0:0:
337,292,72229,1,0,1:0:0:0:
259,323,72387,1,8,0:0:0:0:
39,51,72861,6,0,L|35:130,1,70,6|0,1:2|0:0,0:0:0:0:
123,211,73177,2,0,L|119:141,1,70,10|0,0:2|0:0,0:0:0:0:
22,201,73492,2,0,L|26:280,1,70,2|0,1:2|0:0,0:0:0:0:
97,340,73808,2,0,P|137:346|178:340,1,70,10|0,0:2|0:0,0:0:0:0:
301,269,74124,6,0,P|261:275|220:269,1,70,2|0,1:2|1:0,0:0:0:0:
181,195,74440,2,0,L|193:46,1,140,10|0,0:2|1:0,0:0:0:0:
270,8,74913,1,0,0:0:0:0:
351,49,75071,2,0,P|395:57|441:53,1,70,10|8,0:2|0:0,0:0:0:0:
458,30,75308,1,0,0:0:0:0:
458,30,75387,6,0,B|486:62|484:129|484:129|460:136|444:180,2,140,6|10|2,1:2|0:2|1:2,0:0:0:0:
376,133,76176,1,0,1:0:0:0:
459,168,76334,2,0,P|451:206|450:240,1,70,10|0,0:2|0:0,0:0:0:0:
500,313,76650,5,0,1:0:0:0:
500,313,76808,1,0,1:0:0:0:
422,361,76966,2,0,L|347:355,1,70,10|8,0:2|0:0,0:0:0:0:
320,321,77203,1,8,0:0:0:0:
320,321,77281,2,0,L|228:328,1,70,2|0,1:2|0:0,0:0:0:0:
175,273,77597,2,0,P|172:227|174:181,1,70,10|0,0:2|0:0,0:0:0:0:
235,136,77913,6,0,P|238:90|236:44,1,70,4|0,1:0|0:0,0:0:0:0:
163,12,78229,2,0,L|85:17,1,70,10|0,0:2|0:0,0:0:0:0:
23,75,78545,2,0,P|23:122|26:168,1,70,2|0,1:2|0:0,0:0:0:0:
73,221,78860,2,0,P|73:268|70:314,1,70,10|0,0:2|0:0,0:0:0:0:
20,366,79176,6,0,P|63:334|165:342,1,140,2|8,1:2|0:0,0:0:0:0:
228,374,79650,1,0,0:0:0:0:
308,331,79808,1,0,1:0:0:0:
308,331,79965,1,0,1:0:0:0:
295,240,80123,2,0,P|298:193|296:157,1,70,8|8,0:0|0:0,0:0:0:0:
271,131,80360,1,8,0:0:0:0:
271,131,80439,6,0,L|184:126,1,70,6|2,1:2|0:2,0:0:0:0:
130,68,80755,1,10,0:2:0:0:
202,12,80913,2,0,L|289:7,1,70,2|0,0:2|1:0,0:0:0:0:
353,48,81228,2,0,P|360:95|357:144,1,70,2|8,1:2|0:0,0:0:0:0:
321,200,81544,1,10,0:2:0:0:
379,269,81702,6,0,L|463:261,1,70,0|0,1:0|1:0,0:0:0:0:
366,363,82018,2,0,P|317:368|274:355,1,70,10|0,0:2|0:0,0:0:0:0:
216,321,82334,2,0,L|222:264,3,35,10|8|8|8,0:2|0:0|0:0|0:0,0:0:0:0:
183,258,82649,2,0,L|177:201,3,35,10|8|8|8,0:2|0:0|0:0|0:0,0:0:0:0:
212,191,82965,6,0,L|218:120,1,70,6|0,1:2|1:0,0:0:0:0:
197,0,83281,2,0,L|255:40,1,70,10|0,0:2|0:0,0:0:0:0:
369,82,83597,2,0,L|304:112,1,70,2|0,1:2|1:0,0:0:0:0:
377,206,83912,2,0,P|382:253|379:298,1,70,10|0,0:2|0:0,0:0:0:0:
251,375,84228,6,0,P|251:340|256:306,1,70,2|0,1:2|0:0,0:0:0:0:
202,231,84544,2,0,P|142:195|65:211,1,140,10|0,0:2|1:0,0:0:0:0:
18,276,85018,1,0,1:0:0:0:
56,357,85175,2,0,L|142:349,1,70,10|8,0:2|0:0,0:0:0:0:
164,325,85412,1,0,0:0:0:0:
164,325,85491,6,0,L|252:337,1,70,6|0,1:2|0:0,0:0:0:0:
315,293,85807,2,0,P|317:246|313:208,1,70,10|0,0:2|0:0,0:0:0:0:
250,158,86123,2,0,P|248:111|252:73,1,70,2|0,1:2|0:0,0:0:0:0:
316,25,86438,2,0,L|399:20,1,70,10|0,0:2|0:0,0:0:0:0:
468,59,86754,1,0,1:0:0:0:
468,59,86912,1,0,1:0:0:0:
417,134,87070,6,0,L|421:215,1,70,10|8,0:2|0:0,0:0:0:0:
457,231,87307,1,8,0:0:0:0:
457,231,87386,2,0,L|453:312,1,70,2|0,1:2|1:0,0:0:0:0:
382,357,87701,2,0,P|332:360|296:354,1,70,10|0,0:2|0:0,0:0:0:0:
244,295,88017,6,0,L|126:284,1,105,4|0,1:0|0:0,0:0:0:0:
97,303,88333,2,0,P|88:260|88:220,1,70,10|0,0:2|0:0,0:0:0:0:
26,110,88649,2,0,P|67:123|102:143,1,70,2|0,1:2|0:0,0:0:0:0:
228,145,88964,2,0,P|195:174|160:194,1,70,10|0,0:2|0:0,0:0:0:0:
186,63,89280,5,2,1:2:0:0:
186,63,89438,1,0,1:0:0:0:
254,2,89596,2,0,L|332:8,1,70,10|0,0:2|0:0,0:0:0:0:
393,66,89912,1,0,1:0:0:0:
393,66,90070,1,0,1:0:0:0:
398,156,90227,2,0,P|397:203|401:244,1,70,8|0,0:0|1:0,0:0:0:0:
321,275,90543,5,14,0:2:0:0:
360,357,90701,2,0,L|429:364,1,70,2|2,1:2|1:2,0:0:0:0:
507,316,91017,2,0,P|505:282|505:240,1,70,10|2,0:2|1:2,0:0:0:0:
454,169,91333,1,2,1:2:0:0:
364,186,91491,2,0,P|309:182|283:176,1,70,10|2,0:2|1:2,0:0:0:0:
237,107,91806,5,2,1:2:0:0:
150,136,91964,1,10,0:2:0:0:
150,136,92122,1,2,1:2:0:0:
114,219,92280,1,2,1:2:0:0:
143,305,92438,2,0,P|64:326|17:372,2,140,10|10|4,0:2|0:2|1:0,0:0:0:0:
316,359,93385,6,0,L|478:354,1,140,8|0,0:0|1:0,0:0:0:0:
499,274,93859,2,0,L|498:202,1,70,0|0,1:0|0:0,0:0:0:0:
440,133,94174,6,0,P|365:131|305:167,1,140,8|0,0:0|1:0,0:0:0:0:
246,228,94648,2,0,L|243:306,1,70,8|0,0:0|0:0,0:0:0:0:
171,354,94964,1,0,1:0:0:0:
171,354,95122,1,0,1:0:0:0:
91,309,95280,2,0,L|88:239,1,70,8|0,0:0|0:0,0:0:0:0:
123,154,95595,6,0,L|209:148,1,70,6|0,1:0|1:0,0:0:0:0:
268,97,95911,2,0,B|355:80|332:119|408:99,1,140,8|0,0:0|1:0,0:0:0:0:
496,114,96385,2,0,P|499:68|494:21,1,70,0|8,1:0|0:0,0:0:0:0:
405,99,96700,6,0,P|395:165|397:243,1,140,8|8,0:0|1:0,0:0:0:0:
317,283,97174,2,0,L|235:277,1,70,8|0,0:0|0:0,0:0:0:0:
211,199,97490,1,8,1:0:0:0:
211,199,97648,1,8,1:0:0:0:
128,236,97806,2,0,L|123:319,1,70,8|0,0:0|0:0,0:0:0:0:
189,368,98121,6,0,L|268:371,1,70,14|8,1:0|1:0,0:0:0:0:
342,333,98437,2,0,L|490:323,1,140,8|8,0:0|1:0,0:0:0:0:
506,235,98911,2,0,L|511:153,1,70,8|8,1:0|0:0,0:0:0:0:
510,73,99227,6,0,P|442:53|357:62,1,140,8|0,0:0|1:0,0:0:0:0:
291,92,99700,2,0,L|286:174,1,70,8|0,0:0|0:0,0:0:0:0:
225,229,100016,2,0,P|142:240|88:213,1,140,0|8,1:0|0:0,0:0:0:0:
57,132,100490,1,0,0:0:0:0:
72,42,100647,6,0,L|2:36,2,70,6|0|8,1:0|1:0|0:0,0:0:0:0:
158,12,101121,1,0,0:0:0:0:
232,64,101279,2,0,L|234:149,1,70,0|0,1:0|1:0,0:0:0:0:
170,200,101595,1,8,0:0:0:0:
228,269,101753,6,0,L|392:260,1,140,8|0,0:0|1:0,0:0:0:0:
458,250,102226,2,0,L|453:320,1,70,8|0,0:0|0:0,0:0:0:0:
382,377,102542,1,0,1:0:0:0:
291,381,102700,1,8,0:0:0:0:
291,381,102779,1,8,0:0:0:0:
291,381,102858,2,0,L|284:325,3,35,8|8|8|8,0:0|0:0|0:0|0:0,0:0:0:0:
248,320,103173,6,0,L|252:242,1,70,4|0,1:0|1:0,0:0:0:0:
325,196,103489,2,0,P|343:126|330:49,1,140,8|0,0:0|1:0,0:0:0:0:
256,11,103963,2,0,L|180:13,1,70,0|0,1:0|0:0,0:0:0:0:
106,58,104279,6,0,P|36:72|1:135,1,140,8|0,0:0|1:0,0:0:0:0:
44,207,104752,2,0,L|35:283,1,70,8|0,0:0|0:0,0:0:0:0:
103,338,105068,1,0,0:0:0:0:
103,338,105226,1,0,1:0:0:0:
186,301,105384,2,0,L|262:297,1,70,8|0,0:0|0:0,0:0:0:0:
332,347,105700,6,0,L|410:353,1,70,4|0,1:0|1:0,0:0:0:0:
484,313,106015,2,0,L|492:168,1,140,8|0,0:0|1:0,0:0:0:0:
430,104,106489,1,0,1:0:0:0:
348,145,106647,2,0,L|270:141,1,70,0|8,0:0|0:0,0:0:0:0:
209,201,106963,6,0,L|213:274,2,70,0|0|8,0:0|1:0|0:0,0:0:0:0:
139,141,107436,1,0,0:0:0:0:
70,81,107594,2,0,L|73:11,2,70,0|0|8,0:0|1:0|0:0,0:0:0:0:
8,149,108068,1,0,0:0:0:0:
58,225,108226,6,0,P|60:273|57:309,1,70,4|0,1:0|1:0,0:0:0:0:
125,356,108541,2,0,P|211:353|256:313,1,140,8|0,0:0|1:0,0:0:0:0:
275,232,109015,2,0,L|270:148,1,70,0|0,1:0|0:0,0:0:0:0:
190,118,109331,6,0,P|193:49|266:15,1,140,8|0,0:0|1:0,0:0:0:0:
338,32,109804,2,0,L|424:27,1,70,8|0,0:0|0:0,0:0:0:0:
480,83,110120,2,0,L|485:163,1,70,0|0,1:0|1:0,0:0:0:0:
417,216,110436,2,0,L|347:220,1,70,8|0,0:0|0:0,0:0:0:0:
272,166,110752,5,4,1:0:0:0:
272,166,110910,1,0,1:0:0:0:
200,221,111067,2,0,L|196:304,1,70,8|0,0:0|0:0,0:0:0:0:
156,373,111383,1,0,1:0:0:0:
84,317,111541,2,0,L|2:313,1,70,0|0,1:0|0:0,0:0:0:0:
54,231,111857,6,0,P|59:166|50:80,1,140,8|0,0:0|1:0,0:0:0:0:
120,31,112330,1,8,0:0:0:0:
204,65,112488,1,0,1:0:0:0:
286,25,112646,2,0,L|372:19,2,70,8|0|10,0:0|1:0|0:2,0:0:0:0:
204,65,113120,1,0,0:0:0:0:
273,123,113278,6,0,P|283:195|278:242,1,112,2|0,0:2|0:0,0:0:0:0:
237,302,113751,1,2,0:2:0:0:
11,375,114225,6,0,P|1:303|6:256,1,112,2|0,0:2|0:0,0:0:0:0:
49,199,114699,2,0,L|45:135,1,56,2|0,0:2|0:0,0:0:0:0:
106,85,115014,1,0,0:0:0:0:
180,117,115172,2,0,L|309:108,1,112,2|2,0:2|0:2,0:0:0:0:
362,64,115646,1,8,0:0:0:0:
441,103,115804,5,6,1:2:0:0:
441,103,115962,2,0,L|434:179,1,62.9999980773926,0|8,0:0|0:0,0:0:0:0:
382,228,116277,2,0,P|339:224|262:262,1,125.999996154785,2|0,1:2|1:0,0:0:0:0:
210,319,116751,1,10,0:2:0:0:
136,281,116909,6,0,L|64:276,1,62.9999980773926
17,215,117225,2,0,L|24:126,1,62.9999980773926,2|8,1:2|0:0,0:0:0:0:
67,84,117540,1,0,0:0:0:0:
144,57,117698,2,0,L|225:53,1,62.9999980773926,2|0,1:2|1:0,0:0:0:0:
280,91,118014,2,0,P|281:129|286:172,1,62.9999980773926,10|8,0:2|0:0,0:0:0:0:
344,209,118330,6,0,P|400:218|473:181,1,125.999996154785,6|8,1:2|0:0,0:0:0:0:
507,123,118803,2,0,P|501:61|462:11,1,125.999996154785,2|0,1:2|1:0,0:0:0:0:
382,28,119277,1,2,0:2:0:0:
382,28,119435,6,0,L|310:24,1,62.9999980773926,8|0,0:0|0:0,0:0:0:0:
247,65,119751,2,0,L|244:135,1,62.9999980773926,2|8,1:2|0:0,0:0:0:0:
181,180,120066,1,0,0:0:0:0:
115,130,120224,2,0,L|43:127,1,62.9999980773926,2|0,1:2|1:0,0:0:0:0:
5,195,120540,2,0,L|10:272,1,62.9999980773926,2|0,0:2|0:0,0:0:0:0:
61,321,120856,6,0,P|119:306|187:325,1,125.999996154785,6|8,1:2|0:0,0:0:0:0:
251,364,121329,2,0,L|386:351,1,125.999996154785,2|2,1:2|1:2,0:0:0:0:
435,294,121803,2,0,L|439:224,1,62.9999980773926,2|8,0:2|0:0,0:0:0:0:
396,160,122119,5,2,0:2:0:0:
396,160,122277,2,0,L|314:155,1,62.9999980773926,2|10,1:2|0:2,0:0:0:0:
266,204,122593,1,2,0:2:0:0:
199,157,122750,2,0,L|202:82,1,62.9999980773926,0|0,1:0|1:0,0:0:0:0:
261,37,123066,2,0,L|335:39,1,62.9999980773926,8|0,0:0|0:0,0:0:0:0:
402,12,123382,6,0,P|462:45|475:104,1,125.999996154785,6|8,1:2|0:0,0:0:0:0:
427,163,123856,2,0,L|419:302,1,125.999996154785,2|0,1:2|1:0,0:0:0:0:
367,352,124329,1,2,0:2:0:0:
295,312,124487,6,0,L|225:308,1,62.9999980773926,8|0,0:0|0:0,0:0:0:0:
173,249,124803,2,0,P|177:208|177:168,1,62.9999980773926,2|8,1:2|0:0,0:0:0:0:
124,122,125119,1,2,1:2:0:0:
124,122,125197,1,2,1:2:0:0:
124,122,125276,2,0,L|120:17,2,94.499997116089,14|14|14,0:2|0:2|0:2,0:0:0:0:
52,163,125908,6,0,P|17:203|15:293,1,125.999996154785,6|8,1:2|0:0,0:0:0:0:
55,341,126382,2,0,B|129:325|115:363|191:345,1,125.999996154785,2|0,1:2|1:0,0:0:0:0:
255,317,126855,1,2,0:2:0:0:
255,317,127013,2,0,L|260:245,1,62.9999980773926,8|0,0:0|0:0,0:0:0:0:
216,183,127329,2,0,L|211:106,1,62.9999980773926,2|0,1:2|0:0,0:0:0:0:
264,56,127645,1,0,0:0:0:0:
339,86,127802,2,0,P|399:91|472:72,1,125.999996154785,2|10,1:2|0:2,0:0:0:0:
493,237,128434,6,0,L|483:371,1,125.999996154785,6|8,1:2|0:0,0:0:0:0:
408,328,128908,2,0,L|338:334,1,62.9999980773926,2|0,1:2|0:0,0:0:0:0:
281,281,129223,1,0,1:0:0:0:
281,281,129381,2,0,L|274:200,1,62.9999980773926,2|8,0:2|0:0,0:0:0:0:
214,162,129697,5,0,0:0:0:0:
214,162,129855,2,0,L|221:81,1,62.9999980773926,2|8,1:2|0:0,0:0:0:0:
172,31,130171,1,0,0:0:0:0:
95,61,130329,2,0,P|66:62|16:58,1,62.9999980773926,2|0,1:2|1:0,0:0:0:0:
0,154,130644,2,0,P|29:153|79:157,1,62.9999980773926,10|8,0:2|0:0,0:0:0:0:
128,204,130960,6,0,L|136:358,1,125.999996154785,6|8,1:2|0:0,0:0:0:0:
51,384,131434,2,0,P|25:327|34:265,1,125.999996154785,2|0,1:2|1:0,0:0:0:0:
128,204,131907,2,0,L|209:209,1,62.9999980773926,2|8,0:2|0:0,0:0:0:0:
261,165,132223,5,2,0:2:0:0:
263,247,132381,2,0,L|259:312,1,62.9999980773926,2|8,1:2|0:0,0:0:0:0:
321,363,132697,1,2,1:2:0:0:
394,325,132855,2,0,L|477:328,1,62.9999980773926,2|2,1:2|1:2,0:0:0:0:
504,260,133170,1,2,0:2:0:0:
463,189,133328,1,10,0:2:0:0:
506,119,133486,6,0,L|509:50,1,62.9999980773926,6|0,1:2|0:0,0:0:0:0:
440,9,133802,1,10,0:2:0:0:
440,9,133960,2,0,P|382:6|312:36,1,125.999996154785,0|0,0:0|1:0,0:0:0:0:
272,97,134433,2,0,L|266:180,1,62.9999980773926,2|8,0:2|0:0,0:0:0:0:
201,208,134749,6,0,L|207:291,1,62.9999980773926,2|0,0:2|1:0,0:0:0:0:
178,348,135065,2,0,P|108:359|43:339,1,125.999996154785,10|10,0:2|0:2,0:0:0:0:
19,271,135539,1,8,0:0:0:0:
48,195,135696,2,0,L|43:124,1,62.9999980773926,2|0,1:2|1:0,0:0:0:0:
28,51,136012,6,0,L|161:69,1,125.999996154785,6|2,1:2|0:2,0:0:0:0:
221,22,136486,2,0,L|306:14,1,62.9999980773926,2|0,1:2|0:0,0:0:0:0:
360,46,136802,2,0,L|368:122,1,62.9999980773926,2|8,1:2|0:0,0:0:0:0:
307,165,137117,6,0,L|287:298,1,125.999996154785,10|0,0:2|1:0,0:0:0:0:
229,347,137591,1,8,0:0:0:0:
391,322,137907,2,0,L|483:315,1,62.9999980773926,0|0,1:0|1:0,0:0:0:0:
501,250,138222,2,0,L|494:165,1,62.9999980773926,2|0,1:2|1:0,0:0:0:0:
447,120,138538,6,0,B|374:110|387:142|309:128,1,125.999996154785,6|2,1:2|0:2,0:0:0:0:
257,79,139012,2,0,L|265:6,1,62.9999980773926,2|0,1:2|0:0,0:0:0:0:
169,61,139328,2,0,L|175:123,1,62.9999980773926,2|0,1:2|0:0,0:0:0:0:
223,190,139643,6,0,P|146:168|91:178,1,125.999996154785,10|0,0:2|1:0,0:0:0:0:
35,223,140117,1,10,0:2:0:0:
140,348,140433,2,0,L|217:340,1,62.9999980773926,2|0,1:2|1:0,0:0:0:0:
261,284,140748,2,0,P|257:240|256:200,1,62.9999980773926,10|8,0:2|0:0,0:0:0:0:
206,155,141064,6,0,P|270:175|344:156,1,125.999996154785,6|2,1:2|0:2,0:0:0:0:
402,132,141538,2,0,L|391:-1,2,125.999996154785,2|0|8,1:2|1:0|0:0,0:0:0:0:
471,175,142327,5,2,0:2:0:0:
471,175,142485,2,0,L|464:253,1,62.9999980773926,2|0,1:2|0:0,0:0:0:0:
410,299,142801,1,2,0:2:0:0:
343,251,142959,2,0,L|269:244,1,62.9999980773926,0|0,1:0|1:0,0:0:0:0:
224,184,143275,1,0,1:0:0:0:
142,190,143432,1,0,1:0:0:0:
93,256,143590,6,0,L|89:328,1,62.9999980773926,6|0,1:2|0:0,0:0:0:0:
7,326,143906,1,2,0:2:0:0:
7,326,144064,2,0,L|17:182,1,125.999996154785,0|0,0:0|1:0,0:0:0:0:
66,135,144538,2,0,L|59:58,1,62.9999980773926,2|8,0:2|0:0,0:0:0:0:
116,12,144853,6,0,L|196:21,1,62.9999980773926,2|0,0:2|1:0,0:0:0:0:
243,70,145169,2,0,P|309:78|383:49,1,125.999996154785,10|2,0:2|1:2,0:0:0:0:
424,3,145643,1,0,1:0:0:0:
491,49,145801,2,0,L|482:136,1,62.9999980773926,2|0,1:2|1:0,0:0:0:0:
421,163,146116,6,0,P|395:226|399:293,1,125.999996154785,6|2,1:2|0:2,0:0:0:0:
340,343,146590,2,0,L|268:338,1,62.9999980773926,2|0,1:2|0:0,0:0:0:0:
213,285,146906,2,0,L|141:290,1,62.9999980773926,2|0,1:2|0:0,0:0:0:0:
83,336,147221,6,0,P|97:296|80:199,1,125.999996154785,10|0,0:2|1:0,0:0:0:0:
26,158,147695,1,8,0:0:0:0:
152,53,148011,2,0,L|225:57,1,62.9999980773926,0|0,1:0|1:0,0:0:0:0:
278,109,148327,1,0,1:0:0:0:
217,164,148485,1,2,1:2:0:0:
264,229,148642,6,0,B|338:211|323:252|407:227,1,125.999996154785,6|0,1:2|0:0,0:0:0:0:
452,180,149116,2,0,L|441:38,1,125.999996154785,2|0,1:2|1:0,0:0:0:0:
507,3,149590,1,8,0:0:0:0:
347,38,149905,6,0,B|281:24|294:54|215:32,1,125.999996154785,2|2,1:2|0:2,0:0:0:0:
152,77,150379,2,0,L|155:213,1,125.999996154785,10|0,0:2|1:0,0:0:0:0:
213,260,150853,2,0,L|205:338,1,62.9999980773926,2|2,1:2|1:2,0:0:0:0:
136,365,151168,6,0,P|54:367|17:336,1,125.999996154785,14|8,0:2|0:0,0:0:0:0:
10,260,151642,1,8,0:0:0:0:
53,190,151800,2,0,L|48:118,1,62.9999980773926,8|8,0:0|0:0,0:0:0:0:
102,64,152116,1,8,0:0:0:0:
102,64,152274,1,8,0:0:0:0:
175,98,152431,6,0,L|250:92,1,62.9999980773926,8|8,0:0|0:0,0:0:0:0:
303,42,152747,1,8,0:0:0:0:
389,87,152905,1,0,1:0:0:0:
389,87,152984,1,0,0:0:0:0:
389,87,153063,1,0,1:0:0:0:
361,172,153221,1,8,0:0:0:0:
506,367,153694,6,0,L|512:279,1,70,6|0,1:2|0:0,0:0:0:0:
406,249,154010,2,0,L|410:318,1,70,10|0,0:2|0:0,0:0:0:0:
305,380,154326,2,0,L|311:292,1,70,2|0,1:2|0:0,0:0:0:0:
232,229,154642,2,0,P|193:223|148:228,1,70,10|0,0:2|0:0,0:0:0:0:
49,301,154958,6,0,P|88:307|133:302,1,70,2|0,1:2|1:0,0:0:0:0:
162,224,155273,2,0,L|152:74,1,140,10|0,0:2|1:0,0:0:0:0:
221,23,155747,1,0,0:0:0:0:
306,53,155905,2,0,P|353:55|393:49,1,70,10|8,0:2|0:0,0:0:0:0:
417,32,156142,1,8,0:0:0:0:
417,32,156221,6,0,P|483:58|496:126,2,140,6|10|2,1:2|0:2|1:2,0:0:0:0:
418,172,157010,1,0,1:0:0:0:
331,142,157168,2,0,L|255:139,1,70,10|0,0:2|0:0,0:0:0:0:
188,195,157484,6,0,L|183:280,1,70,0|0,1:0|1:0,0:0:0:0:
110,319,157799,1,10,0:2:0:0:
32,271,157957,1,8,0:2:0:0:
32,271,158036,1,8,0:0:0:0:
32,271,158115,2,0,L|27:201,1,70,2|0,1:2|0:0,0:0:0:0:
78,124,158431,2,0,L|157:121,1,70,10|0,0:2|0:0,0:0:0:0:
220,65,158747,6,0,L|217:-8,1,70,4|0,1:0|0:0,0:0:0:0:
311,43,159062,2,0,L|308:112,1,70,10|0,0:2|0:0,0:0:0:0:
353,192,159378,1,2,1:2:0:0:
353,192,159536,1,0,0:0:0:0:
433,149,159694,2,0,L|509:151,1,70,10|0,0:2|0:0,0:0:0:0:
419,257,160010,6,0,P|359:236|281:258,1,140,2|8,1:2|0:0,0:0:0:0:
227,323,160483,1,0,0:0:0:0:
157,264,160641,2,0,L|164:180,1,70,0|0,1:0|1:0,0:0:0:0:
103,124,160957,2,0,L|26:122,1,70,8|8,0:0|0:0,0:0:0:0:
4,158,161194,1,8,0:0:0:0:
4,158,161273,6,0,P|20:101|6:16,1,140,6|10,1:2|0:2,0:0:0:0:
98,9,161746,2,0,P|140:15|185:17,1,70,2|2,0:2|1:2,0:0:0:0:
229,84,162062,2,0,P|225:128|225:166,1,70,2|8,1:2|0:0,0:0:0:0:
153,210,162378,1,10,0:2:0:0:
211,279,162536,6,0,L|292:282,1,70,0|0,1:0|1:0,0:0:0:0:
333,355,162851,2,0,L|402:352,1,70,10|0,0:2|1:0,0:0:0:0:
486,315,163167,2,0,L|481:259,3,35,10|8|8|8,0:2|0:0|0:0|0:0,0:0:0:0:
449,248,163483,2,0,L|454:192,3,35,10|8|8|8,0:2|0:0|0:0|0:0,0:0:0:0:
486,182,163799,6,0,P|487:137|472:95,1,70,6|0,1:2|0:0,0:0:0:0:
398,20,164114,2,0,P|399:65|384:107,1,70,10|0,0:2|0:0,0:0:0:0:
302,131,164430,2,0,P|262:109|233:75,1,70,2|0,1:2|0:0,0:0:0:0:
154,126,164746,2,0,P|134:164|129:204,1,70,10|0,0:2|0:0,0:0:0:0:
152,230,164983,1,0,0:0:0:0:
152,230,165062,6,0,L|242:223,1,70,2|0,1:2|0:0,0:0:0:0:
288,286,165377,2,0,B|364:275|354:312|427:297,1,140,10|0,0:2|1:0,0:0:0:0:
332,381,165851,1,0,1:0:0:0:
241,369,166009,2,0,L|165:361,1,70,10|8,0:2|0:0,0:0:0:0:
146,322,166246,1,8,0:0:0:0:
146,322,166325,6,0,L|57:328,1,70,6|0,1:2|0:0,0:0:0:0:
12,262,166640,2,0,P|16:219|16:180,1,70,10|0,0:2|0:0,0:0:0:0:
74,121,166956,1,2,1:2:0:0:
74,121,167114,1,0,0:0:0:0:
155,160,167272,2,0,L|253:153,1,70,10|0,0:2|0:0,0:0:0:0:
294,95,167588,6,0,L|289:11,1,70,0|0,1:0|1:0,0:0:0:0:
392,80,167904,2,0,L|387:149,1,70,10|8,0:2|0:0,0:0:0:0:
405,191,168140,1,8,0:0:0:0:
405,191,168219,2,0,P|450:191|487:197,1,70,2|0,1:2|1:0,0:0:0:0:
464,296,168535,2,0,P|419:296|382:290,1,70,10|0,0:2|0:0,0:0:0:0:
312,250,168851,6,0,L|309:174,1,70,4|0,1:0|1:0,0:0:0:0:
235,125,169167,2,0,L|238:49,1,70,10|0,0:2|0:0,0:0:0:0:
140,118,169482,1,2,1:2:0:0:
140,118,169640,1,0,0:0:0:0:
174,202,169798,2,0,L|176:271,1,70,10|0,0:2|0:0,0:0:0:0:
229,346,170114,6,0,P|146:312|81:318,1,140,0|10,1:0|0:2,0:0:0:0:
18,359,170587,1,0,0:0:0:0:
15,267,170745,2,0,L|10:186,1,70,0|2,1:0|1:2,0:0:0:0:
73,130,171061,2,0,L|146:122,1,70,10|2,0:2|1:2,0:0:0:0:
217,175,171377,6,0,P|261:189|362:171,1,140,14|2,0:2|1:2,0:0:0:0:
391,93,171850,2,0,L|386:13,1,70,10|0,0:2|1:2,0:0:0:0:
480,94,172166,1,0,1:2:0:0:
439,176,172324,2,0,L|434:245,1,70,10|0,0:2|1:2,0:0:0:0:
393,328,172640,5,0,1:2:0:0:
303,346,172798,2,0,P|298:294|303:260,1,70,10|0,0:2|1:2,0:0:0:0:
317,186,173114,1,0,1:2:0:0:
360,106,173271,2,0,L|355:66,3,35,10|8|8|8,0:2|0:0|0:0|0:0,0:0:0:0:
310,65,173587,1,8,0:0:0:0:
228,105,173745,1,8,0:0:0:0:
160,44,173903,6,0,P|102:36|48:69,1,105,0|0,1:0|1:0,0:0:0:0:
36,93,174219,1,8,0:0:0:0:
80,172,174377,2,0,L|70:287,1,105,0|0,1:0|1:0,0:0:0:0:
35,305,174692,1,8,0:0:0:0:
102,366,174850,2,0,L|223:358,1,105,0|0,1:0|1:0,0:0:0:0:
243,330,175166,5,8,0:0:0:0:
213,243,175324,2,0,P|213:204|215:161,1,70,8|8,0:0|0:0,0:0:0:0:
240,134,175561,2,0,L|332:130,1,70,8|8,0:0|0:0,0:0:0:0:
347,157,175797,2,0,L|405:164,3,35,0|0|0|0,1:0|1:0|1:0|1:0,0:0:0:0:
421,138,176113,1,0,1:0:0:0:
506,168,176271,6,0,L|499:26,1,140,0|0,1:0|1:0,0:0:0:0:
415,41,176745,2,0,L|344:37,1,70,8|0,0:0|0:0,0:0:0:0:
274,82,177060,2,0,P|217:101|191:195,1,140,0|8,0:0|0:0,0:0:0:0:
406,363,178008,5,8,0:0:0:0:
406,363,178639,1,8,0:0:0:0:
338,312,178797,6,0,L|183:302,1,140,0|0,1:0|1:0,0:0:0:0:
131,250,179271,2,0,L|56:257,1,70,8|0,0:0|0:0,0:0:0:0:
15,185,179587,2,0,B|29:100|-9:124|18:42,1,140,0|8,0:0|0:0,0:0:0:0:
171,111,180218,6,0,L|326:100,1,140,0|8,0:0|0:0,0:0:0:0:
394,94,180692,2,0,P|399:51|395:15,1,70
310,101,181007,2,0,P|305:144|309:180,1,70,0|8,0:0|0:0,0:0:0:0:
372,224,181323,6,0,P|295:209|245:254,1,140,0|0,1:0|1:0,0:0:0:0:
215,321,181797,2,0,L|304:328,1,70,8|0,0:0|0:0,0:0:0:0:
360,365,182113,2,0,P|437:380|487:335,1,140,0|8,0:0|0:0,0:0:0:0:
343,38,183060,5,8,0:0:0:0:
343,38,183691,1,8,0:0:0:0:
420,70,183849,6,0,P|425:142|420:224,1,140,0|0,1:0|1:0,0:0:0:0:
349,254,184323,2,0,L|255:247,1,70,8|0,0:0|0:0,0:0:0:0:
205,207,184639,2,0,P|148:192|60:205,1,140,0|8,0:0|0:0,0:0:0:0:
146,350,185270,6,0,L|303:339,1,140,0|8,0:0|0:0,0:0:0:0:
355,292,185744,2,0,L|449:300,1,70,0|0,0:0|1:0,0:0:0:0:
490,244,186060,1,0,1:0:0:0:
436,179,186217,1,8,0:0:0:0:
356,208,186375,6,0,P|318:172|332:79,1,140,4|0,1:0|1:0,0:0:0:0:
381,22,186849,2,0,L|459:18,1,70,8|0,0:0|1:0,0:0:0:0:
492,39,187086,1,0,1:0:0:0:
492,39,187165,1,0,0:0:0:0:
509,128,187323,2,0,L|500:238,1,105,8|0,0:0|1:0,0:0:0:0:
468,265,187638,1,0,1:0:0:0:
390,313,187796,6,0,L|314:308,1,70,8|0,0:0|0:0,0:0:0:0:
278,327,188033,1,8,0:0:0:0:
278,327,188112,1,0,1:0:0:0:
201,277,188270,2,0,L|151:280,2,35,0|0|8,1:0|1:0|0:0,0:0:0:0:
263,209,188586,1,8,0:0:0:0:
210,135,188743,1,0,1:0:0:0:
123,164,188901,6,0,P|63:159|23:83,1,140,4|0,1:0|1:0,0:0:0:0:
78,23,189375,2,0,L|157:19,1,70,12|0,0:0|1:0,0:0:0:0:
231,57,189691,1,0,1:0:0:0:
312,16,189849,2,0,P|320:87|319:170,1,140,12|0,0:0|1:0,0:0:0:0:
254,218,190322,6,0,L|179:212,2,70,12|0|0,0:0|1:0|1:0,0:0:0:0:
325,275,190796,2,0,P|325:322|321:362,1,70,12|0,0:0|1:0,0:0:0:0:
408,377,191112,1,14,0:2:0:0:
476,317,191269,1,8,0:0:0:0:
446,230,191427,6,0,P|450:153|461:69,1,140,6|0,1:2|1:0,0:0:0:0:
389,29,191901,2,0,P|325:25|277:64,1,105,8|0,0:0|1:0,0:0:0:0:
261,80,192217,1,0,1:0:0:0:
311,155,192375,1,10,0:2:0:0:
245,218,192533,2,0,L|241:260,3,35,0|0|2|0,1:0|1:0|1:2|1:0,0:0:0:0:
198,267,192848,6,0,L|202:309,3,35,0|0|0|0,1:0|1:0|1:0|1:0,0:0:0:0:
168,333,193164,2,0,L|115:326,3,35,0|0|0|0,1:0|1:0|1:0|1:0,0:0:0:0:
90,345,193480,1,0,1:0:0:0:
23,282,193638,1,2,1:2:0:0:
23,282,193717,1,0,1:0:0:0:
23,282,193796,1,0,1:0:0:0:
34,192,193953,6,0,B|117:176|100:216|182:194,1,140,6|0,1:2|1:0,0:0:0:0:
247,144,194427,2,0,L|243:69,2,70,12|0|0,0:0|1:0|1:0,0:0:0:0:
316,203,194901,2,0,P|356:200|404:202,1,70,8|4,0:0|1:0,0:0:0:0:
466,242,195216,1,0,1:0:0:0:
502,158,195374,6,0,P|501:90|428:57,1,140,12|0,0:0|1:0,0:0:0:0:
361,94,195848,2,0,L|290:89,1,70,8|0,0:0|1:0,0:0:0:0:
225,24,196164,1,8,0:0:0:0:
145,67,196322,1,8,0:0:0:0:
163,156,196479,6,0,L|154:306,1,140,6|0,1:2|1:0,0:0:0:0:
96,356,196953,2,0,L|17:351,1,70,12|0,0:0|0:0,0:0:0:0:
2,270,197269,1,2,1:2:0:0:
2,270,197427,2,0,L|81:265,1,70,0|10,0:0|0:2,0:0:0:0:
137,213,197742,6,0,B|221:200|203:242|281:226,1,140,6|0,1:2|1:0,0:0:0:0:
340,175,198216,2,0,L|329:33,1,140,12|2,0:0|1:2,0:0:0:0:
407,4,198690,1,0,0:0:0:0:
407,4,198848,1,8,0:0:0:0:
475,52,199006,6,0,L|466:204,1,140,6|0,1:2|1:0,0:0:0:0:
416,258,199479,1,14,0:2:0:0:
416,258,199637,2,0,L|335:253,1,70,2|0,0:2|0:0,0:0:0:0:
289,190,199953,2,0,L|208:195,1,70,0|10,1:0|0:2,0:0:0:0:
151,144,200269,6,0,P|72:153|47:210,1,140,6|2,1:2|1:2,0:0:0:0:
105,262,200742,2,0,L|98:338,1,70,14|2,0:2|0:2,0:0:0:0:
20,364,201058,2,0,L|13:294,2,70,0|0|8,1:0|1:0|0:0,0:0:0:0:
98,331,201532,6,0,L|262:347,1,140,6|0,1:2|1:0,0:0:0:0:
314,310,202005,2,0,P|319:267|319:228,1,70,12|0,0:0|0:0,0:0:0:0:
259,180,202321,2,0,L|186:173,2,70,2|0|10,1:2|1:0|0:2,0:0:0:0:
315,117,202795,6,0,P|328:58|401:31,1,140,6|0,1:2|1:0,0:0:0:0:
470,70,203268,2,0,P|471:137|478:219,1,140,12|2,0:0|1:2,0:0:0:0:
413,265,203742,2,0,P|412:306|407:355,1,70,0|10,1:0|0:2,0:0:0:0:
329,361,204058,6,0,B|251:344|263:377|179:359,1,140,6|8,1:2|0:0,0:0:0:0:
126,306,204531,2,0,L|38:300,1,70,8|8,0:0|0:0,0:0:0:0:
21,224,204847,1,8,0:0:0:0:
21,224,205005,1,8,0:0:0:0:
70,155,205163,2,0,L|158:149,1,70,8|8,0:0|0:0,0:0:0:0:
211,104,205479,6,0,L|206:38,2,46.6666666666667,8|0|0,0:0|0:0|0:0,0:0:0:0:
258,132,205794,6,0,L|254:178,2,46.6666666666667,8|0|0,0:0|0:0|0:0,0:0:0:0:
307,104,206110,6,0,L|437:97,2,105,10|10|10,0:2|0:2|0:2,0:0:0:0:
333,214,206742,2,0,L|203:207,2,105,10|10|10,0:2|0:2|0:2,0:0:0:0:
26,24,208005,6,0,P|26:62|37:115,1,70,6|0,1:2|0:0,0:0:0:0:
190,86,208320,2,0,P|157:67|105:50,1,70,10|0,0:2|0:0,0:0:0:0:
54,197,208636,2,0,P|86:177|127:141,1,70,2|0,1:2|0:0,0:0:0:0:
205,192,208952,2,0,P|237:211|278:247,1,70,10|0,0:2|0:0,0:0:0:0:
264,322,209268,6,0,P|236:343|206:361,1,70,2|0,1:2|1:0,0:0:0:0:
115,362,209583,2,0,L|108:199,1,140,10|0,0:2|1:0,0:0:0:0:
42,158,210057,1,0,0:0:0:0:
90,80,210215,2,0,L|173:75,1,70,10|8,0:2|0:0,0:0:0:0:
190,41,210452,1,8,0:0:0:0:
190,41,210531,6,0,B|271:24|253:63|332:40,2,140,6|10|2,1:2|0:2|1:2,0:0:0:0:
288,135,211320,1,0,1:0:0:0:
222,198,211478,2,0,L|219:271,1,70,10|0,0:2|0:0,0:0:0:0:
151,329,211794,5,0,1:0:0:0:
151,329,211952,1,0,1:0:0:0:
231,371,212109,2,0,L|328:364,1,70,10|8,0:2|0:0,0:0:0:0:
337,337,212346,1,8,0:0:0:0:
337,337,212425,2,0,L|406:342,1,70,2|0,1:2|0:0,0:0:0:0:
486,296,212741,2,0,P|492:249|490:208,1,70,10|0,0:2|0:0,0:0:0:0:
431,157,213057,6,0,L|345:163,1,70,4|0,1:0|0:0,0:0:0:0:
301,230,213372,2,0,L|215:224,1,70,10|0,0:2|0:0,0:0:0:0:
170,156,213688,1,2,1:2:0:0:
170,156,213846,1,0,0:0:0:0:
227,85,214004,2,0,P|228:38|225:0,1,70,10|0,0:2|0:0,0:0:0:0:
135,3,214320,5,2,1:2:0:0:
135,3,214478,1,0,0:0:0:0:
47,27,214635,2,0,L|52:183,1,140,8|0,0:0|1:0,0:0:0:0:
6,246,215109,1,0,1:0:0:0:
62,317,215267,2,0,P|108:317|155:309,1,70,8|8,0:0|0:0,0:0:0:0:
169,286,215504,1,8,0:0:0:0:
169,286,215583,6,0,L|330:302,1,140,6|10,1:2|0:2,0:0:0:0:
382,353,216056,2,0,P|430:359|468:355,1,70,2|0,0:2|1:0,0:0:0:0:
505,275,216372,2,0,L|501:201,1,70,2|8,1:2|0:0,0:0:0:0:
429,137,216688,1,10,0:2:0:0:
338,174,216846,6,0,L|334:261,1,70,0|0,1:0|1:0,0:0:0:0:
259,306,217161,2,0,P|206:309|163:302,1,70,10|0,0:2|1:0,0:0:0:0:
107,251,217477,2,0,L|104:200,3,35,10|8|8|8,0:2|0:0|0:0|0:0,0:0:0:0:
59,195,217793,2,0,L|62:144,3,35,10|8|8|8,0:2|0:0|0:0|0:0,0:0:0:0:
91,120,218109,6,0,P|95:71|94:33,1,70,6|0,1:2|0:0,0:0:0:0:
193,134,218425,2,0,P|193:168|196:203,1,70,10|0,0:2|0:0,0:0:0:0:
286,100,218740,2,0,P|290:51|289:13,1,70,2|0,1:2|0:0,0:0:0:0:
388,91,219056,2,0,L|478:95,1,70,10|0,0:2|0:0,0:0:0:0:
450,192,219372,6,0,L|360:196,1,70,2|0,1:2|0:0,0:0:0:0:
300,253,219688,2,0,P|246:276|229:360,1,140,10|0,0:2|1:0,0:0:0:0:
321,370,220161,1,0,1:0:0:0:
414,340,220319,1,10,0:2:0:0:
450,249,220477,1,8,0:0:0:0:
450,249,220556,1,8,0:0:0:0:
450,249,220635,6,0,L|446:170,1,70,6|0,1:2|0:0,0:0:0:0:
357,135,220951,2,0,L|360:65,1,70,10|0,0:2|0:0,0:0:0:0:
277,12,221266,2,0,P|232:8|190:12,1,70,2|0,1:2|0:0,0:0:0:0:
131,72,221582,2,0,L|134:141,1,70,10|0,0:2|0:0,0:0:0:0:
213,200,221898,5,0,1:0:0:0:
213,200,222056,1,0,1:0:0:0:
301,157,222214,2,0,L|380:152,1,70,10|8,0:2|0:0,0:0:0:0:
416,170,222450,1,0,0:0:0:0:
416,170,222529,2,0,P|424:213|423:263,1,70,2|0,1:2|1:0,0:0:0:0:
343,294,222845,2,0,P|335:337|336:387,1,70,10|0,0:2|0:0,0:0:0:0:
234,366,223161,6,0,L|153:361,1,70,4|0,1:0|1:0,0:0:0:0:
100,288,223477,2,0,P|104:236|103:197,1,70,10|0,0:2|0:0,0:0:0:0:
182,159,223792,2,0,P|181:124|178:89,1,70,2|0,1:2|0:0,0:0:0:0:
104,23,224108,2,0,L|34:18,1,70,10|0,0:2|0:0,0:0:0:0:
22,116,224424,5,2,1:2:0:0:
22,116,224582,1,0,1:0:0:0:
83,192,224740,2,0,B|168:173|147:218|230:198,1,140,8|0,0:0|1:0,0:0:0:0:
297,139,225213,1,0,1:0:0:0:
243,56,225371,1,8,0:0:0:0:
325,2,225529,1,2,1:2:0:0:
325,2,225608,1,0,0:0:0:0:
325,2,225687,6,0,L|484:15,1,140,14|2,0:2|1:2,0:0:0:0:
492,108,226161,2,0,L|486:184,1,70,10|0,0:2|1:0,0:0:0:0:
414,244,226476,2,0,L|420:320,1,70,2|8,1:2|0:0,0:0:0:0:
337,368,226792,1,2,1:2:0:0:
252,317,226950,6,0,P|214:315|172:315,1,70,8|0,0:0|1:0,0:0:0:0:
72,232,227266,2,0,P|106:231|141:229,1,70,10|0,0:2|1:0,0:0:0:0:
218,168,227581,2,0,L|274:173,3,35,10|8|8|8,0:2|0:0|0:0|0:0,0:0:0:0:
289,204,227897,2,0,L|323:200,3,35,10|8|8|8,0:2|0:0|0:0|0:0,0:0:0:0:
347,244,228213,6,0,P|343:291|345:333,1,70,6|0,1:2|1:0,0:0:0:0:
423,165,228529,2,0,P|392:147|360:133,1,70,10|0,0:2|1:0,0:0:0:0:
454,271,228844,2,0,P|484:253|512:233,1,70,10|0,0:2|1:0,0:0:0:0:
509,134,229160,1,10,0:2:0:0:
509,134,229318,1,0,1:0:0:0:
452,53,229476,6,0,L|372:46,1,70,14|0,0:2|1:0,0:0:0:0:
298,99,229792,2,0,L|218:106,1,70,10|0,0:2|1:0,0:0:0:0:
165,181,230108,2,0,P|161:221|164:267,1,70,8|0,0:0|1:0,0:0:0:0:
70,372,230423,2,0,P|74:332|71:286,1,70,8|0,0:0|1:0,0:0:0:0:
10,226,230739,5,12,0:0:0:0:
70,148,230897,2,0,L|64:64,1,70,0|8,1:0|0:0,0:0:0:0:
141,16,231213,1,0,1:0:0:0:
228,59,231371,2,0,L|312:60,1,70,8|0,0:0|1:0,0:0:0:0:
382,109,231686,2,0,P|383:157|381:191,1,70,8|0,0:0|1:0,0:0:0:0:
307,244,232002,5,12,0:0:0:0:
307,244,232160,1,0,1:0:0:0:
218,202,232318,2,0,L|140:206,1,70,8|0,0:0|1:0,0:0:0:0:
71,267,232634,2,0,P|70:314|78:355,1,70,10|0,0:0|1:0,0:0:0:0:
163,375,232949,2,0,L|247:369,1,70,8|0,0:0|1:0,0:0:0:0:
316,317,233265,6,0,L|483:331,2,140,14|10|10,0:2|0:2|0:2,0:0:0:0:
263,234,234054,1,0,1:0:0:0:
321,154,234212,2,0,P|323:106|321:71,1,70,10|0,0:2|1:0,0:0:0:0:
390,13,234528,6,0,L|470:15,1,70,14|0,0:2|1:0,0:0:0:0:
504,102,234844,2,0,L|499:188,1,70,10|0,0:2|1:0,0:0:0:0:
431,243,235160,2,0,L|436:329,1,70,8|0,0:0|1:0,0:0:0:0:
355,370,235475,2,0,L|272:362,1,70,8|0,0:0|1:0,0:0:0:0:
212,296,235791,5,12,0:0:0:0:
265,213,235949,2,0,P|267:158|263:126,1,70,0|8,1:0|0:0,0:0:0:0:
204,65,236265,1,0,1:0:0:0:
110,95,236423,2,0,L|28:90,1,70,8|0,0:0|1:0,0:0:0:0:
12,184,236738,1,8,0:0:0:0:
12,184,236896,1,0,1:0:0:0:
48,274,237054,6,0,L|45:353,1,70,12|0,0:0|1:0,0:0:0:0:
153,264,237370,2,0,L|150:194,1,70,8|0,0:0|1:0,0:0:0:0:
227,132,237686,2,0,L|283:135,3,35,8|8|8|8,0:0|0:0|0:0|0:0,0:0:0:0:
298,101,238001,2,0,L|388:97,1,70,10|0,0:2|1:0,0:0:0:0:
455,142,238317,6,0,P|460:191|459:236,1,70,14|0,0:2|1:0,0:0:0:0:
401,290,238633,1,8,0:0:0:0:
313,245,238791,2,0,L|219:242,1,70,2|8,1:2|0:0,0:0:0:0:
164,182,239107,1,0,1:0:0:0:
81,233,239264,2,0,P|69:281|70:324,1,70,10|0,0:2|1:0,0:0:0:0:
141,367,239580,5,12,0:0:0:0:
233,334,239738,2,0,L|325:339,1,70,2|8,1:2|0:0,0:0:0:0:
384,281,240054,1,0,1:0:0:0:
323,203,240212,2,0,P|322:155|328:109,1,70,10|0,0:2|1:0,0:0:0:0:
448,96,240527,2,0,P|450:130|448:165,1,70,10|0,0:2|1:0,0:0:0:0:
324,133,240843,6,0,B|242:117|257:153|169:129,1,140,14|8,0:2|0:0,0:0:0:0:
105,75,241317,2,0,L|112:0,1,70,2|8,1:2|0:0,0:0:0:0:
21,45,241633,1,0,1:0:0:0:
14,142,241790,2,0,L|20:211,1,70,10|0,0:2|1:0,0:0:0:0:
83,287,242106,5,12,0:0:0:0:
159,225,242264,2,0,P|208:221|248:224,1,70,2|8,1:2|0:0,0:0:0:0:
316,267,242580,1,0,1:0:0:0:
401,218,242738,2,0,L|397:133,1,70,10|0,0:2|1:0,0:0:0:0:
501,194,243054,2,0,L|497:263,1,70,10|0,0:2|1:0,0:0:0:0:
434,339,243369,6,0,P|383:343|342:338,1,70,14|0,0:2|1:0,0:0:0:0:
266,357,243685,1,8,0:0:0:0:
189,295,243843,2,0,P|138:291|97:296,1,70,2|8,1:2|0:0,0:0:0:0:
40,232,244159,1,0,1:0:0:0:
88,146,244317,2,0,L|84:66,1,70,10|0,0:2|1:0,0:0:0:0:
158,11,244632,5,12,0:0:0:0:
247,50,244790,2,0,L|332:43,1,70,2|8,1:2|0:0,0:0:0:0:
396,102,245106,1,0,1:0:0:0:
339,182,245264,2,0,L|337:262,1,70,10|0,0:2|1:0,0:0:0:0:
248,294,245580,2,0,L|164:291,1,70,10|0,0:2|1:0,0:0:0:0:
108,361,245895,5,14,0:2:0:0:
108,361,246053,1,0,1:2:0:0:
204,379,246211,1,2,1:2:0:0:
301,364,246369,1,10,0:2:0:0:
489,138,246843,5,10,0:2:0:0:
489,138,247000,1,0,1:0:0:0:
422,66,247158,1,10,0:2:0:0:
496,2,247316,1,6,1:2:0:0:
