osu file format v14

[General]
AudioFilename: audio.mp3
AudioLeadIn: 0
PreviewTime: 59626
Countdown: 0
SampleSet: Soft
StackLeniency: 0.3
Mode: 0
LetterboxInBreaks: 0
WidescreenStoryboard: 0

[Editor]
Bookmarks: 24082,47786,50564,53341,58156
DistanceSpacing: 0.7
BeatDivisor: 4
GridSize: 4
TimelineZoom: 2.3

[Metadata]
Title:Jaded (feat. Alex Gaskarth) (Cut Ver.)
TitleUnicode:Jaded (feat. Alex Gaskarth) (Cut Ver.)
Artist:ONE OK ROCK
ArtistUnicode:ONE OK ROCK
Creator:TritoBandito
Version:Insane
Source:
Tags:english rock murada- addy2607 ambitions wiwit All Time Low
BeatmapID:2881219
BeatmapSetID:1386178

[Difficulty]
HPDrainRate:4.5
CircleSize:3.8
OverallDifficulty:8.5
ApproachRate:8.8
SliderMultiplier:1.6
SliderTickRate:1

[Events]
//Background and Video events
0,0,"owo.jpg.jpg",0,0
//Break Periods
//Storyboard Layer 0 (Background)
//Storyboard Layer 1 (Fail)
//Storyboard Layer 2 (Pass)
//Storyboard Layer 3 (Foreground)
//Storyboard Layer 4 (Overlay)
//Storyboard Sound Samples

[TimingPoints]
379,370.37037037037,4,2,1,50,1,0
12230,-83.3333333333333,4,2,2,80,0,0
12601,-83.3333333333333,4,2,1,80,0,0
13804,-83.3333333333333,4,2,1,5,0,0
13897,-83.3333333333333,4,2,1,80,0,0
14916,-83.3333333333333,4,2,2,80,0,0
15008,-83.3333333333333,4,2,3,80,0,0
15101,-83.3333333333333,4,2,4,80,0,0
15193,-83.3333333333333,4,2,2,80,0,0
15564,-83.3333333333333,4,2,1,80,0,0
16767,-83.3333333333333,4,2,1,5,0,0
16860,-83.3333333333333,4,2,1,80,0,0
17786,-83.3333333333333,4,2,2,80,0,0
17971,-83.3333333333333,4,2,3,80,0,0
18156,-83.3333333333333,4,2,2,80,0,0
18433,-83.3333333333333,4,2,2,5,0,0
18527,-83.3333333333333,4,2,1,80,0,0
19730,-83.3333333333333,4,2,1,5,0,0
19823,-83.3333333333333,4,2,1,80,0,0
20841,-83.3333333333333,4,2,2,80,0,0
20934,-83.3333333333333,4,2,3,80,0,0
21027,-83.3333333333333,4,2,4,80,0,0
21119,-83.3333333333333,4,2,2,80,0,0
21490,-83.3333333333333,4,2,1,80,0,0
23619,-83.3333333333333,4,2,2,80,0,0
23712,-83.3333333333333,4,2,1,80,0,0
23804,-83.3333333333333,4,2,2,80,0,0
23897,-83.3333333333333,4,2,3,80,0,0
23990,-83.3333333333333,4,2,4,80,0,0
24013,-83.3333333333333,4,2,99,80,0,0
24082,-125,4,2,1,80,0,0
24638,-125,4,2,1,80,0,0
25008,-125,4,2,2,60,0,0
25193,-125,4,2,3,60,0,0
25402,-125,4,2,99,60,0,0
25934,-125,4,2,2,60,0,0
26883,-125,4,2,99,60,0,0
27416,-125,4,2,2,60,0,0
28156,-125,4,2,3,60,0,0
28365,-125,4,2,99,60,0,0
28527,-125,4,2,3,60,0,0
28735,-125,4,2,99,60,0,0
28897,-125,4,2,2,60,0,0
29105,-125,4,2,99,60,0,0
29267,-125,4,2,2,60,0,0
29476,-125,4,2,99,60,0,0
29638,-125,4,2,2,60,0,0
29846,-125,4,2,99,60,0,0
30378,-125,4,2,2,60,0,0
31304,-125,4,2,3,60,0,0
31328,-125,4,2,99,60,0,0
31859,-125,4,2,2,60,0,0
32809,-125,4,2,99,60,0,0
33156,-125,4,2,2,60,0,0
33179,-125,4,2,99,60,0,0
33527,-125,4,2,3,60,0,0
33550,-125,4,2,99,60,0,0
33897,-125,4,2,2,60,0,0
34082,-125,4,2,3,60,0,0
34105,-125,4,2,99,60,0,0
34175,-125,4,2,3,60,0,0
34198,-125,4,2,99,60,0,0
34267,-125,4,2,3,60,0,0
34291,-125,4,2,99,60,0,0
34360,-125,4,2,3,60,0,0
34476,-125,4,2,99,60,0,0
34638,-125,4,2,3,60,0,0
34846,-125,4,2,99,60,0,0
35286,-125,4,2,3,60,0,0
35379,-125,4,2,2,60,0,0
35587,-125,4,2,99,60,0,0
35749,-125,4,2,2,60,0,0
35957,-125,4,2,99,60,0,0
36119,-125,4,2,2,60,0,0
37230,-125,4,2,3,60,0,0
37439,-125,4,2,99,60,0,0
37601,-125,4,2,3,60,0,0
37786,-125,4,2,2,60,0,0
38920,-125,4,2,99,60,0,0
39082,-125,4,2,2,60,0,0
40193,-125,4,2,3,60,0,0
40402,-125,4,2,99,60,0,0
40564,-125,4,2,3,60,0,0
40656,-125,4,2,7,60,0,0
40934,-125,4,2,2,60,0,0
40957,-125,4,2,99,60,0,0
41119,-125,4,2,2,60,0,0
41328,-125,4,2,99,60,0,0
41490,-125,4,2,2,60,0,0
41860,-111.111111111111,4,2,2,60,0,0
41883,-111.111111111111,4,2,99,60,0,0
42045,-111.111111111111,4,2,2,60,0,0
42230,-111.111111111111,4,2,1,60,0,0
42439,-111.111111111111,4,2,99,60,0,0
42693,-111.111111111111,4,2,1,60,0,0
43156,-111.111111111111,4,2,3,60,0,0
43365,-111.111111111111,4,2,99,60,0,0
43527,-111.111111111111,4,2,3,60,0,0
44267,-111.111111111111,4,2,2,60,0,0
44846,-111.111111111111,4,2,99,60,0,0
45008,-111.111111111111,4,2,2,60,0,0
45193,-111.111111111111,4,2,1,60,0,0
45379,-111.111111111111,4,2,2,60,0,0
45402,-111.111111111111,4,2,99,60,0,0
45656,-111.111111111111,4,2,3,60,0,0
45749,-111.111111111111,4,2,4,60,0,0
45934,-111.111111111111,4,2,1,60,0,0
46027,-111.111111111111,4,2,2,60,0,0
46119,-111.111111111111,4,2,3,60,0,0
46212,-111.111111111111,4,2,4,60,0,0
46328,-111.111111111111,4,2,99,60,0,0
46490,-111.111111111111,4,2,4,60,0,0
46582,-111.111111111111,4,2,7,60,0,0
46698,-111.111111111111,4,2,99,60,0,0
46860,-111.111111111111,4,2,7,60,0,0
47230,-111.111111111111,4,2,2,60,0,0
47439,-111.111111111111,4,2,99,60,0,0
47601,-111.111111111111,4,2,2,60,0,0
47786,-90.9090909090909,4,2,5,70,0,0
48063,-90.9090909090909,4,2,5,5,0,0
48156,-90.9090909090909,4,2,4,70,0,0
48248,-90.9090909090909,4,2,4,5,0,0
48341,-90.9090909090909,4,2,2,70,0,0
48433,-90.9090909090909,4,2,2,5,0,0
48527,-90.9090909090909,4,2,2,70,0,0
48897,-90.9090909090909,4,2,4,70,0,0
48990,-90.9090909090909,4,2,5,70,0,0
49082,-90.9090909090909,4,2,6,70,0,0
49267,-90.9090909090909,4,2,2,70,0,0
49359,-90.9090909090909,4,2,2,5,0,0
49453,-90.9090909090909,4,2,2,70,0,0
49545,-90.9090909090909,4,2,2,5,0,0
49638,-90.9090909090909,4,2,2,70,0,0
50378,-90.9090909090909,4,2,4,70,0,0
50564,-90.9090909090909,4,2,1,70,0,0
50749,-90.9090909090909,4,2,5,70,0,0
50841,-90.9090909090909,4,2,5,5,0,0
50934,-90.9090909090909,4,2,1,70,0,0
51304,-90.9090909090909,4,2,5,70,0,0
51396,-90.9090909090909,4,2,5,5,0,0
51490,-90.9090909090909,4,2,5,70,0,0
51675,-90.9090909090909,4,2,1,70,0,0
52971,-90.9090909090909,4,2,7,70,0,0
53156,-90.9090909090909,4,2,2,70,0,0
53341,-90.9090909090909,4,2,4,70,0,0
53712,-90.9090909090909,4,2,5,70,0,0
55471,-90.9090909090909,4,2,5,5,0,0
55564,-90.9090909090909,4,2,5,70,0,0
56675,-90.9090909090909,4,2,5,80,0,0
56767,-90.9090909090909,4,2,4,80,0,0
56860,-90.9090909090909,4,2,8,80,0,0
56953,-90.9090909090909,4,2,4,80,0,0
57045,-90.9090909090909,4,2,8,80,0,0
57137,-90.9090909090909,4,2,4,80,0,0
57230,-90.9090909090909,4,2,8,80,0,0
57323,-90.9090909090909,4,2,4,80,0,0
57416,-90.9090909090909,4,2,8,80,0,0
57508,-90.9090909090909,4,2,4,80,0,0
57601,-90.9090909090909,4,2,8,80,0,0
57693,-90.9090909090909,4,2,4,80,0,0
57786,-90.9090909090909,4,2,8,80,0,0
57878,-90.9090909090909,4,2,4,80,0,0
57971,-90.9090909090909,4,2,8,80,0,0
58063,-90.9090909090909,4,2,4,80,0,0
58156,-90.9090909090909,4,2,5,80,0,0
58249,-90.9090909090909,4,2,4,80,0,0
58341,-90.9090909090909,4,2,5,80,0,0
58434,-90.9090909090909,4,2,6,80,0,0
58527,-90.9090909090909,4,2,5,80,0,0
58619,-90.9090909090909,4,2,6,80,0,0
58712,-90.9090909090909,4,2,7,80,0,0
58804,-90.9090909090909,4,2,8,80,0,0
58897,-90.9090909090909,4,2,8,85,0,0
59267,-90.9090909090909,4,2,5,85,0,0
59360,-90.9090909090909,4,2,4,85,0,0
59453,-90.9090909090909,4,2,7,85,0,0
59545,-90.9090909090909,4,2,6,85,0,0
59638,-76.9230769230769,4,2,2,90,0,1
60008,-76.9230769230769,4,2,1,90,0,1
62230,-76.9230769230769,4,2,9,90,0,1
62323,-76.9230769230769,4,2,2,90,0,1
62416,-76.9230769230769,4,2,3,90,0,1
62508,-76.9230769230769,4,2,4,90,0,1
62601,-76.9230769230769,4,2,2,90,0,1
62971,-76.9230769230769,4,2,1,90,0,1
64174,-76.9230769230769,4,2,1,5,0,1
64267,-76.9230769230769,4,2,1,90,0,1
65193,-76.9230769230769,4,2,9,90,0,1
65564,-76.9230769230769,4,2,10,90,0,1
65841,-76.9230769230769,4,2,10,5,0,1
65934,-76.9230769230769,4,2,9,90,0,1
66119,-76.9230769230769,4,2,1,90,0,1
66489,-76.9230769230769,4,2,9,90,0,1
66860,-76.9230769230769,4,2,1,90,0,1
67416,-76.9230769230769,4,2,9,90,0,1
67971,-76.9230769230769,4,2,1,90,0,1
68249,-76.9230769230769,4,2,2,90,0,1
68341,-76.9230769230769,4,2,1,90,0,1
68434,-76.9230769230769,4,2,2,90,0,1
68897,-76.9230769230769,4,2,1,90,0,1
71026,-76.9230769230769,4,2,2,90,0,1
71119,-76.9230769230769,4,2,1,90,0,1
71212,-76.9230769230769,4,2,2,90,0,1
71304,-76.9230769230769,4,2,3,90,0,1
71397,-76.9230769230769,4,2,4,90,0,1
71490,-76.9230769230769,4,2,2,90,0,1
71860,-76.9230769230769,4,2,1,90,0,1
73063,-76.9230769230769,4,2,1,5,0,1
73156,-76.9230769230769,4,2,1,90,0,1
73897,-76.9230769230769,4,2,5,90,0,1
74082,-76.9230769230769,4,2,1,90,0,1
74175,-76.9230769230769,4,2,2,90,0,1
74267,-76.9230769230769,4,2,3,90,0,1
74360,-76.9230769230769,4,2,4,90,0,1
74453,-76.9230769230769,4,2,2,90,0,1
74823,-76.9230769230769,4,2,1,90,0,1
76026,-76.9230769230769,4,2,1,5,0,1
76119,-76.9230769230769,4,2,1,90,0,1
77045,-76.9230769230769,4,2,2,90,0,1
77230,-76.9230769230769,4,2,3,90,0,1
77416,-76.9230769230769,4,2,2,90,0,1
77786,-76.9230769230769,4,2,1,90,0,1
80101,-76.9230769230769,4,2,2,90,0,1
80193,-76.9230769230769,4,2,3,90,0,1
80286,-76.9230769230769,4,2,4,90,0,1
80379,-90.9090909090909,4,2,2,90,0,1
80749,-90.9090909090909,4,2,1,90,0,1
81860,-90.9090909090909,4,2,2,90,0,1
82230,-90.9090909090909,4,2,1,90,0,1
82786,-90.9090909090909,4,2,9,90,0,1
82878,-90.9090909090909,4,2,2,90,0,1
82971,-90.9090909090909,4,2,1,90,0,1
83064,-90.9090909090909,4,2,2,90,0,1
83156,-90.9090909090909,4,2,3,90,0,1
83249,-90.9090909090909,4,2,4,90,0,1
83341,-111.111111111111,4,2,2,65,0,0
84082,-111.111111111111,4,2,1,65,0,0
84453,-111.111111111111,4,2,3,65,0,0
85564,-111.111111111111,4,2,7,65,0,0
85841,-111.111111111111,4,2,7,5,0,0
85934,-111.111111111111,4,2,7,65,0,0
86304,-111.111111111111,4,2,5,65,0,0
87045,-111.111111111111,4,2,11,65,0,0
87786,-111.111111111111,4,2,7,65,0,0
88341,-111.111111111111,4,2,12,65,0,0
88712,-111.111111111111,4,2,7,65,0,0
88897,-111.111111111111,4,2,12,65,0,0

[Colours]
Combo1 : 255,192,0
Combo2 : 255,74,74
Combo3 : 251,251,0
Combo4 : 242,24,57

[HitObjects]
256,192,6304,12,4,11860,2:0:0:0:
438,77,12230,6,0,B|391:62|391:62|326:73,1,96,4|0,3:2|2:0,2:0:0:0:
208,133,12601,1,8,2:1:0:0:
313,160,12786,1,0,3:0:0:0:
256,39,12971,1,0,3:0:0:0:
114,162,13156,2,0,L|118:260,1,96,8|0,2:1|2:0,2:0:0:0:
188,333,13527,6,0,B|161:308|161:308|87:313|87:313|62:344,1,144,0|0,3:0|2:0,2:0:0:0:
53,359,13897,1,0,3:0:0:0:
252,382,14082,2,0,B|283:333|254:286|254:286|227:241|261:184,1,192,8|0,2:1|2:0,2:0:0:0:
360,117,14638,1,0,3:0:0:0:
415,251,14823,1,8,2:3:0:0:
390,248,14916,1,8,2:3:0:0:
366,246,15008,1,8,2:3:0:0:
341,244,15101,1,8,2:3:0:0:
317,242,15193,6,0,L|210:229,1,96,4|0,3:2|2:0,2:0:0:0:
414,333,15564,1,8,2:1:0:0:
435,169,15749,1,0,3:0:0:0:
317,242,15934,1,0,3:0:0:0:
505,212,16119,2,0,P|515:153|491:106,1,96,8|0,2:0|2:0,2:0:0:0:
382,43,16490,6,0,B|340:33|306:57|306:57|274:78|233:64,1,144,0|0,3:0|2:0,2:0:0:0:
212,56,16860,1,0,3:0:0:0:
80,183,17045,2,0,P|150:128|225:178,1,192,8|0,2:0|2:0,2:0:0:0:
200,363,17601,5,8,2:3:0:0:
331,240,17786,1,8,2:3:0:0:
154,205,17971,1,8,2:3:0:0:
316,352,18156,6,0,B|357:367|357:367|465:345,1,144,4|0,3:2|2:0,2:0:0:0:
475,336,18527,1,8,2:0:0:0:
374,236,18712,1,0,3:0:0:0:
316,352,18897,1,0,3:0:0:0:
460,245,19082,2,0,P|451:194|412:156,1,96,8|0,2:0|2:0,2:0:0:0:
219,217,19453,6,0,B|256:246|256:246|365:237,1,144,0|0,3:0|2:0,2:0:0:0:
374,236,19823,1,0,3:0:0:0:
247,130,20008,2,0,B|163:137|163:137|144:151|144:151|40:160,1,192,8|0,2:0|2:0,2:0:0:0:
152,42,20564,1,0,3:0:0:0:
304,74,20749,1,8,2:3:0:0:
318,92,20841,1,8,2:3:0:0:
326,114,20934,1,8,2:3:0:0:
328,137,21027,1,8,2:3:0:0:
324,160,21119,6,0,P|290:200|230:212,1,96,4|0,3:2|2:0,2:0:0:0:
145,119,21490,2,0,P|179:81|239:67,1,96,8|0,2:0|2:0,2:0:0:0:
69,190,21860,6,0,L|49:81,1,96,0|0,3:0|2:0,2:0:0:0:
165,209,22230,2,0,L|145:318,1,96,8|0,2:0|2:0,2:0:0:0:
57,334,22601,6,0,B|103:310|103:310|171:333,1,96,0|0,3:0|2:0,2:0:0:0:
329,355,22971,2,0,B|283:379|283:379|215:356,1,96,8|0,2:0|2:0,2:0:0:0:
306,204,23341,1,0,3:0:0:0:
488,212,23527,2,0,L|492:268,1,48,8|8,2:3|2:3,2:0:0:0:
419,365,23712,1,10,3:0:0:0:
416,344,23804,1,8,2:3:0:0:
414,324,23897,1,8,2:3:0:0:
412,304,23990,1,8,2:3:0:0:
410,284,24082,6,0,B|402:147|402:147|383:200,1,192,6|0,3:2|2:0,2:0:0:0:
383,198,25008,5,10,2:0:0:0:
474,125,25193,1,2,3:2:0:0:
363,71,25379,2,0,B|312:51|264:81|264:81|211:112|154:71,1,192,2|8,3:2|2:0,2:0:0:0:
179,85,26490,5,2,2:0:0:0:
221,177,26675,1,2,2:0:0:0:
119,149,26860,2,0,P|92:88|180:-1,1,192,2|8,2:0|2:1,2:0:0:0:
207,290,28156,5,2,3:2:0:0:
311,287,28341,2,0,P|282:272|251:272,1,64,2|0,3:2|2:0,2:0:0:0:
158,384,28712,2,0,P|184:367|200:339,1,64,2|8,2:0|2:1,2:0:0:0:
151,202,29082,2,0,P|152:233|168:260,1,64,2|0,2:0|2:0,2:0:0:0:
389,317,29453,6,0,P|393:285|387:254,1,64,2|0,2:0|2:0,2:0:0:0:
471,381,29823,2,0,P|484:286|466:192,1,192,2|8,2:0|2:0,2:0:0:0:
467,192,30934,5,10,2:0:0:0:
478,78,31119,1,2,2:0:0:0:
373,76,31304,2,0,B|402:34|402:34|389:185,1,192,2|8,3:2|2:1,2:0:0:0:
389,174,32416,5,2,2:0:0:0:
373,76,32601,1,2,2:0:0:0:
271,162,32786,2,0,B|304:188|304:188|400:171,3,128,2|2|2|10,2:0|2:0|2:0|2:0,2:0:0:0:
262,80,34082,6,0,L|230:85,3,32,0|0|0|0,3:0|3:0|3:0|3:0,2:0:0:0:
174,137,34453,2,0,L|111:125,1,64,0|0,2:0|2:0,2:0:0:0:
59,62,34730,1,0,2:0:0:0:
76,59,34823,2,0,B|96:102|96:102|56:234,1,160,12|0,2:0|2:0,2:0:0:0:
54,233,35379,1,8,2:1:0:0:
207,225,35564,6,0,B|174:218|174:218|120:228,1,64,2|0,2:0|2:0,2:0:0:0:
141,331,35934,2,0,B|174:338|174:338|228:328,1,64,2|0,2:0|2:0,2:0:0:0:
238,327,36212,1,8,2:0:0:0:
238,327,36304,1,8,2:1:0:0:
238,327,36860,5,10,2:0:0:0:
304,252,37045,1,2,2:0:0:0:
397,383,37230,1,2,3:2:0:0:
397,383,37323,1,0,3:0:0:0:
397,383,37416,2,0,L|388:308,1,64,0|0,2:0|2:0,2:0:0:0:
389,291,37693,1,0,2:0:0:0:
389,291,37786,1,8,2:0:0:0:
389,291,38341,5,10,2:1:0:0:
476,362,38527,1,2,2:0:0:0:
310,360,38712,1,2,2:0:0:0:
377,210,38897,2,0,P|408:208|437:221,1,64,8|0,2:0|2:0,2:0:0:0:
462,247,39175,1,0,2:0:0:0:
462,247,39267,1,8,2:0:0:0:
462,247,39823,5,8,2:1:0:0:
308,259,40008,1,2,2:0:0:0:
353,123,40193,1,2,3:2:0:0:
353,123,40286,1,0,3:0:0:0:
353,123,40379,2,0,L|367:193,1,64,0|2,3:0|2:0,2:0:0:0:
377,217,40656,1,8,2:0:0:0:
377,217,40749,1,4,2:0:0:0:
493,96,40934,2,0,B|464:88|464:88|408:104,1,64,2|0,2:0|2:0,2:0:0:0:
277,163,41304,6,0,B|244:172|244:172|215:164,1,64,10|0,2:0|2:0,2:0:0:0:
139,81,41675,1,2,2:0:0:0:
248,17,41860,2,0,L|246:97,1,72.0000000000001,8|0,2:0|2:0,2:0:0:0:
248,123,42138,1,0,2:0:0:0:
248,123,42230,1,4,2:0:0:0:
64,116,42416,6,0,P|57:63|84:17,1,108,0|0,2:0|2:0,2:0:0:0:
103,5,42786,1,2,2:0:0:0:
139,81,42971,1,6,2:0:0:0:
104,193,43156,1,2,3:2:0:0:
104,193,43249,1,0,3:0:0:0:
104,193,43341,2,0,P|69:203|26:197,1,72.0000000000001,4|0,2:0|2:0,2:0:0:0:
7,190,43619,1,0,2:0:0:0:
7,190,43712,1,4,2:0:0:0:
7,190,44267,5,10,2:0:0:0:
125,110,44453,1,2,2:0:0:0:
17,94,44638,1,2,2:0:0:0:
121,222,44823,2,0,L|113:310,1,72.0000000000001,8|2,2:0|2:0,2:0:0:0:
116,323,45101,1,8,2:0:0:0:
116,323,45193,1,4,3:2:0:0:
216,218,45379,6,0,L|204:340,1,108,10|0,2:3|2:0,2:0:0:0:
204,347,45749,1,10,2:3:0:0:
307,249,45934,1,8,2:3:0:0:
305,267,46027,1,8,2:3:0:0:
304,285,46119,1,8,2:3:0:0:
302,303,46212,1,8,2:3:0:0:
301,321,46304,6,0,B|338:335|338:335|393:319,1,72.0000000000001,0|0,2:0|2:0,2:0:0:0:
396,312,46582,1,8,2:0:0:0:
396,312,46675,2,0,B|433:298|433:298|488:314,1,72.0000000000001,4|0,2:0|2:0,2:0:0:0:
433,384,47045,1,0,2:0:0:0:
495,320,47230,1,4,2:0:0:0:
467,216,47416,2,0,P|433:208|389:219,1,72.0000000000001,0|0,2:0|2:0,2:0:0:0:
504,142,47786,6,0,P|434:125|364:139,1,132,8|0,3:0|2:0,2:0:0:0:
306,165,48156,2,0,P|283:171|256:169,1,44,2|0,2:0|2:0,2:0:0:0:
280,50,48341,2,0,L|275:117,1,44,0|0,3:0|2:0,2:0:0:0:
197,26,48527,6,0,L|190:113,1,88,8|8,3:2|2:0,2:0:0:0:
112,202,48897,2,0,L|105:114,1,88,10|8,2:0|2:0,2:0:0:0:
25,195,49267,6,0,L|30:273,1,44,0|0,3:0|2:0,2:0:0:0:
180,248,49453,2,0,L|174:326,1,44,0|0,3:0|2:0,2:0:0:0:
50,364,49638,2,0,B|95:342|133:362|133:362|176:384|225:361,1,176,8|0,3:2|2:0,2:0:0:0:
362,297,50193,2,0,P|317:287|260:310,1,88,0|2,3:0|2:0,2:0:0:0:
394,384,50564,5,2,2:0:0:0:
449,258,50749,2,0,L|454:302,1,44,8|0,3:0|2:0,2:0:0:0:
371,207,50934,2,0,L|381:119,1,88,2|0,2:0|2:0,2:0:0:0:
491,44,51304,2,0,B|470:38|470:38|448:42,1,44,10|0,3:0|2:0,2:0:0:0:
455,174,51490,6,0,L|458:153,2,22,0|0|0,2:0|2:0|2:0,2:0:0:0:
482,154,51675,2,0,L|473:241,2,88,6|0|2,2:0|2:0|2:0,2:0:0:0:
322,102,52230,6,0,P|358:96|388:102,2,58.6666666666667,4|0|0,2:0|2:0|2:0,2:0:0:0:
244,68,52601,2,0,P|265:38|290:21,2,58.6666666666667,0|0|0,2:0|2:0|2:0,2:0:0:0:
163,98,52971,2,0,P|158:70|161:41,2,58.6666666666667,12|8|8,2:0|2:0|2:0,2:0:0:0:
106,156,53341,6,0,L|103:187,2,22,2|0|0,2:0|2:0|2:0,2:0:0:0:
102,198,53527,1,0,2:0:0:0:
231,268,53712,6,0,B|178:242|135:270|138:270|142:269|102:297|50:263,1,176,10|0,3:0|2:0,2:0:0:0:
285,333,54267,6,0,P|312:251|259:187,1,176,8|0,3:0|2:0,2:0:0:0:
198,359,54823,6,0,B|280:352|280:352|302:360|302:360|393:350,1,176,8|0,3:0|2:0,2:0:0:0:
478,270,55379,2,0,B|453:276|453:276|413:268,1,44,0|0,2:0|2:0,2:0:0:0:
448,172,55564,2,0,L|459:353,1,176,0|0,2:0|2:0,2:0:0:0:
417,168,56119,2,0,L|428:349,1,176,0|0,2:0|2:0,2:0:0:0:
457,90,56675,5,8,3:0:0:0:
436,82,56767,1,8,2:0:0:0:
414,80,56860,1,8,2:0:0:0:
392,83,56953,1,8,2:0:0:0:
372,91,57045,2,0,P|339:96|326:95,1,44,8|8,2:0|2:0,2:0:0:0:
231,25,57230,5,8,3:2:0:0:
250,51,57323,1,8,2:0:0:0:
256,83,57416,1,8,2:0:0:0:
248,115,57508,1,8,2:0:0:0:
226,141,57601,1,8,2:0:0:0:
196,154,57693,1,8,2:0:0:0:
162,152,57786,2,0,P|130:139|116:128,3,44,8|8|8|8,2:0|2:0|2:0|2:0,2:0:0:0:
95,62,58156,5,8,3:1:0:0:
95,94,58249,1,8,2:1:0:0:
96,126,58341,1,8,2:1:0:0:
97,160,58434,1,8,2:1:0:0:
98,192,58527,2,0,L|99:245,3,44,8|8|8|8,2:1|2:1|2:1|2:1,2:0:0:0:
42,317,58897,5,8,2:0:0:0:
66,290,58990,1,8,2:0:0:0:
101,277,59082,1,8,2:0:0:0:
137,280,59175,1,8,2:0:0:0:
169,298,59267,1,8,2:1:0:0:
200,313,59360,1,8,2:0:0:0:
236,316,59453,1,8,2:1:0:0:
270,304,59545,1,8,2:0:0:0:
295,278,59638,6,0,P|345:252|417:270,1,104,6|0,3:2|2:0,2:0:0:0:
361,351,60008,1,8,2:0:0:0:
323,172,60193,1,0,3:0:0:0:
474,262,60379,1,0,3:0:0:0:
304,161,60564,2,0,B|252:146|252:146|203:159,1,104,8|0,2:0|2:0,2:0:0:0:
333,87,60934,5,0,3:0:0:0:
251,234,61119,1,2,2:0:0:0:
153,87,61304,1,0,3:0:0:0:
388,154,61490,2,0,P|415:59|338:0,1,208,8|0,2:0|2:0,2:0:0:0:
253,149,62045,1,0,3:0:0:0:
86,38,62230,1,8,2:0:0:0:
117,15,62323,1,8,2:3:0:0:
155,8,62416,1,10,2:3:0:0:
193,16,62508,1,8,2:3:0:0:
225,38,62601,5,4,3:2:0:0:
154,196,62786,1,2,2:0:0:0:
86,38,62971,1,10,2:0:0:0:
253,149,63156,5,2,3:2:0:0:
65,24,63341,1,2,3:2:0:0:
109,263,63527,2,0,P|158:277|205:258,1,104,10|0,2:0|2:0,2:0:0:0:
58,190,63897,2,0,L|65:363,1,156,2|0,3:2|2:0,2:0:0:0:
67,376,64267,1,0,3:0:0:0:
205,257,64453,2,0,B|255:214|314:251|311:251|308:251|356:285|421:230,1,208,8|0,2:0|2:0,2:0:0:0:
278,142,65008,5,10,2:0:0:0:
264,331,65193,1,10,2:0:0:0:
423,237,65379,1,10,2:0:0:0:
325,72,65564,2,0,P|249:63|196:116,1,156,12|0,3:2|2:0,2:0:0:0:
189,145,65934,5,10,2:1:0:0:
323,231,66119,1,2,3:2:0:0:
420,51,66304,2,0,L|404:165,1,104,2|8,3:2|2:1,2:0:0:0:
337,40,66675,5,2,2:0:0:0:
501,148,66860,1,2,3:2:0:0:
324,211,67045,1,2,2:0:0:0:
425,28,67230,1,2,3:2:0:0:
485,267,67416,6,0,B|430:238|377:274|377:274|326:311|271:277,1,208,10|0,2:1|2:0,2:0:0:0:
159,186,67971,1,0,3:0:0:0:
239,355,68156,1,8,2:3:0:0:
213,325,68249,1,8,2:3:0:0:
204,288,68341,1,10,2:3:0:0:
211,250,68434,1,8,2:3:0:0:
235,219,68527,5,0,3:0:0:0:
321,350,68712,1,2,2:0:0:0:
124,305,68897,5,10,2:0:0:0:
271,205,69082,1,2,2:0:0:0:
148,381,69267,6,0,P|87:377|57:348,1,104,2|0,3:2|2:0,2:0:0:0:
46,331,69545,1,2,2:0:0:0:
46,331,69638,1,8,2:0:0:0:
216,304,69823,1,2,2:0:0:0:
135,178,70008,6,0,L|124:289,1,104,0|0,3:0|2:0,2:0:0:0:
25,193,70379,2,0,L|36:82,1,104,8|0,2:0|2:0,2:0:0:0:
135,178,70749,1,0,3:0:0:0:
148,22,70934,2,0,L|142:93,1,52,8|8,2:3|2:3,2:0:0:0:
273,196,71119,1,8,2:3:0:0:
238,193,71212,1,8,2:3:0:0:
204,189,71304,1,8,2:3:0:0:
170,183,71397,1,8,2:3:0:0:
135,178,71490,6,0,L|147:36,1,104,6|0,3:2|2:0,2:0:0:0:
172,267,71860,1,8,2:0:0:0:
53,138,72045,1,0,3:0:0:0:
222,106,72230,1,0,3:0:0:0:
60,258,72416,2,0,L|61:361,1,104,8|0,2:0|2:0,2:0:0:0:
317,288,72786,5,0,3:0:0:0:
178,363,72971,1,2,2:0:0:0:
135,178,73156,1,0,3:0:0:0:
362,369,73341,2,0,P|407:282|350:200,1,208,8|0,2:0|2:0,2:0:0:0:
255,343,73897,1,8,3:0:0:0:
332,193,74082,1,8,2:3:0:0:
375,199,74175,1,8,2:3:0:0:
410,205,74267,1,10,2:3:0:0:
445,211,74360,1,8,2:3:0:0:
480,217,74453,5,4,3:2:0:0:
362,369,74638,1,2,2:0:0:0:
289,187,74823,1,10,2:0:0:0:
480,217,75008,1,2,3:2:0:0:
346,380,75193,1,2,3:2:0:0:
266,180,75379,2,0,L|280:76,1,104,10|0,2:0|2:0,2:0:0:0:
171,189,75749,2,0,L|193:28,1,156,2|0,3:2|2:0,2:0:0:0:
197,5,76119,1,0,3:0:0:0:
10,229,76304,6,0,B|73:208|112:246|112:246|150:284|213:262,1,208,8|0,2:0|2:0,2:0:0:0:
47,308,76860,5,10,2:3:0:0:
110,122,77045,1,10,2:3:0:0:
228,269,77230,1,10,2:3:0:0:
30,100,77416,2,0,B|101:94|101:94|121:102|121:102|212:93,1,156,4|0,3:2|2:0,2:0:0:0:
219,91,77786,5,10,2:0:0:0:
343,216,77971,1,2,3:2:0:0:
428,89,78156,2,0,L|324:98,1,104,2|8,3:2|2:0,2:0:0:0:
469,177,78527,5,2,2:0:0:0:
451,0,78712,1,2,3:2:0:0:
298,102,78897,1,2,2:0:0:0:
507,84,79082,1,2,3:2:0:0:
228,59,79267,2,0,B|199:114|239:164|239:164|271:209|246:272,1,208,10|0,2:0|2:0,2:0:0:0:
143,165,79823,5,2,3:2:0:0:
210,331,80008,1,10,2:3:0:0:
247,341,80101,1,8,2:3:0:0:
285,334,80193,1,10,2:3:0:0:
316,311,80286,1,8,2:3:0:0:
335,277,80379,6,0,P|342:212|315:168,1,88,4|0,3:2|3:0,2:0:0:0:
212,89,80749,2,0,P|264:127|316:126,1,88,8|0,2:0|2:0,2:0:0:0:
436,76,81119,2,0,P|376:102|351:147,1,88,0|0,3:0|2:0,2:0:0:0:
335,277,81490,1,8,2:0:0:0:
327,147,81675,5,2,2:0:0:0:
427,217,81860,1,6,3:2:0:0:
308,280,82045,2,0,L|302:370,1,88,2|8,2:0|2:0,2:0:0:0:
208,285,82416,2,0,L|202:197,1,88,2|0,2:0|3:0,2:0:0:0:
108,272,82786,6,0,L|106:229,1,44,10|8,2:0|2:3,2:0:0:0:
30,162,82971,5,8,2:3:0:0:
31,140,83064,1,8,2:3:0:0:
32,118,83156,1,8,2:3:0:0:
34,96,83249,1,8,2:3:0:0:
35,74,83341,6,0,L|41:-5,1,72.0000000000001,6|0,3:2|2:0,2:0:0:0:
139,76,83712,1,0,2:0:0:0:
221,10,83897,1,0,3:0:0:0:
347,108,84082,2,0,L|275:103,1,72.0000000000001,8|0,2:0|2:0,2:0:0:0:
396,0,84453,5,8,2:1:0:0:
453,107,84638,2,0,L|447:185,1,72.0000000000001,0|12,2:0|2:0,2:0:0:0:
507,309,85008,5,12,2:0:0:0:
401,298,85193,1,12,2:0:0:0:
334,214,85379,1,0,2:0:0:0:
401,298,85564,2,0,P|353:319|278:311,1,108,10|0,2:0|2:0,2:0:0:0:
273,310,85934,1,0,2:0:0:0:
273,310,86304,6,0,P|232:302|184:309,1,72.0000000000001,8|0,3:0|2:0,2:0:0:0:
87,360,86675,5,0,2:0:0:0:
126,272,86860,1,8,3:0:0:0:
52,145,87045,2,0,L|63:243,1,72.0000000000001,8|0,3:2|2:0,2:0:0:0:
142,82,87416,5,0,3:0:0:0:
65,26,87601,1,0,2:0:0:0:
230,70,87786,5,10,2:0:0:0:
230,70,87879,1,10,2:0:0:0:
230,70,87971,2,0,L|225:145,2,72.0000000000001,10|10|10,2:0|2:0|2:0,2:0:0:0:
358,100,88527,6,0,L|325:95,2,18,10|0|0,2:0|2:0|2:0,2:0:0:0:
317,94,88712,1,10,2:0:0:0:
422,31,88897,6,0,L|455:26,2,18,10|10|10,2:0|2:0|2:0,2:0:0:0:
437,60,89082,2,0,L|470:55,2,18,10|10|10,2:0|2:0|2:0,2:0:0:0:
