osu file format v14

[General]
AudioFilename: audio.mp3
AudioLeadIn: 0
PreviewTime: 59626
Countdown: 0
SampleSet: Soft
StackLeniency: 0.2
Mode: 0
LetterboxInBreaks: 0
WidescreenStoryboard: 0

[Editor]
DistanceSpacing: 0.6
BeatDivisor: 4
GridSize: 8
TimelineZoom: 2.699999

[Metadata]
Title:Jaded (feat. Alex Gaskarth) (Cut Ver.)
TitleUnicode:Jaded (feat. Alex Gaskarth) (Cut Ver.)
Artist:ONE OK ROCK
ArtistUnicode:ONE OK ROCK
Creator:TritoBandito
Version:Future
Source:
Tags:english rock murada- addy2607 ambitions wiwit All Time Low
BeatmapID:2880178
BeatmapSetID:1386178

[Difficulty]
HPDrainRate:6
CircleSize:4
OverallDifficulty:8.8
ApproachRate:9.2
SliderMultiplier:1.8
SliderTickRate:1

[Events]
//Background and Video events
0,0,"owo.jpg.jpg",0,0
//Break Periods
//Storyboard Layer 0 (Background)
//Storyboard Layer 1 (Fail)
//Storyboard Layer 2 (Pass)
//Storyboard Layer 3 (Foreground)
//Storyboard Layer 4 (Overlay)
//Storyboard Sound Samples

[TimingPoints]
379,370.37037037037,4,2,1,50,1,0
12045,-100,4,2,1,5,0,0
12230,-83.3333333333333,4,2,2,80,0,0
12601,-83.3333333333333,4,2,1,80,0,0
13804,-83.3333333333333,4,2,1,5,0,0
13897,-83.3333333333333,4,2,1,80,0,0
14916,-83.3333333333333,4,2,2,80,0,0
15008,-83.3333333333333,4,2,3,80,0,0
15101,-83.3333333333333,4,2,4,80,0,0
15193,-83.3333333333333,4,2,2,80,0,0
15564,-83.3333333333333,4,2,1,80,0,0
16767,-83.3333333333333,4,2,1,5,0,0
16860,-83.3333333333333,4,2,1,80,0,0
17786,-83.3333333333333,4,2,2,80,0,0
17971,-83.3333333333333,4,2,3,80,0,0
18156,-83.3333333333333,4,2,2,80,0,0
18433,-83.3333333333333,4,2,2,5,0,0
18527,-83.3333333333333,4,2,1,80,0,0
19730,-83.3333333333333,4,2,1,5,0,0
19823,-83.3333333333333,4,2,1,80,0,0
20841,-83.3333333333333,4,2,2,80,0,0
20934,-83.3333333333333,4,2,3,80,0,0
21027,-83.3333333333333,4,2,4,80,0,0
21119,-83.3333333333333,4,2,2,80,0,0
21490,-83.3333333333333,4,2,1,80,0,0
23804,-83.3333333333333,4,2,2,80,0,0
23897,-83.3333333333333,4,2,3,80,0,0
23990,-83.3333333333333,4,2,4,80,0,0
24082,-166.666666666667,4,2,1,80,0,0
24105,-166.666666666667,4,2,99,80,0,0
24637,-166.666666666667,4,2,1,5,0,0
25008,-166.666666666667,4,2,2,60,0,0
25193,-166.666666666667,4,2,3,60,0,0
25402,-166.666666666667,4,2,99,60,0,0
25934,-166.666666666667,4,2,2,60,0,0
26883,-166.666666666667,4,2,99,60,0,0
27416,-166.666666666667,4,2,2,60,0,0
28156,-166.666666666667,4,2,3,60,0,0
28365,-166.666666666667,4,2,99,60,0,0
28527,-166.666666666667,4,2,3,60,0,0
28735,-166.666666666667,4,2,99,60,0,0
28897,-166.666666666667,4,2,2,60,0,0
29105,-166.666666666667,4,2,99,60,0,0
29267,-166.666666666667,4,2,2,5,0,0
29453,-166.666666666667,4,2,2,60,0,0
29476,-166.666666666667,4,2,99,60,0,0
29638,-166.666666666667,4,2,2,5,0,0
29823,-166.666666666667,4,2,2,60,0,0
29846,-166.666666666667,4,2,99,60,0,0
30378,-166.666666666667,4,2,2,60,0,0
31304,-166.666666666667,4,2,3,60,0,0
31328,-166.666666666667,4,2,99,60,0,0
31859,-166.666666666667,4,2,2,60,0,0
32809,-166.666666666667,4,2,99,60,0,0
33156,-166.666666666667,4,2,2,60,0,0
33179,-166.666666666667,4,2,99,60,0,0
33527,-166.666666666667,4,2,3,60,0,0
33550,-166.666666666667,4,2,99,60,0,0
33897,-166.666666666667,4,2,2,60,0,0
34082,-166.666666666667,4,2,3,60,0,0
34476,-166.666666666667,4,2,99,60,0,0
34545,-166.666666666667,4,2,3,60,0,0
34568,-166.666666666667,4,2,99,60,0,0
34638,-166.666666666667,4,2,3,60,0,0
34661,-166.666666666667,4,2,99,60,0,0
34730,-166.666666666667,4,2,3,60,0,0
34846,-166.666666666667,4,2,99,60,0,0
34916,-166.666666666667,4,2,3,60,0,0
35216,-166.666666666667,4,2,99,60,0,0
35286,-166.666666666667,4,2,3,60,0,0
35379,-166.666666666667,4,2,2,60,0,0
35402,-166.666666666667,4,2,99,60,0,0
35471,-166.666666666667,4,2,2,60,0,0
35494,-166.666666666667,4,2,99,60,0,0
35564,-166.666666666667,4,2,2,60,0,0
35587,-166.666666666667,4,2,99,60,0,0
35656,-166.666666666667,4,2,2,60,0,0
35934,-125,4,2,2,60,0,0
35957,-125,4,2,99,60,0,0
36119,-125,4,2,2,60,0,0
37138,-125,4,2,3,60,0,0
37439,-125,4,2,99,60,0,0
37601,-125,4,2,3,60,0,0
37786,-125,4,2,2,60,0,0
38920,-125,4,2,99,60,0,0
39082,-125,4,2,2,60,0,0
40101,-125,4,2,4,60,0,0
40193,-125,4,2,3,60,0,0
40402,-125,4,2,99,60,0,0
40564,-125,4,2,3,60,0,0
40656,-125,4,2,7,60,0,0
40934,-125,4,2,2,60,0,0
40957,-125,4,2,99,60,0,0
41119,-125,4,2,2,60,0,0
41883,-125,4,2,99,60,0,0
41953,-125,4,2,2,60,0,0
42230,-125,4,2,1,60,0,0
42253,-125,4,2,99,60,0,0
42323,-125,4,2,1,60,0,0
42346,-125,4,2,99,60,0,0
42416,-125,4,2,1,60,0,0
42439,-125,4,2,99,60,0,0
42508,-125,4,2,1,60,0,0
42531,-125,4,2,99,60,0,0
42601,-125,4,2,1,60,0,0
42624,-125,4,2,99,60,0,0
42693,-125,4,2,1,60,0,0
42809,-125,4,2,99,60,0,0
42878,-125,4,2,1,60,0,0
42994,-125,4,2,99,60,0,0
43063,-125,4,2,4,60,0,0
43156,-125,4,2,3,60,0,0
43365,-125,4,2,99,60,0,0
43434,-125,4,2,3,60,0,0
43457,-125,4,2,99,60,0,0
43527,-125,4,2,3,60,0,0
43550,-125,4,2,99,60,0,0
43619,-125,4,2,3,60,0,0
43735,-125,4,2,99,60,0,0
43804,-125,4,2,3,60,0,0
43828,-125,4,2,99,60,0,0
43897,-125,4,2,3,60,0,0
43920,-125,4,2,99,60,0,0
43990,-125,4,2,3,60,0,0
44013,-125,4,2,99,60,0,0
44082,-125,4,2,3,60,0,0
44105,-125,4,2,99,60,0,0
44175,-125,4,2,3,60,0,0
44267,-125,4,2,2,60,0,0
44291,-125,4,2,99,60,0,0
44360,-125,4,2,2,60,0,0
44476,-125,4,2,99,60,0,0
44545,-125,4,2,2,60,0,0
44661,-125,4,2,99,60,0,0
44730,-125,4,2,2,60,0,0
44846,-125,4,2,99,60,0,0
44916,-125,4,2,2,60,0,0
44939,-125,4,2,99,60,0,0
45008,-125,4,2,2,60,0,0
45193,-125,4,2,1,60,0,0
45216,-125,4,2,99,60,0,0
45286,-125,4,2,1,60,0,0
45379,-125,4,2,2,60,0,0
45402,-125,4,2,99,60,0,0
45471,-125,4,2,2,60,0,0
45494,-125,4,2,99,60,0,0
45564,-125,4,2,3,60,0,0
45587,-125,4,2,99,60,0,0
45656,-125,4,2,3,60,0,0
45749,-125,4,2,4,60,0,0
45772,-125,4,2,99,60,0,0
45841,-125,4,2,4,60,0,0
45934,-125,4,2,1,60,0,0
46027,-125,4,2,2,60,0,0
46119,-125,4,2,3,60,0,0
46212,-125,4,2,4,60,0,0
46328,-125,4,2,99,60,0,0
46490,-125,4,2,4,60,0,0
46582,-125,4,2,7,60,0,0
46698,-125,4,2,99,60,0,0
46860,-125,4,2,7,60,0,0
47230,-125,4,2,2,60,0,0
47439,-125,4,2,99,60,0,0
47601,-125,4,2,2,60,0,0
47786,-100,4,2,5,70,0,0
48156,-100,4,2,4,70,0,0
48248,-100,4,2,4,5,0,0
48341,-100,4,2,2,70,0,0
48433,-100,4,2,2,5,0,0
48527,-100,4,2,2,70,0,0
48804,-100,4,2,2,5,0,0
48897,-100,4,2,4,70,0,0
48990,-100,4,2,5,70,0,0
49082,-100,4,2,6,70,0,0
49174,-100,4,2,6,5,0,0
49267,-100,4,2,2,70,0,0
49359,-100,4,2,2,5,0,0
49453,-100,4,2,2,70,0,0
49545,-100,4,2,2,5,0,0
49638,-100,4,2,2,70,0,0
50378,-100,4,2,4,70,0,0
50564,-100,4,2,1,70,0,0
50749,-100,4,2,5,70,0,0
50841,-100,4,2,5,5,0,0
50934,-100,4,2,1,70,0,0
51304,-100,4,2,5,70,0,0
51396,-100,4,2,5,5,0,0
51490,-100,4,2,5,70,0,0
51675,-100,4,2,1,70,0,0
52971,-100,4,2,7,70,0,0
53712,-100,4,2,5,70,0,0
55471,-100,4,2,5,5,0,0
55564,-100,4,2,5,70,0,0
56675,-100,4,2,5,80,0,0
56767,-100,4,2,4,80,0,0
56860,-100,4,2,8,80,0,0
56953,-100,4,2,4,80,0,0
57045,-100,4,2,8,80,0,0
57137,-100,4,2,4,80,0,0
57230,-100,4,2,8,80,0,0
57323,-100,4,2,4,80,0,0
57416,-100,4,2,8,80,0,0
57508,-100,4,2,4,80,0,0
57601,-100,4,2,8,80,0,0
57693,-100,4,2,4,80,0,0
57786,-100,4,2,8,80,0,0
57879,-100,4,2,4,80,0,0
57971,-83.3333333333333,4,2,8,80,0,0
58063,-83.3333333333333,4,2,4,80,0,0
58156,-83.3333333333333,4,2,5,80,0,0
58249,-83.3333333333333,4,2,4,80,0,0
58341,-83.3333333333333,4,2,5,80,0,0
58434,-83.3333333333333,4,2,6,80,0,0
58527,-83.3333333333333,4,2,5,80,0,0
58619,-83.3333333333333,4,2,6,80,0,0
58712,-76.9230769230769,4,2,7,80,0,0
58804,-76.9230769230769,4,2,8,80,0,0
58897,-76.9230769230769,4,2,8,85,0,0
59267,-76.9230769230769,4,2,5,85,0,0
59360,-76.9230769230769,4,2,4,85,0,0
59453,-76.9230769230769,4,2,7,85,0,0
59545,-76.9230769230769,4,2,6,85,0,0
59638,-76.9230769230769,4,2,2,90,0,1
59915,-76.9230769230769,4,2,2,5,0,1
60008,-76.9230769230769,4,2,1,90,0,1
62230,-76.9230769230769,4,2,9,90,0,1
62323,-76.9230769230769,4,2,2,90,0,1
62416,-76.9230769230769,4,2,3,90,0,1
62508,-76.9230769230769,4,2,4,90,0,1
62601,-76.9230769230769,4,2,2,90,0,1
62971,-76.9230769230769,4,2,1,90,0,1
64174,-76.9230769230769,4,2,1,5,0,1
64267,-76.9230769230769,4,2,1,90,0,1
65100,-76.9230769230769,4,2,1,5,0,1
65193,-76.9230769230769,4,2,9,90,0,1
65564,-76.9230769230769,4,2,10,90,0,1
65934,-76.9230769230769,4,2,9,90,0,1
66026,-76.9230769230769,4,2,9,5,0,1
66119,-76.9230769230769,4,2,1,90,0,1
66490,-76.9230769230769,4,2,9,90,0,1
66767,-76.9230769230769,4,2,9,5,0,1
66860,-76.9230769230769,4,2,1,90,0,1
67416,-76.9230769230769,4,2,9,90,0,1
67971,-76.9230769230769,4,2,1,90,0,1
68249,-76.9230769230769,4,2,2,90,0,1
68341,-76.9230769230769,4,2,1,90,0,1
68434,-76.9230769230769,4,2,2,90,0,1
68897,-76.9230769230769,4,2,1,90,0,1
71026,-76.9230769230769,4,2,2,90,0,1
71119,-76.9230769230769,4,2,1,90,0,1
71212,-76.9230769230769,4,2,2,90,0,1
71304,-76.9230769230769,4,2,3,90,0,1
71397,-76.9230769230769,4,2,4,90,0,1
71490,-76.9230769230769,4,2,2,90,0,1
71767,-76.9230769230769,4,2,2,5,0,1
71860,-76.9230769230769,4,2,1,90,0,1
73897,-76.9230769230769,4,2,5,90,0,1
74082,-76.9230769230769,4,2,1,90,0,1
74175,-76.9230769230769,4,2,2,90,0,1
74267,-76.9230769230769,4,2,3,90,0,1
74360,-76.9230769230769,4,2,4,90,0,1
74453,-76.9230769230769,4,2,2,90,0,1
74823,-76.9230769230769,4,2,1,90,0,1
76026,-76.9230769230769,4,2,1,5,0,1
76119,-76.9230769230769,4,2,1,90,0,1
76952,-76.9230769230769,4,2,1,5,0,1
77045,-76.9230769230769,4,2,2,90,0,1
77230,-76.9230769230769,4,2,3,90,0,1
77416,-76.9230769230769,4,2,2,90,0,1
77693,-76.9230769230769,4,2,2,5,0,1
77786,-76.9230769230769,4,2,1,90,0,1
77878,-76.9230769230769,4,2,1,5,0,1
77971,-76.9230769230769,4,2,1,90,0,1
78619,-76.9230769230769,4,2,1,5,0,1
78712,-76.9230769230769,4,2,1,90,0,1
79915,-76.9230769230769,4,2,1,5,0,1
80008,-76.9230769230769,4,2,1,90,0,1
80101,-76.9230769230769,4,2,2,90,0,1
80193,-76.9230769230769,4,2,3,90,0,1
80286,-76.9230769230769,4,2,4,90,0,1
80379,-83.3333333333333,4,2,2,90,0,1
80749,-83.3333333333333,4,2,1,90,0,1
81860,-83.3333333333333,4,2,2,90,0,1
81952,-83.3333333333333,4,2,2,5,0,1
82045,-83.3333333333333,4,2,2,90,0,1
82137,-83.3333333333333,4,2,2,5,0,1
82230,-83.3333333333333,4,2,1,90,0,1
82786,-83.3333333333333,4,2,9,90,0,1
82879,-83.3333333333333,4,2,2,90,0,1
82971,-83.3333333333333,4,2,1,90,0,1
83064,-83.3333333333333,4,2,2,90,0,1
83156,-83.3333333333333,4,2,3,90,0,1
83249,-83.3333333333333,4,2,4,90,0,1
83341,-125,4,2,2,65,0,0
83989,-125,4,2,2,5,0,0
84082,-125,4,2,1,65,0,0
84453,-125,4,2,3,65,0,0
84545,-125,4,2,3,5,0,0
84638,-125,4,2,3,65,0,0
85100,-125,4,2,3,5,0,0
85193,-125,4,2,3,65,0,0
85285,-125,4,2,3,5,0,0
85379,-125,4,2,3,65,0,0
85471,-125,4,2,3,5,0,0
85564,-125,4,2,7,65,0,0
85841,-125,4,2,7,5,0,0
85934,-125,4,2,7,65,0,0
86304,-125,4,2,5,65,0,0
86767,-125,4,2,5,5,0,0
86860,-125,4,2,5,65,0,0
86952,-125,4,2,5,5,0,0
87045,-125,4,2,11,65,0,0
87508,-125,4,2,11,5,0,0
87601,-125,4,2,11,65,0,0
87693,-125,4,2,11,5,0,0
87786,-125,4,2,7,65,0,0
88341,-125,4,2,12,65,0,0
88712,-125,4,2,7,65,0,0
88897,-125,4,2,12,65,0,0

[Colours]
Combo1 : 255,192,0
Combo2 : 255,74,74
Combo3 : 251,251,0
Combo4 : 242,24,57

[HitObjects]
256,192,6304,12,0,12045,2:0:0:0:
492,126,12230,6,0,B|460:109|460:109|375:116,1,108,4|0,3:2|2:0,2:0:0:0:
206,131,12601,1,8,2:1:0:0:
321,218,12786,1,0,3:0:0:0:
291,49,12971,1,0,3:0:0:0:
140,182,13156,2,0,P|193:212|238:208,1,108,8|0,2:1|2:0,2:0:0:0:
108,105,13527,6,0,B|104:176|104:176|112:193|112:193|108:288,1,162,0|0,3:0|2:0,2:0:0:0:
33,256,13897,1,0,3:0:0:0:
211,38,14082,2,0,B|152:46|106:10|106:10|60:54|-15:36,1,216,8|0,2:1|2:0,2:0:0:0:
108,105,14638,1,0,3:0:0:0:
300,0,14823,1,8,2:3:0:0:
301,26,14916,1,8,2:3:0:0:
303,53,15008,1,8,2:3:0:0:
305,80,15101,1,8,2:3:0:0:
307,107,15193,6,0,L|317:226,1,108,4|0,3:2|2:0,2:0:0:0:
398,83,15564,1,8,2:1:0:0:
216,147,15749,1,0,3:0:0:0:
325,299,15934,1,0,3:0:0:0:
471,123,16119,6,0,P|480:69|456:21,1,108,8|0,2:0|2:0,2:0:0:0:
408,274,16490,2,0,B|337:267|337:267|319:274|319:274|231:266,1,162,0|0,3:0|2:0,2:0:0:0:
145,247,16860,1,0,3:0:0:0:
434,264,17045,2,0,B|340:256|340:256|316:264|316:264|219:255,1,216,8|0,2:0|2:0,2:0:0:0:
326,382,17601,5,8,2:3:0:0:
309,148,17786,1,8,2:3:0:0:
512,268,17971,1,8,2:3:0:0:
237,255,18156,6,0,B|181:250|181:250|158:240|158:240|133:245|133:245|69:240,1,162,4|0,3:2|2:0,2:0:0:0:
149,323,18527,1,8,2:0:0:0:
167,131,18712,1,0,3:0:0:0:
0,232,18897,1,0,3:0:0:0:
241,170,19082,2,0,P|249:117|225:70,1,108,8|0,2:0|2:0,2:0:0:0:
9,126,19453,6,0,B|54:113|91:130|91:130|130:148|173:128,1,162,0|0,3:0|2:0,2:0:0:0:
129,61,19823,1,0,3:0:0:0:
134,258,20008,2,0,B|176:292|176:292|165:117,1,216,8|0,2:0|2:0,2:0:0:0:
44,202,20564,1,0,3:0:0:0:
264,285,20749,1,8,2:3:0:0:
261,244,20841,1,8,2:3:0:0:
258,204,20934,1,8,2:3:0:0:
255,163,21027,1,8,2:3:0:0:
252,123,21119,6,0,L|245:8,1,108,4|0,3:2|2:0,2:0:0:0:
442,172,21490,2,0,L|449:287,1,108,8|0,2:0|2:0,2:0:0:0:
386,105,21860,6,0,P|447:84|502:108,1,108,0|0,3:0|2:0,2:0:0:0:
349,294,22230,2,0,L|342:186,1,108,8|0,2:0|2:0,2:0:0:0:
405,356,22601,6,0,P|361:377|303:366,1,108,0|0,3:0|2:0,2:0:0:0:
148,263,22971,2,0,P|196:240|247:251,1,108,8|0,2:0|2:0,2:0:0:0:
137,365,23341,1,0,3:0:0:0:
67,201,23527,1,8,2:3:0:0:
309,197,23712,1,10,3:0:0:0:
327,232,23804,1,8,2:3:0:0:
327,272,23897,1,8,2:3:0:0:
308,307,23990,1,8,2:3:0:0:
274,328,24082,6,0,B|239:300|239:300|226:177,1,162,6|0,3:2|2:0,2:0:0:0:
226,184,25008,5,10,2:0:0:0:
120,237,25193,1,2,3:2:0:0:
191,108,25379,2,0,B|232:89|274:116|274:116|309:137|358:114,1,162,2|8,3:2|2:0,2:0:0:0:
345,119,26490,5,2,2:0:0:0:
299,210,26675,1,2,2:0:0:0:
435,107,26860,2,0,B|363:98|363:98|344:87|344:87|277:79,1,162,2|8,2:0|2:1,2:0:0:0:
106,271,28156,5,2,3:2:0:0:
138,347,28341,2,0,L|73:349,1,53.9999999999999,2|0,3:2|2:0,2:0:0:0:
155,204,28712,2,0,L|189:258,1,53.9999999999999,2|8,2:0|2:1,2:0:0:0:
23,260,29082,2,0,L|53:203,1,53.9999999999999,2|0,2:0|2:0,2:0:0:0:
190,133,29453,6,0,P|164:125|137:127,1,53.9999999999999,2|0,2:0|2:0,2:0:0:0:
47,211,29823,2,0,L|38:50,1,162,2|8,2:0|2:0,2:0:0:0:
38,49,30934,5,10,2:0:0:0:
110,115,31119,1,2,2:0:0:0:
147,16,31304,2,0,B|121:-10|121:-10|109:117,1,162,2|8,3:2|2:1,2:0:0:0:
110,115,32416,5,2,2:0:0:0:
205,35,32601,1,2,2:0:0:0:
309,117,32786,2,0,B|258:138|258:138|185:116,3,108,2|2|2|10,2:0|2:0|2:0|2:0,2:0:0:0:
368,55,34082,5,0,3:0:0:0:
384,76,34175,1,0,3:0:0:0:
392,101,34267,1,0,3:0:0:0:
392,128,34360,1,0,3:0:0:0:
384,154,34453,6,0,L|381:186,3,26.9999999999999,0|0|0|0,2:0|2:0|2:0|2:0,2:0:0:0:
462,242,34823,2,0,L|458:210,1,26.9999999999999,12|0,2:0|2:0,2:0:0:0:
374,273,35008,1,0,2:0:0:0:
374,273,35101,1,0,2:0:0:0:
374,273,35193,2,0,L|370:304,1,26.9999999999999,0|0,2:0|2:0,2:0:0:0:
476,350,35379,2,0,L|472:318,3,26.9999999999999,8|0|2|0,2:1|2:0|2:0|2:0,2:0:0:0:
294,231,35749,1,0,2:0:0:0:
294,231,35841,1,0,2:0:0:0:
294,231,35934,6,0,L|282:317,1,72,2|0,2:0|2:0,2:0:0:0:
284,338,36212,1,8,2:0:0:0:
284,338,36304,1,8,2:1:0:0:
193,227,36490,1,0,2:0:0:0:
193,227,36860,5,10,2:0:0:0:
52,309,37045,1,2,2:0:0:0:
71,290,37138,1,0,3:0:0:0:
98,282,37230,1,2,3:2:0:0:
124,283,37323,1,0,3:0:0:0:
149,293,37416,6,0,P|188:305|222:299,1,72,0|0,2:0|2:0,2:0:0:0:
244,300,37693,1,0,2:0:0:0:
244,300,37786,1,8,2:0:0:0:
244,300,38341,5,10,2:1:0:0:
323,207,38527,1,2,2:0:0:0:
367,313,38712,1,2,2:0:0:0:
228,206,38897,2,0,B|196:194|196:194|145:198,1,72,8|0,2:0|2:0,2:0:0:0:
127,205,39175,1,0,2:0:0:0:
127,205,39267,1,8,2:0:0:0:
127,205,39823,5,8,2:1:0:0:
36,87,40008,1,2,2:0:0:0:
33,113,40101,1,0,3:0:0:0:
31,140,40193,1,2,3:2:0:0:
31,167,40286,1,0,3:0:0:0:
29,194,40379,6,0,L|21:277,1,72,0|2,3:0|2:0,2:0:0:0:
26,301,40656,1,8,2:0:0:0:
26,301,40749,1,4,2:0:0:0:
148,198,40934,2,0,L|140:114,1,72,2|0,2:0|2:0,2:0:0:0:
132,7,41304,5,10,2:0:0:0:
141,126,41490,1,0,2:0:0:0:
48,72,41675,1,2,2:0:0:0:
220,49,41860,6,0,L|264:44,1,36,8|0,2:0|2:0,2:0:0:0:
329,122,42045,1,0,2:0:0:0:
329,122,42138,1,0,2:0:0:0:
329,122,42230,2,0,L|285:117,5,36,4|0|0|0|0|0,2:0|2:0|2:0|2:0|2:0|2:0,2:0:0:0:
410,150,42786,6,0,P|415:132|415:114,1,36,2|0,2:0|2:0,2:0:0:0:
298,205,42971,2,0,P|310:217|326:226,1,36,6|0,2:0|3:0,2:0:0:0:
457,271,43156,5,2,3:2:0:0:
457,271,43249,1,0,3:0:0:0:
457,271,43341,2,0,P|439:275|423:284,3,36,4|0|0|0,2:0|2:0|2:0|2:0,2:0:0:0:
320,335,43712,2,0,P|335:343|353:348,5,36,4|0|0|0|0|0,2:0|2:0|2:0|2:0|2:0|2:0,2:0:0:0:
227,312,44267,6,0,L|232:359,1,36,10|0,2:0|2:0,2:0:0:0:
160,254,44453,2,0,L|165:207,1,36,2|0,2:0|2:0,2:0:0:0:
96,318,44638,6,0,L|101:365,1,36,2|0,2:0|2:0,2:0:0:0:
32,254,44823,2,0,L|37:207,2,36,8|0|2,2:0|2:0|2:0,2:0:0:0:
108,168,45101,1,8,2:0:0:0:
108,168,45193,2,0,L|103:121,1,36,4|0,3:2|2:0,2:0:0:0:
22,72,45379,2,0,L|27:25,3,36,10|0|8|0,2:3|2:0|2:3|2:0,2:0:0:0:
142,63,45749,6,0,P|124:56|106:54,1,36,10|0,2:3|2:0,2:0:0:0:
190,150,45934,1,8,2:3:0:0:
222,146,46027,1,8,2:3:0:0:
254,143,46119,1,8,2:3:0:0:
286,140,46212,1,8,2:3:0:0:
318,137,46304,6,0,L|397:128,1,72,0|0,2:0|2:0,2:0:0:0:
450,44,46582,1,8,2:0:0:0:
450,44,46675,2,0,L|371:35,1,72,4|0,2:0|2:0,2:0:0:0:
432,208,47045,1,0,2:0:0:0:
480,123,47230,1,4,2:0:0:0:
416,234,47416,2,0,L|423:321,1,72,0|0,2:0|2:0,2:0:0:0:
243,277,47786,6,0,B|287:259|287:259|343:263,1,90,8|0,3:0|2:0,2:0:0:0:
167,310,48156,2,0,L|161:261,1,45,2|0,2:0|2:0,2:0:0:0:
299,340,48341,2,0,L|293:389,1,45,0|0,3:0|2:0,2:0:0:0:
89,360,48527,6,0,L|69:199,1,135,8|0,3:2|2:0,2:0:0:0:
0,180,48897,2,0,B|33:191|33:191|99:179|99:179|125:155,1,135,10|0,2:0|2:0,2:0:0:0:
149,82,49267,6,0,P|126:78|104:81,1,45,0|0,3:0|2:0,2:0:0:0:
187,210,49453,2,0,P|201:192|209:171,1,45,0|0,3:0|2:0,2:0:0:0:
88,70,49638,2,0,B|125:55|175:74|175:74|221:93|263:77,1,180,8|0,3:2|2:0,2:0:0:0:
420,44,50193,2,0,P|377:32|332:46,1,90,0|2,3:0|2:0,2:0:0:0:
475,131,50564,5,2,2:0:0:0:
512,0,50749,2,0,B|512:-1|505:53,1,45,8|0,3:0|2:0,2:0:0:0:
379,111,50934,2,0,L|391:207,1,90,2|0,2:0|2:0,2:0:0:0:
432,384,51304,6,0,B|432:385|425:331,1,45,10|0,3:0|2:0,2:0:0:0:
488,256,51490,2,0,L|464:259,2,22.5,0|0|0,2:0|2:0|2:0,2:0:0:0:
279,300,51675,1,6,2:0:0:0:
371,277,51860,1,0,2:0:0:0:
333,368,52045,1,2,2:0:0:0:
201,277,52230,6,0,P|196:307|203:336,2,60,4|0|0,2:0|2:0|2:0,2:0:0:0:
160,203,52601,6,0,P|135:220|119:246,2,60,0|0|0,2:0|2:0|2:0,2:0:0:0:
183,124,52971,5,12,2:0:0:0:
146,122,53095,5,8,2:0:0:0:
113,136,53218,5,8,2:0:0:0:
57,189,53341,6,0,P|45:189|34:189,2,22.5,2|0|0,2:0|2:0|2:0,2:0:0:0:
87,57,53527,1,0,2:0:0:0:
254,77,53712,6,0,B|283:126|253:175|253:175|230:215|248:269,1,180,10|0,3:0|2:0,2:0:0:0:
181,36,54267,6,0,P|254:-6|335:56,1,180,8|0,3:0|2:0,2:0:0:0:
212,177,54823,6,0,B|239:212|239:212|255:63,1,180,8|0,3:0|2:0,2:0:0:0:
366,143,55379,6,0,L|360:201,1,45,0|0,2:0|2:0,2:0:0:0:
487,270,55564,2,0,B|412:266|412:266|384:276|384:276|303:269,1,180,0|0,2:0|2:0,2:0:0:0:
490,291,56119,2,0,B|415:287|415:287|387:297|387:297|306:290,1,180,0|0,2:0|2:0,2:0:0:0:
201,199,56675,5,8,3:0:0:0:
225,235,56767,1,8,2:0:0:0:
234,279,56860,1,8,2:0:0:0:
226,323,56953,1,8,2:0:0:0:
203,360,57045,2,0,L|158:354,1,45,8|8,2:0|2:0,2:0:0:0:
106,155,57230,5,8,3:2:0:0:
146,119,57323,1,8,2:0:0:0:
198,108,57416,1,8,2:0:0:0:
249,123,57508,1,8,2:0:0:0:
287,160,57601,1,8,2:0:0:0:
324,197,57693,1,8,2:0:0:0:
376,212,57786,1,8,2:0:0:0:
428,200,57879,1,8,2:0:0:0:
464,156,57971,2,0,P|468:125|462:97,1,54,8|8,2:0|2:0,2:0:0:0:
258,44,58156,5,8,3:1:0:0:
204,24,58249,1,8,2:1:0:0:
149,42,58341,1,8,2:1:0:0:
119,91,58434,1,8,2:1:0:0:
126,148,58527,1,8,2:1:0:0:
168,187,58619,1,8,2:1:0:0:
225,192,58712,2,0,P|256:173|272:149,1,58.5,8|8,2:1|2:1,2:0:0:0:
276,28,58897,5,8,2:0:0:0:
208,2,58990,1,8,2:0:0:0:
139,25,59082,1,8,2:0:0:0:
101,86,59175,1,8,2:0:0:0:
110,158,59267,1,8,2:1:0:0:
163,207,59360,1,8,2:0:0:0:
234,213,59453,2,0,P|272:189|292:159,1,58.5,8|8,2:1|2:0,2:0:0:0:
383,39,59638,6,0,B|362:82|362:82|385:232,1,175.5,6|0,3:2|2:0,2:0:0:0:
400,284,60008,1,8,2:0:0:0:
460,85,60193,1,0,3:0:0:0:
262,123,60379,1,0,3:0:0:0:
496,286,60564,2,0,L|474:158,1,117,8|0,2:0|2:0,2:0:0:0:
449,9,60934,1,0,3:0:0:0:
284,119,61119,5,2,2:0:0:0:
476,170,61304,1,0,3:0:0:0:
338,43,61490,2,0,B|278:12|216:50|216:50|160:84|101:55,1,234,8|0,2:0|2:0,2:0:0:0:
0,0,62045,1,0,3:0:0:0:
99,203,62230,1,8,2:0:0:0:
102,167,62323,1,8,2:3:0:0:
106,131,62416,1,10,2:3:0:0:
110,96,62508,1,8,2:3:0:0:
114,61,62601,5,4,3:2:0:0:
0,203,62786,1,2,2:0:0:0:
195,225,62971,1,10,2:0:0:0:
118,26,63156,1,2,3:2:0:0:
91,281,63341,1,2,3:2:0:0:
313,129,63527,2,0,L|196:114,1,117,10|0,2:0|2:0,2:0:0:0:
365,210,63897,6,0,P|406:135|375:55,1,175.5,2|0,3:2|2:0,2:0:0:0:
307,22,64267,1,0,3:0:0:0:
217,242,64453,2,0,B|270:281|331:251|325:251|320:251|392:217|444:273,1,234,8|0,2:0|2:0,2:0:0:0:
264,336,65008,6,0,P|231:334|205:324,1,58.5,10|0,2:0|2:0,2:0:0:0:
278,132,65193,1,10,2:0:0:0:
458,282,65379,1,10,2:0:0:0:
190,232,65564,2,0,B|126:235|126:235|101:228|101:228|78:237|78:237|14:241,1,175.5,12|0,3:2|2:0,2:0:0:0:
105,316,65934,6,0,L|101:245,1,58.5,10|0,2:1|2:0,2:0:0:0:
94,81,66119,1,2,3:2:0:0:
0,354,66304,1,2,3:2:0:0:
209,342,66490,1,8,2:1:0:0:
93,61,66675,6,0,L|97:146,1,58.5,2|0,2:0|2:0,2:0:0:0:
105,335,66860,1,2,3:2:0:0:
211,114,67045,1,2,2:0:0:0:
0,245,67230,1,2,3:2:0:0:
261,341,67416,6,0,B|364:331|364:331|389:345|389:345|517:334,1,234,10|0,2:1|2:0,2:0:0:0:
427,243,67971,1,0,3:0:0:0:
231,343,68156,1,8,2:3:0:0:
228,313,68249,1,8,2:3:0:0:
225,284,68341,1,10,2:3:0:0:
222,255,68434,1,8,2:3:0:0:
219,226,68527,5,0,3:0:0:0:
339,356,68712,1,2,2:0:0:0:
216,197,68897,5,10,2:0:0:0:
137,384,69082,1,2,2:0:0:0:
379,209,69267,2,0,B|437:191|437:191|493:210,1,117,2|0,3:2|2:0,2:0:0:0:
438,279,69545,1,2,2:0:0:0:
438,279,69638,1,8,2:0:0:0:
436,93,69823,1,2,2:0:0:0:
319,271,70008,6,0,P|295:218|307:162,1,117,0|0,3:0|2:0,2:0:0:0:
496,31,70379,2,0,P|519:83|507:139,1,117,8|0,2:0|2:0,2:0:0:0:
329,49,70749,5,0,3:0:0:0:
512,215,70934,2,0,P|487:213|446:186,1,58.5,8|8,2:3|2:3,2:0:0:0:
284,52,71119,1,8,2:3:0:0:
239,54,71212,1,8,2:3:0:0:
194,57,71304,1,8,2:3:0:0:
149,60,71397,1,8,2:3:0:0:
104,63,71490,6,0,B|61:83|61:83|46:227,1,175.5,6|0,3:2|2:0,2:0:0:0:
43,290,71860,1,8,2:0:0:0:
185,191,72045,1,0,3:0:0:0:
61,83,72230,1,0,3:0:0:0:
136,267,72416,2,0,B|194:279|194:279|265:246,1,117,8|0,2:0|2:0,2:0:0:0:
78,183,72786,5,0,3:0:0:0:
274,238,72971,1,2,2:0:0:0:
130,379,73156,1,0,3:0:0:0:
213,165,73341,2,0,B|269:130|328:160|328:160|387:189|435:155,1,234,8|0,2:0|2:0,2:0:0:0:
274,238,73897,1,8,3:0:0:0:
463,77,74082,5,8,2:3:0:0:
496,104,74175,1,8,2:3:0:0:
512,145,74267,1,10,2:3:0:0:
507,188,74360,1,8,2:3:0:0:
482,223,74453,5,4,3:2:0:0:
314,83,74638,1,2,2:0:0:0:
345,317,74823,1,10,2:0:0:0:
423,153,75008,1,2,3:2:0:0:
221,184,75193,1,2,3:2:0:0:
424,352,75379,2,0,P|427:294|396:245,1,117,10|0,2:0|2:0,2:0:0:0:
175,320,75749,6,0,B|224:339|224:339|352:315,1,175.5,2|0,3:2|2:0,2:0:0:0:
321,240,76119,1,0,3:0:0:0:
121,143,76304,2,0,B|160:207|120:252|120:249|120:246|62:303|106:368,1,234,8|0,2:0|2:0,2:0:0:0:
250,355,76860,6,0,P|257:328|255:299,1,58.5,10|0,2:3|2:0,2:0:0:0:
225,115,77045,1,10,2:3:0:0:
103,363,77230,1,10,2:3:0:0:
328,162,77416,2,0,B|369:141|415:163|415:163|460:182|506:157,1,175.5,4|0,3:2|2:0,2:0:0:0:
452,95,77786,6,0,L|455:175,1,58.5,10|0,2:0|2:0,2:0:0:0:
460,270,77971,1,2,3:2:0:0:
241,138,78156,1,2,3:2:0:0:
447,21,78341,1,8,2:0:0:0:
183,141,78527,6,0,L|263:138,1,58.5,2|0,2:0|2:0,2:0:0:0:
461,128,78712,1,2,3:2:0:0:
329,281,78897,1,2,2:0:0:0:
316,33,79082,1,2,3:2:0:0:
442,344,79267,6,0,B|374:350|329:312|329:312|283:357|216:344,1,234,10|0,2:0|2:0,2:0:0:0:
141,248,79823,2,0,P|171:237|208:241,1,58.5,2|0,3:2|2:0,2:0:0:0:
39,339,80008,5,10,2:3:0:0:
41,295,80101,1,8,2:3:0:0:
44,251,80193,1,10,2:3:0:0:
47,207,80286,1,8,2:3:0:0:
50,163,80379,6,0,L|57:47,1,108,4|0,3:2|3:0,2:0:0:0:
240,156,80749,2,0,L|233:272,1,108,8|0,2:0|2:0,2:0:0:0:
422,384,81119,2,0,L|429:268,1,108,0|0,3:0|2:0,2:0:0:0:
240,156,81490,5,8,2:0:0:0:
362,232,81675,1,2,2:0:0:0:
428,116,81860,2,0,L|424:182,1,54,6|0,3:2|2:0,2:0:0:0:
272,300,82045,2,0,L|268:234,1,54,2|0,2:0|2:0,2:0:0:0:
428,297,82230,5,8,2:0:0:0:
324,160,82416,1,2,2:0:0:0:
512,147,82601,1,0,3:0:0:0:
334,352,82786,5,10,2:0:0:0:
288,380,82879,1,8,2:3:0:0:
235,373,82971,1,8,2:3:0:0:
197,335,83064,1,8,2:3:0:0:
160,298,83156,1,8,2:3:0:0:
107,291,83249,1,8,2:3:0:0:
61,319,83341,6,0,P|110:366|193:337,1,144,6|0,3:2|2:0,2:0:0:0:
156,170,83897,2,0,L|151:214,1,36,0|0,3:0|2:0,2:0:0:0:
228,256,84082,2,0,L|235:184,1,72,8|0,2:0|2:0,2:0:0:0:
143,92,84453,6,0,P|160:89|178:91,1,36,8|0,2:1|2:0,2:0:0:0:
126,16,84638,2,0,P|161:11|197:15,1,72,0|12,2:0|2:0,2:0:0:0:
306,91,85008,6,0,L|245:96,1,36,12|0,2:0|2:0,2:0:0:0:
377,13,85193,2,0,L|316:8,1,36,12|0,2:0|2:0,2:0:0:0:
439,97,85379,2,0,L|378:102,1,36,0|0,2:0|2:0,2:0:0:0:
494,46,85564,2,0,L|486:187,1,108,10|0,2:0|2:0,2:0:0:0:
479,232,85934,1,0,2:0:0:0:
479,232,86304,6,0,B|445:222|445:222|387:234,1,72,8|0,3:0|2:0,2:0:0:0:
441,337,86675,2,0,L|440:285,1,36,0|0,2:0|2:0,2:0:0:0:
334,231,86860,2,0,L|333:283,1,36,8|0,3:0|2:0,2:0:0:0:
249,287,87045,2,0,L|250:215,1,72,8|0,3:2|2:0,2:0:0:0:
266,363,87416,6,0,P|236:365|227:363,1,36,0|0,3:0|2:0,2:0:0:0:
136,257,87601,2,0,P|166:255|175:257,1,36,0|0,2:0|2:0,2:0:0:0:
151,346,87786,5,10,2:0:0:0:
151,339,87879,1,10,2:0:0:0:
152,332,87971,1,10,2:0:0:0:
69,196,88156,1,10,2:0:0:0:
61,308,88341,1,10,2:0:0:0:
210,193,88527,6,0,L|186:190,2,18,10|0|0,2:0|2:0|2:0,2:0:0:0:
72,173,88712,1,10,2:0:0:0:
170,79,88897,6,0,L|184:59,2,18,10|10|10,2:0|2:0|2:0,2:0:0:0:
190,107,89082,2,0,L|204:88,2,18,10|10|10,2:0|2:0|2:0,2:0:0:0:
