osu file format v14

[General]
AudioFilename: audio.mp3
AudioLeadIn: 0
PreviewTime: 47723
Countdown: 0
SampleSet: Soft
StackLeniency: 0.4
Mode: 0
LetterboxInBreaks: 0
WidescreenStoryboard: 0

[Editor]
Bookmarks: 14638,26195,37770,50773,62340,68123,73906,86014,203210
DistanceSpacing: 1
BeatDivisor: 4
GridSize: 4
TimelineZoom: 2.100006

[Metadata]
Title:Jibun ROCK (Cut Ver.)
TitleUnicode:じぶんROCK (Cut Ver.)
Artist:ONE OK ROCK
ArtistUnicode:ONE OK ROCK
Creator:Maiev
Version:The Inevitability
Source:
Tags:niche syndrome short version ver a-sketch shizuku- shizuku Kazato Asa kalibe azinlen jrock j-rock japanese rock Nicheシンドローム Taka Shikibe Mayu
BeatmapID:2537148
BeatmapSetID:1219488

[Difficulty]
HPDrainRate:6
CircleSize:4.3
OverallDifficulty:8.3
ApproachRate:9.2
SliderMultiplier:1.4
SliderTickRate:1

[Events]
//Background and Video events
0,0,"bg1.png",0,0
//Break Periods
//Storyboard Layer 0 (Background)
//Storyboard Layer 1 (Fail)
//Storyboard Layer 2 (Pass)
//Storyboard Layer 3 (Foreground)
//Storyboard Layer 4 (Overlay)
//Storyboard Sound Samples

[TimingPoints]
285,361.44578313253,4,2,22,60,1,0
375,-125,4,2,22,60,0,0
1007,361.44578313253,4,2,22,60,1,0
1549,-76.9230769230769,4,2,22,60,0,0
6699,-76.9230769230769,4,2,22,5,0,0
6790,-76.9230769230769,4,2,22,60,0,0
12573,-71.4285714285714,4,2,22,60,0,0
13205,-71.4285714285714,4,2,22,5,0,0
13296,-71.4285714285714,4,2,22,60,0,0
13928,-71.4285714285714,4,2,22,5,0,0
14019,-71.4285714285714,4,2,22,75,0,0
16097,-71.4285714285714,4,2,22,5,0,0
16187,-71.4285714285714,4,2,22,75,0,0
17272,-166.666666666667,4,2,22,75,0,0
18265,-166.666666666667,4,2,22,5,0,0
18356,-71.4285714285714,4,2,22,60,0,0
18988,-71.4285714285714,4,2,22,5,0,0
19079,-71.4285714285714,4,2,22,60,0,0
24681,-90.9090909090909,4,2,22,60,0,0
40766,-200,4,2,22,75,0,0
40946,-200,4,2,22,5,0,0
41127,-200,4,2,22,75,0,0
41398,-200,4,2,22,5,0,0
41488,-90.9090909090909,4,2,22,75,0,0
43928,-90.9090909090909,4,2,22,5,0,0
44019,-90.9090909090909,4,2,22,75,0,0
44651,-90.9090909090909,4,2,22,5,0,0
44741,-90.9090909090909,4,2,22,75,0,0
48537,-90.9090909090909,4,2,22,5,0,0
48717,-90.9090909090909,4,2,3,85,0,1
48898,-64.5161290322581,4,2,22,85,0,1
60284,-62.5,4,2,3,85,0,1
60374,-62.5,4,2,22,85,0,1
71850,-62.5,4,2,22,75,0,0
72392,-76.9230769230769,4,2,22,75,0,0
74199,-76.9230769230769,4,2,22,75,0,0
77543,-76.9230769230769,4,2,22,5,0,0
77633,-76.9230769230769,4,2,22,75,0,0
87392,-76.9230769230769,4,2,22,5,0,0
87573,-76.9230769230769,4,2,22,75,0,0
95886,-76.9230769230769,4,2,22,5,0,0
96067,-76.9230769230769,4,2,22,75,0,0

[Colours]
Combo1 : 234,213,255
Combo2 : 255,198,226
Combo3 : 196,218,255
Combo4 : 223,255,191

[HitObjects]
506,107,285,5,2,2:2:0:0:
496,112,375,2,0,L|463:107,1,28,2|0,2:2|2:2,2:2:0:0:
398,46,556,1,2,2:2:0:0:
386,39,646,2,0,L|354:42,1,28,2|0,2:2|2:2,2:2:0:0:
208,3,827,5,12,3:2:0:0:
177,109,1007,1,0,3:2:0:0:
143,217,1188,1,4,3:2:0:0:
137,227,1550,6,0,L|271:206,1,136.499993751526,8|8,2:2|2:2,2:2:0:0:
286,212,1911,1,0,3:2:0:0:
375,177,2092,1,8,2:2:0:0:
453,219,2273,1,0,3:2:0:0:
294,125,2453,5,0,3:2:0:0:
373,334,2634,1,0,3:2:0:0:
379,342,2995,6,0,L|245:321,1,136.499993751526,8|8,2:2|2:2,2:2:0:0:
232,329,3357,1,0,3:2:0:0:
153,376,3538,1,8,2:2:0:0:
64,354,3718,1,0,3:2:0:0:
70,140,3899,5,4,3:2:0:0:
63,131,4080,1,0,3:2:0:0:
271,205,4261,1,8,2:2:0:0:
58,122,4441,1,0,3:2:0:0:
274,35,4622,5,0,3:2:0:0:
282,42,4803,1,0,3:2:0:0:
143,217,4983,1,8,2:2:0:0:
290,48,5164,1,0,3:2:0:0:
396,305,5345,5,0,3:2:0:0:
405,306,5526,1,0,3:2:0:0:
199,143,5706,1,8,2:2:0:0:
415,308,5887,1,0,3:2:0:0:
153,376,6068,5,0,3:2:0:0:
147,369,6248,1,0,3:2:0:0:
271,204,6429,2,0,P|325:167|389:184,1,136.499993751526,8|0,2:2|0:2,2:2:0:0:
460,212,6791,5,4,3:2:0:0:
297,338,6971,1,0,3:2:0:0:
297,327,7333,6,0,P|248:284|182:291,1,136.499993751526,8|8,2:2|2:2,2:2:0:0:
175,302,7694,1,0,3:2:0:0:
64,354,7875,1,8,2:2:0:0:
0,258,8056,1,0,3:2:0:0:
109,32,8236,5,0,3:2:0:0:
143,217,8417,1,0,3:2:0:0:
148,207,8779,6,0,L|175:120,1,90.9999958343508,8|0,2:2|2:2,2:2:0:0:
184,112,9050,1,8,2:2:0:0:
195,105,9140,1,0,3:2:0:0:
280,18,9321,1,8,2:2:0:0:
400,57,9501,1,0,3:2:0:0:
401,261,9682,5,4,3:2:0:0:
393,259,9863,1,0,3:2:0:0:
240,364,10044,1,8,2:2:0:0:
410,263,10224,1,0,3:2:0:0:
148,207,10405,5,0,3:2:0:0:
142,212,10586,1,0,3:2:0:0:
333,333,10767,1,8,2:2:0:0:
153,201,10947,1,0,3:2:0:0:
446,139,11128,5,0,3:2:0:0:
437,143,11309,1,0,3:2:0:0:
430,362,11489,1,8,2:2:0:0:
455,137,11670,1,0,3:2:0:0:
240,364,11851,5,8,2:2:0:0:
512,228,12212,1,8,2:2:0:0:
129,11,12574,6,0,P|93:43|85:90,1,97.9999970092774,6|0,3:2|3:2,2:2:0:0:
1,247,12935,2,0,B|34:238|72:266|53:277|87:308|130:298,1,146.999995513916,8|2,0:2|3:2,2:2:0:0:
142,305,13296,1,2,3:2:0:0:
226,227,13477,1,0,3:2:0:0:
427,383,13658,2,0,P|418:312|461:255,1,146.999995513916,10|0,0:2|0:2,2:2:0:0:
512,184,14020,5,2,3:2:0:0:
437,143,14200,1,0,3:2:0:0:
362,101,14381,2,0,P|315:108|282:143,1,97.9999970092774,8|0,2:2|2:2,2:2:0:0:
315,329,14742,2,0,P|332:284|319:238,1,97.9999970092774,2|0,3:2|3:2,2:2:0:0:
150,179,15104,2,0,P|179:216|226:227,1,97.9999970092774,10|0,2:2|2:2,2:2:0:0:
15,156,15465,5,6,3:2:0:0:
47,348,15646,1,2,3:2:0:0:
0,140,15827,2,0,P|26:73|93:47,1,146.999995513916,8|0,2:2|0:2,2:2:0:0:
102,53,16187,1,2,3:2:0:0:
223,0,16369,1,0,3:2:0:0:
437,143,16550,2,0,L|422:46,1,97.9999970092774,10|0,2:2|2:2,2:2:0:0:
226,227,16911,5,2,3:2:0:0:
133,275,17092,1,0,3:2:0:0:
36,318,17273,2,0,P|17:311|3:296,1,41.9999987182618,8|0,0:2|0:2,0:2:0:0:
206,107,17634,1,2,3:2:0:0:
299,155,17815,1,0,3:2:0:0:
394,199,17995,2,0,L|450:226,1,62.9999980773926,8|0,2:2|0:2,2:2:0:0:
468,230,18357,6,0,P|421:237|391:274,1,97.9999970092774,6|2,3:2|3:2,2:2:0:0:
209,354,18718,2,0,B|151:364|107:317|107:317|111:295|120:286,1,146.999995513916,8|0,2:2|0:2,2:2:0:0:
133,275,19079,1,2,3:2:0:0:
262,256,19261,1,0,3:2:0:0:
341,73,19441,2,0,P|331:26|292:0,1,97.9999970092774,10|0,2:2|2:2,2:2:0:0:
15,156,19803,5,2,3:2:0:0:
109,179,19983,1,0,3:2:0:0:
202,150,20164,2,0,P|238:118|241:71,1,97.9999970092774,8|0,2:2|2:2,2:2:0:0:
119,14,20526,2,0,P|82:45|79:92,1,97.9999970092774,2|0,3:2|3:2,2:2:0:0:
135,267,20887,2,0,P|131:314|95:345,1,97.9999970092774,10|0,2:2|2:2,2:2:0:0:
306,239,21248,5,6,3:2:0:0:
109,179,21429,1,2,3:2:0:0:
318,229,21610,2,0,L|418:212,1,97.9999970092774,8|0,2:2|2:2,2:2:0:0:
190,361,21971,2,0,L|90:344,1,97.9999970092774,2|0,3:2|3:2,2:2:0:0:
327,151,22333,2,0,L|427:134,1,97.9999970092774,10|0,2:2|2:2,2:2:0:0:
296,368,22694,5,2,3:2:0:0:
247,260,22875,1,0,3:2:0:0:
202,150,23056,1,8,2:2:0:0:
465,359,23417,5,0,3:2:0:0:
15,156,23959,5,8,2:2:0:0:
135,267,24140,1,4,3:2:0:0:
202,150,24321,1,0,3:2:0:0:
191,149,24682,2,0,P|214:98|268:83,1,115.50000352478,8|8,2:2|2:2,2:2:0:0:
279,90,25044,1,2,3:2:0:0:
416,24,25224,1,10,2:2:0:0:
383,121,25405,1,2,3:2:0:0:
512,283,25586,5,8,3:2:0:0:
413,217,25767,1,0,3:2:0:0:
424,226,26128,2,0,P|400:277|346:292,1,115.50000352478,8|10,2:2|2:2,2:2:0:0:
332,281,26489,1,2,3:2:0:0:
166,363,26670,1,10,2:2:0:0:
160,352,26851,1,2,3:2:0:0:
15,156,27032,5,6,3:2:0:0:
114,200,27212,1,2,3:2:0:0:
7,277,27393,1,10,2:2:0:0:
0,267,27574,1,2,3:2:0:0:
0,74,27753,1,2,3:2:0:0:
91,119,27933,1,2,3:2:0:0:
123,285,28116,1,10,2:2:0:0:
246,260,28297,1,2,3:2:0:0:
491,105,28477,5,2,3:2:0:0:
362,0,28658,1,2,3:2:0:0:
335,150,28839,1,10,2:2:0:0:
485,94,29020,1,2,3:2:0:0:
266,127,29199,2,0,P|260:164|277:198,1,77.0000023498536,2|2,3:2|3:2,0:0:0:0:
485,279,29561,2,0,P|501:245|496:207,1,77.0000023498536,10|0,2:0|0:0,0:0:0:0:
304,378,29923,5,12,3:2:0:0:
208,233,30104,1,0,3:2:0:0:
207,224,30465,2,0,L|97:188,1,115.50000352478,10|8,2:2|2:2,2:2:0:0:
84,194,30827,1,2,3:2:0:0:
25,124,31007,1,10,2:2:0:0:
58,41,31188,1,2,3:2:0:0:
284,81,31369,5,8,3:2:0:0:
232,299,31550,1,0,3:2:0:0:
240,304,31911,2,0,L|349:268,1,115.50000352478,10|8,2:2|2:2,2:2:0:0:
361,270,32273,1,2,3:2:0:0:
503,344,32453,1,10,2:2:0:0:
475,239,32634,1,2,3:2:0:0:
512,0,32815,5,6,3:2:0:0:
375,95,32995,1,2,3:2:0:0:
475,239,33176,1,10,2:2:0:0:
481,230,33357,1,2,3:2:0:0:
285,107,33538,1,2,3:2:0:0:
378,12,33718,1,2,3:2:0:0:
253,213,33899,1,10,2:2:0:0:
246,204,34080,1,2,3:2:0:0:
456,76,34261,5,2,3:2:0:0:
434,306,34441,1,2,3:2:0:0:
239,194,34622,1,10,2:2:0:0:
448,81,34803,1,2,3:2:0:0:
481,230,34983,5,10,2:2:0:0:
170,34,35345,1,10,2:2:0:0:
89,380,35706,6,0,L|166:366,1,77.0000023498536,6|0,3:2|2:2,2:2:0:0:
320,327,35977,1,0,2:2:0:0:
315,317,36068,2,0,L|238:303,1,77.0000023498536,10|2,2:2|2:2,2:2:0:0:
11,146,36429,1,0,3:2:0:0:
122,289,36610,1,2,2:2:0:0:
277,181,36791,1,10,2:2:0:0:
170,34,36971,1,2,2:2:0:0:
79,6,37152,6,0,P|74:43|88:79,1,77.0000023498536,2|0,3:2|2:2,2:2:0:0:
344,124,37514,2,0,P|348:86|334:50,1,77.0000023498536,10|2,2:2|2:2,2:2:0:0:
268,173,37785,1,0,2:2:0:0:
277,181,37875,2,0,L|429:159,1,154.000004699707,0|10,3:2|2:2,2:2:0:0:
440,153,38417,1,0,2:2:0:0:
320,327,38598,5,0,3:2:0:0:
214,233,38779,1,2,2:2:0:0:
49,369,38959,2,0,L|125:379,1,77.0000023498536,10|2,2:2|2:2,2:2:0:0:
213,359,39230,1,0,2:2:0:0:
218,352,39321,1,2,3:2:0:0:
277,181,39501,1,2,2:2:0:0:
433,237,39682,1,10,2:2:0:0:
214,233,39863,6,0,P|197:198|199:160,1,77.0000023498536,2|0,2:2|3:2,2:2:0:0:
354,48,40224,1,2,2:2:0:0:
433,237,40405,1,10,2:2:0:0:
254,108,40586,1,2,2:2:0:0:
367,191,40767,6,0,P|356:205|352:221,1,35,2|0,3:2|0:2,2:2:0:0:
225,364,41128,2,0,P|223:337|213:313,1,52.5,10|0,2:2|0:2,2:2:0:0:
137,258,41489,6,0,L|61:274,1,77.0000023498536,6|0,3:2|2:2,2:2:0:0:
185,163,41761,1,0,2:2:0:0:
199,160,41851,2,0,L|274:176,1,77.0000023498536,10|2,2:2|2:2,2:2:0:0:
498,331,42212,1,0,3:2:0:0:
326,359,42393,1,2,2:2:0:0:
274,176,42574,1,10,2:2:0:0:
446,148,42754,1,2,2:2:0:0:
433,237,42935,6,0,P|398:255|357:253,1,77.0000023498536,2|0,3:2|2:2,2:2:0:0:
270,54,43297,2,0,P|305:36|345:37,1,77.0000023498536,10|2,2:2|2:2,2:2:0:0:
274,176,43568,1,0,2:2:0:0:
263,172,43658,2,0,P|234:120|178:112,1,115.50000352478,0|0,3:2|0:2,2:2:0:0:
173,119,44020,1,10,2:2:0:0:
369,183,44200,1,2,2:2:0:0:
61,274,44381,6,0,P|50:217|24:166,1,115.50000352478,2|0,3:2|0:2,2:2:0:0:
5,160,44742,2,0,L|17:75,1,77.0000023498536,10|2,2:2|2:2,2:2:0:0:
225,241,45104,1,2,3:2:0:0:
131,337,45285,1,2,2:2:0:0:
173,119,45465,1,10,2:2:0:0:
361,254,45646,1,2,2:2:0:0:
353,302,45736,1,8,2:2:0:0:
345,348,45827,5,8,2:2:0:0:
258,155,46007,1,2,3:2:0:0:
512,278,46188,1,2,3:2:0:0:
480,384,46369,1,2,3:2:0:0:
413,128,46550,1,10,2:2:0:0:
345,348,46730,1,0,3:2:0:0:
421,138,46911,1,0,3:2:0:0:
333,346,47091,1,0,3:2:0:0:
256,192,47273,12,0,48538,2:2:0:0:
173,119,48717,5,6,3:2:0:0:
103,336,48898,2,0,L|0:302,1,108.500000827789,0|8,3:2|0:2,0:0:0:0:
293,181,49260,2,0,P|340:203|360:253,1,108.500000827789,2|8,3:2|0:2,0:0:0:0:
43,165,49621,2,0,L|29:57,1,108.500000827789,2|8,3:2|0:2,0:0:0:0:
151,0,49982,1,2,3:2:0:0:
248,267,50163,2,0,L|144:233,1,108.500000827789,8|0,2:2|3:2,2:2:0:0:
67,244,50434,1,0,3:2:0:0:
67,244,50525,1,8,3:2:0:0:
379,52,50705,5,2,3:2:0:0:
398,319,50886,2,0,L|502:285,1,108.500000827789,10|10,2:2|2:2,2:2:0:0:
470,171,51157,2,0,P|444:162|418:167,1,54.2500004138947,10|2,2:2|2:2,2:2:0:0:
329,140,51338,1,8,2:2:0:0:
320,137,51428,2,0,P|300:155|292:180,1,54.2500004138947,10|0,2:2|0:2,2:2:0:0:
507,45,51609,5,14,3:2:0:0:
253,12,51790,1,2,3:2:0:0:
512,55,51970,1,8,0:2:0:0:
236,5,52151,2,0,B|228:53|228:53|223:59|223:59|214:111,1,108.500000827789,2|8,3:2|0:2,0:0:0:0:
398,319,52513,2,0,B|389:267|389:267|384:261|384:261|376:212,1,108.500000827789,2|8,3:2|0:2,0:0:0:0:
416,96,52874,1,2,3:2:0:0:
215,341,53055,6,0,P|169:312|115:306,1,108.500000827789,8|0,0:2|3:2,0:2:0:0:
39,367,53326,1,0,3:2:0:0:
39,367,53416,1,0,3:2:0:0:
182,210,53597,1,10,2:2:0:0:
0,13,53778,1,10,2:2:0:0:
4,66,53868,1,8,2:2:0:0:
38,107,53958,1,10,2:2:0:0:
89,121,54049,1,0,1:2:0:0:
140,103,54139,1,0,3:2:0:0:
176,76,54229,1,0,3:2:0:0:
221,77,54320,1,0,3:2:0:0:
258,103,54410,1,0,3:2:0:0:
274,145,54500,6,0,B|376:140|329:113|431:109,1,162.750001241684,14|0,3:2|2:2,2:2:0:0:
490,162,54862,1,10,0:2:0:0:
309,357,55043,2,0,P|300:303|289:250,1,108.500000827789,2|8,3:2|0:2,0:0:0:0:
89,121,55404,2,0,P|97:67|108:14,1,108.500000827789,2|8,3:2|0:2,0:0:0:0:
274,145,55766,1,0,3:2:0:0:
172,361,55946,6,0,B|121:351|121:351|116:345|116:345|68:335,1,108.500000827789,10|2,2:2|3:2,2:2:0:0:
0,373,56217,1,0,3:2:0:0:
0,373,56308,1,10,3:2:0:0:
182,210,56488,1,2,3:2:0:0:
309,357,56669,2,0,B|360:347|360:347|365:341|365:341|412:331,1,108.500000827789,10|2,2:2|3:2,2:2:0:0:
481,369,56940,1,0,3:2:0:0:
480,369,57031,2,0,P|495:318|470:271,1,108.500000827789,10|0,3:2|3:2,0:0:0:0:
261,140,57392,5,12,2:2:0:0:
512,80,57573,1,2,3:2:0:0:
274,145,57753,1,8,0:2:0:0:
500,73,57934,1,2,3:2:0:0:
170,0,58115,2,0,B|179:52|179:52|176:57|176:57|185:106,1,108.500000827789,10|0,0:2|3:2,0:2:0:0:
254,368,58476,2,0,B|263:318|263:318|260:313|260:313|269:261,1,108.500000827789,10|0,0:2|3:2,0:2:0:0:
169,181,58748,5,8,1:2:0:0:
182,193,58839,5,10,3:2:0:0:
250,190,58929,1,8,2:2:0:0:
293,136,59020,1,8,2:2:0:0:
282,68,59110,1,8,2:2:0:0:
322,11,59200,1,8,2:2:0:0:
392,1,59291,1,8,2:2:0:0:
452,39,59381,1,2,1:2:0:0:
459,108,59471,1,8,1:2:0:0:
452,118,59562,5,10,1:2:0:0:
448,130,59652,1,8,1:2:0:0:
446,144,59742,1,0,3:2:0:0:
448,165,59833,1,0,3:2:0:0:
464,188,59923,1,2,3:2:0:0:
484,227,60013,1,0,3:2:0:0:
471,287,60103,1,2,3:2:0:0:
405,315,60194,1,0,1:2:0:0:
332,283,60285,6,0,B|288:263|250:293|266:317|223:350|184:329,1,168,14|2,2:2|3:2,2:2:0:0:
95,378,60646,2,0,P|94:322|78:268,1,112,10|2,2:2|2:2,2:2:0:0:
6,169,60917,1,10,2:2:0:0:
0,185,61007,1,0,3:2:0:0:
185,329,61188,1,2,3:2:0:0:
282,68,61369,2,0,L|170:81,1,112,8|2,2:2|2:2,2:2:0:0:
332,283,61730,6,0,P|386:278|423:237,1,112,8|0,3:2|2:2,2:2:0:0:
446,144,62001,1,0,3:2:0:0:
458,153,62092,1,8,2:2:0:0:
489,367,62273,2,0,P|467:349|439:344,1,56,2|8,2:2|2:2,2:2:0:0:
353,373,62453,1,2,3:2:0:0:
185,329,62634,1,2,3:2:0:0:
282,68,62815,2,0,P|324:102|333:156,1,112,10|2,2:2|2:2,2:2:0:0:
0,384,63176,6,0,P|8:300|17:216,1,168,14|2,3:2|3:2,2:2:0:0:
0,81,63538,2,0,P|34:38|88:30,1,112,10|0,2:2|2:2,2:2:0:0:
189,28,63809,1,10,2:2:0:0:
182,42,63899,1,2,3:2:0:0:
70,145,64080,1,2,3:2:0:0:
269,273,64261,2,0,L|378:249,1,112,8|2,2:2|2:2,2:2:0:0:
465,232,64532,1,8,3:2:0:0:
473,241,64622,5,0,3:2:0:0:
432,384,64803,1,0,3:2:0:0:
332,156,64983,2,0,L|353:45,1,112,8|2,2:2|2:2,2:2:0:0:
286,0,65254,1,8,2:2:0:0:
275,0,65345,2,0,P|220:2|182:42,1,112,2|0,3:2|3:2,2:2:0:0:
239,325,65706,2,0,P|293:322|331:282,1,112,10|2,2:2|3:2,2:2:0:0:
512,0,66068,5,14,2:2:0:0:
445,47,66248,1,0,3:2:0:0:
434,140,66429,1,0,3:2:0:0:
239,325,66610,5,14,2:2:0:0:
208,203,66791,1,0,3:2:0:0:
83,161,66971,1,0,3:2:0:0:
331,282,67152,1,12,2:2:0:0:
270,82,67333,1,0,3:2:0:0:
93,346,67514,5,2,3:2:0:0:
306,203,67693,1,14,2:2:0:0:
293,195,67875,1,2,3:2:0:0:
239,325,68056,1,2,3:2:0:0:
126,92,68236,1,14,2:2:0:0:
0,262,68417,1,2,3:2:0:0:
325,384,68598,2,0,L|434:359,1,112,14|2,2:2|3:2,2:2:0:0:
445,47,68959,5,14,2:2:0:0:
176,177,69140,1,0,3:2:0:0:
161,179,69321,1,0,3:2:0:0:
473,241,69501,5,14,2:2:0:0:
161,179,69682,1,0,3:2:0:0:
146,181,69863,1,0,3:2:0:0:
445,47,70044,5,14,2:2:0:0:
308,281,70224,1,2,3:2:0:0:
446,58,70405,1,2,3:2:0:0:
146,181,70586,6,0,L|161:291,1,112,14|2,2:2|3:2,2:2:0:0:
403,355,70947,1,2,3:2:0:0:
291,61,71128,2,0,P|251:25|196:29,1,112,14|2,2:2|3:2,2:2:0:0:
36,286,71489,1,10,2:2:0:0:
146,181,71670,1,0,3:2:0:0:
403,355,71851,5,12,3:2:0:0:
360,154,72032,1,0,3:2:0:0:
355,144,72393,6,0,B|410:155|410:155|425:157|425:157|494:172,1,136.499993751526,10|10,2:2|2:2,2:2:0:0:
495,179,72754,1,0,3:2:0:0:
476,272,72935,1,10,2:2:0:0:
380,289,73116,1,0,3:2:0:0:
146,181,73297,5,8,3:2:0:0:
292,62,73477,1,0,2:2:0:0:
286,56,73839,2,0,P|233:82|232:152,1,136.499993751526,10|8,2:2|0:2,2:2:0:0:
245,163,74200,1,0,3:2:0:0:
282,251,74381,1,10,2:2:0:0:
232,331,74562,1,0,3:2:0:0:
31,171,74742,5,4,3:2:0:0:
35,162,74923,1,0,3:2:0:0:
140,332,75104,1,8,2:2:0:0:
40,150,75285,1,0,3:2:0:0:
316,185,75465,5,0,3:2:0:0:
320,194,75646,1,0,3:2:0:0:
111,258,75827,1,8,2:2:0:0:
324,203,76007,1,0,3:2:0:0:
148,0,76188,5,0,3:2:0:0:
139,5,76369,1,0,3:2:0:0:
188,219,76550,1,8,2:2:0:0:
131,11,76730,1,0,3:2:0:0:
370,62,76911,5,0,3:2:0:0:
376,69,77092,1,0,3:2:0:0:
111,95,77273,2,0,L|244:63,1,136.499993751526,8|0,2:2|0:2,2:2:0:0:
310,108,77634,5,4,3:2:0:0:
298,307,77815,1,0,3:2:0:0:
296,297,78176,6,0,P|334:243|400:239,1,136.499993751526,10|10,2:2|2:2,2:2:0:0:
412,252,78538,1,0,3:2:0:0:
392,164,78718,1,10,2:2:0:0:
317,109,78899,1,0,3:2:0:0:
111,258,79080,5,8,3:2:0:0:
37,74,79261,1,0,3:2:0:0:
31,83,79622,6,0,P|69:136|135:140,1,136.499993751526,10|10,2:2|2:2,2:2:0:0:
146,131,79983,1,0,3:2:0:0:
209,202,80164,1,10,2:2:0:0:
197,294,80345,1,0,3:2:0:0:
399,78,80526,5,4,3:2:0:0:
403,67,80706,1,0,3:2:0:0:
227,126,80887,1,8,2:2:0:0:
396,89,81068,1,0,3:2:0:0:
140,3,81248,5,0,3:2:0:0:
128,1,81429,1,0,3:2:0:0:
209,202,81610,1,8,2:2:0:0:
153,8,81791,1,0,3:2:0:0:
8,226,81971,5,0,3:2:0:0:
7,238,82152,1,0,3:2:0:0:
227,126,82333,1,8,2:2:0:0:
0,28,82514,1,0,3:2:0:0:
7,53,82604,1,0,3:2:0:0:
10,82,82694,1,8,3:2:0:0:
111,258,82875,1,0,3:2:0:0:
222,50,83056,1,8,3:2:0:0:
17,157,83236,1,0,3:2:0:0:
252,299,83417,5,8,3:2:0:0:
364,275,83598,1,0,3:2:0:0:
403,67,83779,1,12,3:2:0:0:
327,368,83958,1,8,3:2:0:0:
256,192,84050,12,0,87393,0:2:0:0:
337,35,87574,5,0,3:2:0:0:
458,185,87754,1,8,2:2:0:0:
308,306,87934,1,0,3:2:0:0:
350,25,88116,1,12,3:2:0:0:
296,314,88296,5,0,3:2:0:0:
256,192,88387,12,0,95887,0:2:0:0:
111,258,96067,5,0,3:2:0:0:
100,283,96157,1,0,3:2:0:0:
101,311,96247,1,8,2:2:0:0:
287,121,96428,1,12,2:2:0:0:
