osu file format v14

[General]
AudioFilename: audio.mp3
AudioLeadIn: 0
PreviewTime: 58223
Countdown: 0
SampleSet: Soft
StackLeniency: 0.7
Mode: 3
LetterboxInBreaks: 0
SpecialStyle: 0
WidescreenStoryboard: 1

[Editor]
Bookmarks: 11437,17151,22866,23937,34651,35366,44294,46437,46794,55366,57508,58223,63937,66794,68223,69651,73937,74651,75187,86080,86616,91080,92151,95366,96437,97509
DistanceSpacing: 0.96
BeatDivisor: 4
GridSize: 8
TimelineZoom: 0.9999999

[Metadata]
Title:Cry out
TitleUnicode:Cry out
Artist:ONE OK ROCK
ArtistUnicode:ONE OK ROCK
Creator:Leniane
Version:Normal
Source:
Tags:J-rock 35XXXV album OOR short version
BeatmapID:1792177
BeatmapSetID:857779

[Difficulty]
HPDrainRate:7.5
CircleSize:4
OverallDifficulty:7.6
ApproachRate:5
SliderMultiplier:1.4
SliderTickRate:1

[Events]
//Background and Video events
0,0,"Background.jpg",0,0
//Break Periods
//Storyboard Layer 0 (Background)
//Storyboard Layer 1 (Fail)
//Storyboard Layer 2 (Pass)
//Storyboard Layer 3 (Foreground)
//Storyboard Sound Samples

[TimingPoints]
9,357.142857142857,4,2,1,40,1,0
23938,357.142857142857,4,2,1,40,1,0
35366,-100,4,2,1,50,0,0
58223,-100,4,2,1,60,0,1
66795,-100,4,2,1,50,0,0
69652,-100,4,2,1,60,0,1
75187,-100,4,2,1,50,0,0

[HitObjects]
448,192,9,5,0,0:0:0:0:
320,192,187,1,0,0:0:0:0:
64,192,366,1,0,0:0:0:0:
320,192,723,1,0,0:0:0:0:
192,192,901,1,0,0:0:0:0:
64,192,1080,1,0,0:0:0:0:
448,192,1437,1,0,0:0:0:0:
192,192,1616,1,0,0:0:0:0:
64,192,1794,1,0,0:0:0:0:
448,192,2151,1,0,0:0:0:0:
320,192,2330,1,0,0:0:0:0:
192,192,2508,1,0,0:0:0:0:
64,192,2866,1,0,0:0:0:0:
192,192,3044,1,0,0:0:0:0:
320,192,3223,1,0,0:0:0:0:
64,192,3580,1,0,0:0:0:0:
320,192,3758,1,0,0:0:0:0:
448,192,3937,1,0,0:0:0:0:
192,192,4294,1,0,0:0:0:0:
320,192,4473,1,0,0:0:0:0:
448,192,4651,1,0,0:0:0:0:
64,192,5008,1,0,0:0:0:0:
192,192,5187,1,0,0:0:0:0:
448,192,5366,1,0,0:0:0:0:
320,192,5723,1,0,0:0:0:0:
192,192,5901,1,0,0:0:0:0:
64,192,6080,1,0,0:0:0:0:
448,192,6437,1,0,0:0:0:0:
320,192,6616,1,0,0:0:0:0:
192,192,6794,1,0,0:0:0:0:
448,192,7151,1,0,0:0:0:0:
192,192,7330,1,0,0:0:0:0:
64,192,7508,1,0,0:0:0:0:
448,192,7866,1,0,0:0:0:0:
320,192,8044,1,0,0:0:0:0:
64,192,8223,1,0,0:0:0:0:
192,192,8580,1,0,0:0:0:0:
320,192,8758,1,0,0:0:0:0:
448,192,8937,1,0,0:0:0:0:
64,192,9294,1,0,0:0:0:0:
192,192,9473,1,0,0:0:0:0:
320,192,9651,1,0,0:0:0:0:
448,192,10008,128,0,11437:0:0:0:0:
64,192,10723,128,0,11437:0:0:0:0:
320,192,11437,1,6,0:0:0:0:
320,192,11616,1,2,0:0:0:0:
192,192,11973,1,2,0:0:0:0:
64,192,12151,1,8,0:0:0:0:
448,192,12151,1,0,0:0:0:0:
320,192,12330,1,2,0:0:0:0:
64,192,12687,1,8,0:0:0:0:
192,192,12687,1,0,0:0:0:0:
320,192,12866,1,2,0:0:0:0:
320,192,13044,1,2,0:0:0:0:
448,192,13401,1,2,0:0:0:0:
64,192,13580,1,8,0:0:0:0:
320,192,13580,1,0,0:0:0:0:
192,192,13758,1,2,0:0:0:0:
64,192,13937,1,8,0:0:0:0:
320,192,13937,1,0,0:0:0:0:
192,192,14294,1,6,0:0:0:0:
192,192,14473,1,2,0:0:0:0:
448,192,14830,1,2,0:0:0:0:
64,192,15008,1,8,0:0:0:0:
320,192,15008,1,0,0:0:0:0:
192,192,15187,1,2,0:0:0:0:
192,192,15544,1,2,0:0:0:0:
448,192,15723,1,2,0:0:0:0:
448,192,15901,1,2,0:0:0:0:
192,192,16258,1,2,0:0:0:0:
64,192,16437,1,8,0:0:0:0:
320,192,16437,1,0,0:0:0:0:
448,192,16616,1,2,0:0:0:0:
64,192,16794,1,8,0:0:0:0:
192,192,16794,1,0,0:0:0:0:
64,192,16973,1,8,0:0:0:0:
192,192,16973,1,0,0:0:0:0:
320,192,17151,1,6,0:0:0:0:
64,192,17330,1,2,0:0:0:0:
320,192,17508,1,8,0:0:0:0:
448,192,17508,1,0,0:0:0:0:
192,192,17687,1,2,0:0:0:0:
64,192,17866,1,2,0:0:0:0:
320,192,18044,1,2,0:0:0:0:
64,192,18223,1,8,0:0:0:0:
448,192,18223,1,0,0:0:0:0:
192,192,18401,1,2,0:0:0:0:
320,192,18580,1,2,0:0:0:0:
64,192,18758,1,2,0:0:0:0:
320,192,18937,1,8,0:0:0:0:
448,192,18937,1,0,0:0:0:0:
64,192,19116,1,2,0:0:0:0:
448,192,19294,1,2,0:0:0:0:
192,192,19473,1,2,0:0:0:0:
64,192,19651,1,8,0:0:0:0:
320,192,19651,1,0,0:0:0:0:
448,192,19830,1,2,0:0:0:0:
64,192,20008,1,8,0:0:0:0:
192,192,20008,1,4,0:0:0:0:
192,192,20187,1,2,0:0:0:0:
64,192,20544,1,2,0:0:0:0:
320,192,20723,1,8,0:0:0:0:
448,192,20723,1,4,0:0:0:0:
448,192,20901,1,2,0:0:0:0:
320,192,21258,1,2,0:0:0:0:
448,192,21437,128,6,21616:0:0:0:0:
192,192,21616,128,2,21794:0:0:0:0:
64,192,21794,128,4,21973:0:0:0:0:
320,192,21973,128,2,22151:0:0:0:0:
192,192,22151,1,4,0:0:0:0:
448,192,22151,1,8,0:0:0:0:
64,192,22330,128,2,22508:0:0:0:0:
192,192,22508,1,8,0:0:0:0:
448,192,22508,1,0,0:0:0:0:
320,192,22687,1,2,0:0:0:0:
64,192,22866,1,8,0:0:0:0:
192,192,22866,1,0,0:0:0:0:
64,192,23044,1,8,0:0:0:0:
192,192,23044,1,0,0:0:0:0:
320,192,23401,1,8,0:0:0:0:
448,192,23401,1,0,0:0:0:0:
320,192,23580,1,8,0:0:0:0:
448,192,23580,1,0,0:0:0:0:
64,192,23937,128,0,26795:0:0:0:0:
192,192,24295,1,2,0:0:0:0:
192,192,24652,1,8,0:0:0:0:
320,192,24652,1,0,0:0:0:0:
448,192,24830,1,2,0:0:0:0:
448,192,25009,1,2,0:0:0:0:
320,192,25188,1,8,0:0:0:0:
448,192,25188,1,0,0:0:0:0:
192,192,25366,1,2,0:0:0:0:
320,192,25723,1,2,0:0:0:0:
192,192,26080,1,8,0:0:0:0:
448,192,26080,1,0,0:0:0:0:
192,192,26438,1,8,0:0:0:0:
448,192,26438,1,0,0:0:0:0:
320,192,26795,1,2,0:0:0:0:
320,192,27152,1,2,0:0:0:0:
64,192,27509,1,8,0:0:0:0:
192,192,27509,1,0,0:0:0:0:
448,192,27688,1,2,0:0:0:0:
448,192,27866,1,2,0:0:0:0:
192,192,28045,1,8,0:0:0:0:
320,192,28045,1,0,0:0:0:0:
64,192,28223,1,2,0:0:0:0:
192,192,28580,1,2,0:0:0:0:
320,192,28938,1,8,0:0:0:0:
448,192,28938,1,0,0:0:0:0:
64,192,29295,1,8,0:0:0:0:
448,192,29295,1,0,0:0:0:0:
320,192,29652,1,2,0:0:0:0:
192,192,30009,1,2,0:0:0:0:
64,192,30366,1,8,0:0:0:0:
320,192,30366,1,0,0:0:0:0:
448,192,30545,1,2,0:0:0:0:
448,192,30723,1,2,0:0:0:0:
64,192,30902,1,8,0:0:0:0:
192,192,30902,1,0,0:0:0:0:
320,192,31080,1,2,0:0:0:0:
320,192,31437,1,2,0:0:0:0:
64,192,31795,1,8,0:0:0:0:
448,192,31795,1,0,0:0:0:0:
192,192,32152,1,8,0:0:0:0:
448,192,32152,1,0,0:0:0:0:
320,192,32509,1,2,0:0:0:0:
448,192,32866,1,2,0:0:0:0:
64,192,33223,1,4,0:0:0:0:
192,192,33223,1,8,0:0:0:0:
320,192,33402,1,2,0:0:0:0:
320,192,33580,128,2,33759:0:0:0:0:
192,192,33759,128,0,33938:0:0:0:0:
448,192,33938,128,2,34295:0:0:0:0:
64,192,34295,1,2,0:0:0:0:
64,192,34473,128,0,34830:0:0:0:0:
192,192,34652,1,8,0:0:0:0:
320,192,34652,1,0,0:0:0:0:
448,192,34830,128,0,35366:0:0:0:0:
64,192,35366,1,4,0:0:0:0:
192,192,35366,1,2,0:0:0:0:
320,192,35366,1,0,0:0:0:0:
448,192,35723,1,2,0:0:0:0:
192,192,36080,1,2,0:0:0:0:
320,192,36080,1,8,0:0:0:0:
64,192,36259,1,0,0:0:0:0:
448,192,36437,1,2,0:0:0:0:
64,192,36616,1,8,0:0:0:0:
320,192,36616,1,0,0:0:0:0:
192,192,36795,1,2,0:0:0:0:
192,192,37152,1,2,0:0:0:0:
320,192,37330,1,0,0:0:0:0:
64,192,37509,1,8,0:0:0:0:
448,192,37509,1,2,0:0:0:0:
192,192,37687,1,0,0:0:0:0:
320,192,37866,128,2,38045:0:0:0:0:
448,192,37866,1,8,0:0:0:0:
64,192,38223,1,2,0:0:0:0:
320,192,38580,1,2,0:0:0:0:
192,192,38937,1,2,0:0:0:0:
448,192,38937,1,8,0:0:0:0:
64,192,39116,1,0,0:0:0:0:
448,192,39295,1,2,0:0:0:0:
64,192,39473,1,8,0:0:0:0:
320,192,39473,1,0,0:0:0:0:
192,192,39652,1,2,0:0:0:0:
448,192,40009,1,2,0:0:0:0:
192,192,40187,1,0,0:0:0:0:
320,192,40366,1,2,0:0:0:0:
448,192,40366,1,8,0:0:0:0:
64,192,40545,1,0,0:0:0:0:
192,192,40723,128,8,40902:0:0:0:0:
320,192,40723,1,2,0:0:0:0:
448,192,41080,1,2,0:0:0:0:
192,192,41437,1,2,0:0:0:0:
320,192,41795,1,2,0:0:0:0:
448,192,41795,1,8,0:0:0:0:
192,192,41973,1,0,0:0:0:0:
64,192,42152,1,2,0:0:0:0:
192,192,42330,1,2,0:0:0:0:
448,192,42330,1,8,0:0:0:0:
320,192,42509,1,2,0:0:0:0:
320,192,42866,1,2,0:0:0:0:
64,192,43223,1,2,0:0:0:0:
192,192,43223,1,8,0:0:0:0:
192,192,43580,1,2,0:0:0:0:
448,192,43580,128,8,43759:0:0:0:0:
320,192,43937,1,2,0:0:0:0:
64,192,44295,128,2,44652:0:0:0:0:
320,192,44652,128,10,45009:0:0:0:0:
192,192,45009,128,2,45366:0:0:0:0:
448,192,45366,128,2,45545:0:0:0:0:
64,192,45545,128,0,45723:0:0:0:0:
320,192,45723,128,2,45902:0:0:0:0:
448,192,45902,128,0,46259:0:0:0:0:
64,192,46259,128,0,46795:0:0:0:0:
320,192,46437,128,10,46616:0:0:0:0:
192,192,46616,128,8,46795:0:0:0:0:
448,192,46795,1,12,0:0:0:0:
448,192,46973,1,2,0:0:0:0:
64,192,47152,1,8,0:0:0:0:
320,192,47152,1,0,0:0:0:0:
192,192,47330,1,2,0:0:0:0:
192,192,47509,1,2,0:0:0:0:
192,192,47687,1,2,0:0:0:0:
320,192,47866,1,8,0:0:0:0:
448,192,47866,1,0,0:0:0:0:
64,192,48045,1,2,0:0:0:0:
64,192,48223,1,2,0:0:0:0:
64,192,48402,1,2,0:0:0:0:
192,192,48580,1,8,0:0:0:0:
448,192,48580,1,0,0:0:0:0:
320,192,48759,1,2,0:0:0:0:
320,192,48937,1,2,0:0:0:0:
320,192,49116,1,2,0:0:0:0:
64,192,49295,1,8,0:0:0:0:
192,192,49295,1,0,0:0:0:0:
448,192,49473,1,2,0:0:0:0:
448,192,49652,1,2,0:0:0:0:
448,192,49830,1,2,0:0:0:0:
192,192,50009,1,8,0:0:0:0:
320,192,50009,1,0,0:0:0:0:
64,192,50187,1,2,0:0:0:0:
64,192,50366,1,2,0:0:0:0:
64,192,50545,1,2,0:0:0:0:
192,192,50723,1,8,0:0:0:0:
448,192,50723,1,0,0:0:0:0:
320,192,50902,1,2,0:0:0:0:
320,192,51080,1,2,0:0:0:0:
320,192,51259,1,2,0:0:0:0:
64,192,51437,1,8,0:0:0:0:
448,192,51437,1,0,0:0:0:0:
192,192,51616,1,2,0:0:0:0:
192,192,51795,1,2,0:0:0:0:
192,192,51973,1,2,0:0:0:0:
320,192,52152,1,8,0:0:0:0:
448,192,52152,1,0,0:0:0:0:
64,192,52330,1,2,0:0:0:0:
64,192,52509,1,2,0:0:0:0:
64,192,52687,1,2,0:0:0:0:
192,192,52866,1,8,0:0:0:0:
448,192,52866,1,0,0:0:0:0:
320,192,53045,1,2,0:0:0:0:
320,192,53223,1,2,0:0:0:0:
320,192,53402,1,2,0:0:0:0:
64,192,53580,1,8,0:0:0:0:
192,192,53580,1,0,0:0:0:0:
448,192,53759,1,2,0:0:0:0:
448,192,53937,1,2,0:0:0:0:
448,192,54116,1,2,0:0:0:0:
64,192,54295,1,8,0:0:0:0:
320,192,54295,1,0,0:0:0:0:
192,192,54473,1,2,0:0:0:0:
192,192,54652,1,2,0:0:0:0:
192,192,54830,1,2,0:0:0:0:
64,192,55009,1,8,0:0:0:0:
448,192,55009,1,0,0:0:0:0:
320,192,55187,1,2,0:0:0:0:
192,192,55366,1,8,0:0:0:0:
320,192,55366,1,0,0:0:0:0:
64,192,55723,1,2,0:0:0:0:
192,192,55902,1,2,0:0:0:0:
448,192,56080,1,2,0:0:0:0:
320,192,56259,1,2,0:0:0:0:
192,192,56437,1,8,0:0:0:0:
192,192,56616,1,8,0:0:0:0:
320,192,56795,1,8,0:0:0:0:
320,192,56973,1,8,0:0:0:0:
64,192,57152,1,8,0:0:0:0:
64,192,57330,1,8,0:0:0:0:
192,192,57509,1,8,0:0:0:0:
448,192,57509,1,0,0:0:0:0:
320,192,57687,1,2,0:0:0:0:
64,192,57866,1,8,0:0:0:0:
448,192,57866,1,0,0:0:0:0:
192,192,58045,1,2,0:0:0:0:
64,192,58223,1,4,0:0:0:0:
320,192,58223,1,2,0:0:0:0:
448,192,58223,1,0,0:0:0:0:
192,192,58402,1,2,0:0:0:0:
320,192,58759,1,2,0:0:0:0:
64,192,58937,1,8,0:0:0:0:
448,192,58937,1,0,0:0:0:0:
192,192,59116,1,2,0:0:0:0:
320,192,59473,1,8,0:0:0:0:
448,192,59473,1,0,0:0:0:0:
192,192,59652,1,2,0:0:0:0:
64,192,59830,1,2,0:0:0:0:
64,192,60187,1,2,0:0:0:0:
192,192,60366,1,8,0:0:0:0:
448,192,60366,1,0,0:0:0:0:
320,192,60545,1,2,0:0:0:0:
192,192,60723,1,8,0:0:0:0:
448,192,60723,1,0,0:0:0:0:
64,192,61080,1,6,0:0:0:0:
448,192,61259,1,2,0:0:0:0:
320,192,61616,1,2,0:0:0:0:
64,192,61795,1,8,0:0:0:0:
192,192,61795,1,0,0:0:0:0:
448,192,61973,1,2,0:0:0:0:
320,192,62330,1,2,0:0:0:0:
64,192,62509,1,2,0:0:0:0:
192,192,62687,1,2,0:0:0:0:
448,192,63045,1,2,0:0:0:0:
64,192,63223,1,8,0:0:0:0:
320,192,63223,1,0,0:0:0:0:
192,192,63402,1,2,0:0:0:0:
64,192,63580,1,8,0:0:0:0:
320,192,63580,1,0,0:0:0:0:
64,192,63759,1,8,0:0:0:0:
448,192,63759,1,0,0:0:0:0:
192,192,63937,1,2,0:0:0:0:
320,192,64116,1,2,0:0:0:0:
64,192,64295,1,8,0:0:0:0:
448,192,64295,1,0,0:0:0:0:
320,192,64473,1,2,0:0:0:0:
64,192,64652,1,2,0:0:0:0:
192,192,64830,1,2,0:0:0:0:
320,192,65009,1,8,0:0:0:0:
448,192,65009,1,0,0:0:0:0:
64,192,65187,1,2,0:0:0:0:
192,192,65366,1,2,0:0:0:0:
320,192,65545,1,2,0:0:0:0:
64,192,65723,1,8,0:0:0:0:
448,192,65723,1,0,0:0:0:0:
192,192,65902,1,2,0:0:0:0:
64,192,66080,1,2,0:0:0:0:
448,192,66259,1,2,0:0:0:0:
64,192,66437,1,8,0:0:0:0:
320,192,66437,1,0,0:0:0:0:
192,192,66616,1,2,0:0:0:0:
448,192,66795,1,6,0:0:0:0:
448,192,66973,1,2,0:0:0:0:
64,192,67330,1,2,0:0:0:0:
320,192,67509,1,8,0:0:0:0:
448,192,67509,1,0,0:0:0:0:
320,192,67687,1,2,0:0:0:0:
192,192,67866,1,2,0:0:0:0:
64,192,68045,1,2,0:0:0:0:
320,192,68223,1,2,0:0:0:0:
448,192,68402,128,2,68937:0:0:0:0:
192,192,68580,1,8,0:0:0:0:
64,192,68759,1,2,0:0:0:0:
320,192,68937,1,2,0:0:0:0:
64,192,69116,128,8,69652:0:0:0:0:
192,192,69116,1,0,0:0:0:0:
320,192,69295,1,2,0:0:0:0:
448,192,69473,1,2,0:0:0:0:
192,192,69652,1,4,0:0:0:0:
320,192,69652,1,2,0:0:0:0:
448,192,69830,1,2,0:0:0:0:
192,192,70187,1,2,0:0:0:0:
64,192,70366,1,8,0:0:0:0:
448,192,70366,1,0,0:0:0:0:
320,192,70545,1,2,0:0:0:0:
64,192,70902,1,8,0:0:0:0:
192,192,70902,1,0,0:0:0:0:
320,192,71080,1,6,0:0:0:0:
448,192,71259,1,2,0:0:0:0:
192,192,71616,1,2,0:0:0:0:
64,192,71795,1,8,0:0:0:0:
320,192,71795,1,0,0:0:0:0:
448,192,71973,1,2,0:0:0:0:
64,192,72152,1,8,0:0:0:0:
192,192,72152,1,0,0:0:0:0:
320,192,72509,1,6,0:0:0:0:
192,192,72687,1,2,0:0:0:0:
64,192,73045,1,2,0:0:0:0:
192,192,73223,1,8,0:0:0:0:
448,192,73223,1,0,0:0:0:0:
320,192,73402,1,2,0:0:0:0:
448,192,73759,128,2,73937:0:0:0:0:
64,192,73937,1,8,0:0:0:0:
192,192,73937,1,0,0:0:0:0:
320,192,74116,1,2,0:0:0:0:
64,192,74473,1,2,0:0:0:0:
320,192,74652,1,8,0:0:0:0:
448,192,74652,1,0,0:0:0:0:
64,192,74830,1,8,0:0:0:0:
192,192,74830,1,0,0:0:0:0:
320,192,75009,1,8,0:0:0:0:
448,192,75009,1,0,0:0:0:0:
192,192,75187,1,2,0:0:0:0:
320,192,75545,1,2,0:0:0:0:
64,192,75723,1,2,0:0:0:0:
192,192,76080,1,8,0:0:0:0:
448,192,76080,1,4,0:0:0:0:
320,192,76795,1,6,0:0:0:0:
64,192,77509,1,8,0:0:0:0:
448,192,77509,1,4,0:0:0:0:
192,192,78045,1,2,0:0:0:0:
320,192,78580,1,2,0:0:0:0:
64,192,78937,1,4,0:0:0:0:
192,192,78937,1,8,0:0:0:0:
448,192,79652,1,6,0:0:0:0:
192,192,80366,1,8,0:0:0:0:
320,192,80366,1,0,0:0:0:0:
64,192,80723,1,8,0:0:0:0:
448,192,80723,1,4,0:0:0:0:
192,192,81259,1,2,0:0:0:0:
320,192,81437,1,2,0:0:0:0:
64,192,81795,1,8,0:0:0:0:
448,192,81795,1,4,0:0:0:0:
320,192,82509,1,2,0:0:0:0:
192,192,83223,1,4,0:0:0:0:
448,192,83223,1,8,0:0:0:0:
64,192,83759,1,2,0:0:0:0:
320,192,84295,1,2,0:0:0:0:
192,192,84652,1,8,0:0:0:0:
448,192,84652,1,4,0:0:0:0:
64,192,85366,1,6,0:0:0:0:
320,192,85902,1,2,0:0:0:0:
64,192,86080,1,8,0:0:0:0:
448,192,86080,1,0,0:0:0:0:
192,192,86259,1,8,0:0:0:0:
320,192,86259,1,0,0:0:0:0:
64,192,86437,1,8,0:0:0:0:
448,192,86437,1,0,0:0:0:0:
192,192,86616,1,2,0:0:0:0:
320,192,86973,1,2,0:0:0:0:
64,192,87152,1,8,0:0:0:0:
448,192,87152,1,4,0:0:0:0:
192,192,87330,1,2,0:0:0:0:
448,192,87509,1,6,0:0:0:0:
320,192,87687,1,2,0:0:0:0:
64,192,87866,1,4,0:0:0:0:
192,192,87866,1,8,0:0:0:0:
448,192,88045,1,2,0:0:0:0:
64,192,88223,1,6,0:0:0:0:
192,192,88402,1,2,0:0:0:0:
320,192,88580,1,4,0:0:0:0:
448,192,88580,1,8,0:0:0:0:
64,192,88759,1,2,0:0:0:0:
320,192,88937,1,6,0:0:0:0:
192,192,89116,1,2,0:0:0:0:
64,192,89295,1,8,0:0:0:0:
320,192,89295,1,4,0:0:0:0:
448,192,89473,1,2,0:0:0:0:
64,192,89652,1,6,0:0:0:0:
320,192,89830,1,2,0:0:0:0:
192,192,90009,1,8,0:0:0:0:
448,192,90009,1,4,0:0:0:0:
64,192,90187,1,2,0:0:0:0:
320,192,90366,1,6,0:0:0:0:
192,192,90545,1,2,0:0:0:0:
320,192,90723,1,8,0:0:0:0:
448,192,90723,1,0,0:0:0:0:
64,192,90902,1,2,0:0:0:0:
192,192,91080,1,2,0:0:0:0:
448,192,91259,1,2,0:0:0:0:
64,192,91437,1,8,0:0:0:0:
320,192,91437,1,0,0:0:0:0:
192,192,91616,1,2,0:0:0:0:
448,192,91795,1,2,0:0:0:0:
64,192,91973,1,2,0:0:0:0:
192,192,92152,1,8,0:0:0:0:
320,192,92152,1,4,0:0:0:0:
448,192,92330,1,2,0:0:0:0:
64,192,92509,1,6,0:0:0:0:
320,192,92687,1,2,0:0:0:0:
64,192,92866,1,4,0:0:0:0:
192,192,92866,1,8,0:0:0:0:
448,192,93045,1,2,0:0:0:0:
192,192,93223,1,6,0:0:0:0:
320,192,93402,1,2,0:0:0:0:
64,192,93580,1,8,0:0:0:0:
448,192,93580,1,4,0:0:0:0:
192,192,93759,1,2,0:0:0:0:
320,192,93937,1,6,0:0:0:0:
448,192,94116,1,2,0:0:0:0:
64,192,94295,1,4,0:0:0:0:
192,192,94295,1,8,0:0:0:0:
320,192,94473,1,2,0:0:0:0:
448,192,94652,1,6,0:0:0:0:
192,192,94830,1,2,0:0:0:0:
64,192,95009,1,8,0:0:0:0:
320,192,95009,1,4,0:0:0:0:
448,192,95187,1,2,0:0:0:0:
64,192,95366,1,4,0:0:0:0:
192,192,95366,1,8,0:0:0:0:
192,192,95723,1,8,0:0:0:0:
320,192,95723,1,4,0:0:0:0:
320,192,96080,1,8,0:0:0:0:
448,192,96080,1,4,0:0:0:0:
320,192,96437,1,8,0:0:0:0:
448,192,96437,1,0,0:0:0:0:
64,192,96616,1,8,0:0:0:0:
192,192,96616,1,0,0:0:0:0:
320,192,96795,1,8,0:0:0:0:
448,192,96795,1,0,0:0:0:0:
64,192,96973,1,8,0:0:0:0:
192,192,96973,1,0,0:0:0:0:
320,192,97152,1,8,0:0:0:0:
448,192,97152,1,0,0:0:0:0:
64,192,97330,1,8,0:0:0:0:
192,192,97330,1,0,0:0:0:0:
320,192,97509,128,4,97866:0:0:0:0:
448,192,97509,1,2,0:0:0:0:
