osu file format v14

[General]
AudioFilename: audio.mp3
AudioLeadIn: 0
PreviewTime: 183981
Countdown: 0
SampleSet: Normal
StackLeniency: 0.7
Mode: 0
LetterboxInBreaks: 0
WidescreenStoryboard: 0

[Editor]
DistanceSpacing: 2.5
BeatDivisor: 2
GridSize: 8
TimelineZoom: 1

[Metadata]
Title:Cry Out (Deluxe Edition)
TitleUnicode:Cry Out (Deluxe Edition)
Artist:ONE OK ROCK
ArtistUnicode:ONE OK ROCK
Creator:Ferexis
Version:Extra
Source:
Tags:
BeatmapID:1938001
BeatmapSetID:927840

[Difficulty]
HPDrainRate:7
CircleSize:4
OverallDifficulty:9
ApproachRate:8.6
SliderMultiplier:1.4
SliderTickRate:1

[Events]
//Background and Video events
//Break Periods
2,138377,149051
//Storyboard Layer 0 (Background)
//Storyboard Layer 1 (Fail)
//Storyboard Layer 2 (Pass)
//Storyboard Layer 3 (Foreground)
//Storyboard Sound Samples

[TimingPoints]
8719,357.142857142857,4,1,0,30,1,0
11576,-100,4,1,0,70,0,0
24076,-133.333333333333,4,1,0,50,0,0
34790,-400,4,1,0,50,0,0
35683,-117.647058823529,4,1,0,50,0,0
44075,-117.647058823529,4,1,0,50,0,0
46933,-111.111111111111,4,1,0,50,0,0
58361,-100,4,1,0,100,0,1
75504,-100,4,1,0,100,0,0
80504,-200,4,1,0,100,0,0
80861,-100,4,1,0,100,0,0
86571,357.142857142857,4,1,0,100,1,0
86928,357.142857142857,4,1,0,100,1,0
87285,-133.333333333333,4,1,0,100,0,0
95499,-117.647058823529,4,1,0,100,0,0
95499,-133.333333333333,4,1,0,100,0,0
98356,-100,4,1,0,100,0,0
109785,-100,4,1,0,100,0,0
118356,-100,4,1,0,100,0,0
121213,-100,4,1,0,100,0,1
138178,-100,4,1,0,100,0,0
149785,-133.333333333333,4,1,0,100,0,0
158356,-100,4,1,0,100,0,0
161213,-117.647058823529,4,1,0,100,0,0
169785,-80,4,1,0,100,0,0
172642,-100,4,1,0,100,0,0
178356,-100,4,1,0,100,0,0
181213,-100,4,1,0,100,0,0
184070,-100,4,1,0,100,0,1
201035,357.142857142857,4,1,0,100,1,1
201035,-100,4,1,0,100,0,0
201392,-100,4,1,0,100,0,0
203892,-100,4,1,0,100,0,0
208535,-100,4,1,0,100,0,0
212463,-100,4,1,0,100,0,0
213892,-100,4,1,0,100,0,0
219963,-100,4,1,0,100,0,0

[HitObjects]
256,192,8719,12,0,11219,0:0:0:0:
112,72,11576,5,0,0:0:0:0:
248,64,11754,2,0,P|240:152|152:192,1,140
72,240,12290,1,0,0:0:0:0:
192,312,12469,2,0,B|224:296|224:296|272:296,1,70
336,176,12826,6,0,P|360:256|416:232,1,140
400,112,13361,1,0,0:0:0:0:
480,232,13540,1,0,0:0:0:0:
336,176,13719,2,0,L|240:160,1,70
128,136,14076,2,0,L|224:120,1,70
136,248,14433,6,0,B|128:320|128:320|192:360,2,140
272,216,15326,2,0,L|344:248,2,70
136,184,15861,1,0,0:0:0:0:
272,136,16040,1,0,0:0:0:0:
136,104,16218,2,0,L|64:72,1,70
216,72,16576,2,0,L|288:40,1,70
335,244,16933,1,0,0:0:0:0:
384,112,17111,1,0,0:0:0:0:
432,248,17290,6,0,L|472:336,1,70
335,244,17647,2,0,L|295:156,1,70
80,248,18004,2,0,L|40:336,1,70
177,244,18361,2,0,L|217:156,1,70
256,312,18718,6,0,L|256:208,1,70
256,72,19076,2,0,L|256:176,1,70
344,256,19433,5,0,0:0:0:0:
176,144,19611,1,0,0:0:0:0:
363,114,19790,5,0,0:0:0:0:
156,253,19968,1,0,0:0:0:0:
344,256,20147,2,0,L|416:312,1,70
176,144,20683,1,0,0:0:0:0:
176,144,20861,2,0,L|104:88,1,70
363,114,21397,1,0,0:0:0:0:
363,114,21576,6,0,L|408:208,1,70
256,152,21933,2,0,L|211:58,1,70
208,224,22290,6,0,B|272:288|272:288|288:216,2,140
208,224,23183,1,0,0:0:0:0:
282,239,23540,5,0,0:0:0:0:
282,239,23718,2,0,P|304:192|336:168,1,70
283,145,24076,6,0,P|220:151|175:132,1,105.000004005432
112,208,24611,1,0,0:0:0:0:
96,104,24790,2,0,L|72:32,1,52.5000020027161
166,32,25147,1,0,0:0:0:0:
182,136,25326,6,0,L|206:208,1,52.5000020027161
264,104,25683,2,0,P|272:48|320:48,1,105.000004005432
328,144,26218,1,0,0:0:0:0:
392,64,26397,1,0,0:0:0:0:
400,168,26576,2,0,L|400:248,1,52.5000020027161
304,272,26933,6,0,P|232:264|232:264,1,52.5000020027161
144,256,27290,1,0,0:0:0:0:
224,184,27468,1,0,0:0:0:0:
120,184,27647,2,0,L|32:184,1,52.5000020027161
224,184,28004,1,0,0:0:0:0:
144,112,28183,6,0,L|56:112,1,52.5000020027161
160,32,28540,2,0,B|216:32|216:32|264:64,1,105.000004005432
272,192,29076,1,0,0:0:0:0:
336,80,29254,1,0,0:0:0:0:
368,280,29433,6,0,P|416:304|440:256,1,105.000004005432
336,80,30147,1,0,0:0:0:0:
216,128,30325,1,0,0:0:0:0:
344,168,30504,2,0,L|416:208,1,52.5000020027161
216,128,30861,1,0,0:0:0:0:
301,231,31040,6,0,L|339:303,1,52.5000020027161
192,288,31397,2,0,B|120:304|120:304|152:264,1,105.000004005432
40,192,31933,1,0,0:0:0:0:
168,184,32111,1,0,0:0:0:0:
80,88,32290,6,0,P|136:56|176:88,1,105.000004005432
272,136,33004,2,0,P|319:152|358:120,1,105.000004005432
168,296,33718,5,0,0:0:0:0:
296,256,33897,1,0,0:0:0:0:
136,216,34076,5,0,0:0:0:0:
288,336,34254,1,0,0:0:0:0:
133,310,34433,2,0,L|82:325,1,52.5000020027161
331,240,34790,6,0,L|400:218,1,70
248,208,35683,5,0,0:0:0:0:
376,133,35861,1,0,0:0:0:0:
248,59,36040,1,0,0:0:0:0:
248,208,36218,2,0,L|152:248,1,59.5000011348725
248,59,36575,1,0,0:0:0:0:
160,184,36754,2,0,L|88:152,1,59.5000011348725
248,208,37111,6,0,P|312:240|376:208,1,119.000002269745
264,112,37647,1,0,0:0:0:0:
416,128,37826,1,0,0:0:0:0:
304,32,38004,1,0,0:0:0:0:
274,32,38093,1,0,0:0:0:0:
244,32,38182,1,0,0:0:0:0:
184,168,38361,2,0,L|112:120,1,59.5000011348725
80,272,38718,5,0,0:0:0:0:
208,352,38897,1,0,0:0:0:0:
136,224,39076,2,0,L|178:266,1,59.5000011348725
208,352,39433,1,0,0:0:0:0:
217,205,39612,2,0,L|229:263,1,59.5000011348725
336,160,39968,6,0,L|323:101,2,59.5000011348725
304,304,40504,1,0,0:0:0:0:
432,224,40683,1,0,0:0:0:0:
274,224,40861,1,0,0:0:0:0:
251,243,40950,1,0,0:0:0:0:
228,262,41039,1,0,0:0:0:0:
277,139,41218,2,0,L|325:99,1,59.5000011348725
184,48,41576,5,0,0:0:0:0:
152,192,41754,1,0,0:0:0:0:
64,72,41933,2,0,L|40:136,1,59.5000011348725
152,192,42290,1,0,0:0:0:0:
12,139,42469,2,0,L|26:205,1,59.5000011348725
112,312,42826,6,0,L|97:245,1,59.5000011348725
240,304,43183,1,0,0:0:0:0:
152,192,43361,2,0,L|232:184,1,59.5000011348725
312,80,43718,1,0,0:0:0:0:
282,82,43807,1,0,0:0:0:0:
252,85,43896,1,0,0:0:0:0:
384,168,44076,2,0,L|464:160,1,59.5000011348725
179,278,44433,5,0,0:0:0:0:
388,249,44611,1,0,0:0:0:0:
157,191,44790,5,0,0:0:0:0:
402,328,44968,1,0,0:0:0:0:
145,282,45147,5,0,0:0:0:0:
423,244,45325,1,0,0:0:0:0:
116,168,45504,5,0,0:0:0:0:
442,350,45682,1,0,0:0:0:0:
336,104,45861,1,0,0:0:0:0:
336,104,46040,2,0,L|288:168,1,59.5000011348725
130,285,46397,2,0,L|178:221,1,59.5000011348725,0|8,0:0|0:0,0:0:0:0:
194,202,46665,1,8,0:0:0:0:
234,184,46754,1,8,0:0:0:0:
278,182,46843,1,8,0:0:0:0:
321,194,46933,2,0,L|384:224,1,62.9999980773926,12|0,0:0|0:0,0:0:0:0:
296,88,47290,6,0,L|233:58,1,62.9999980773926
120,160,47647,1,0,0:0:0:0:
64,16,47826,1,0,0:0:0:0:
176,120,48004,2,0,L|256:184,1,62.9999980773926
124,239,48361,1,0,0:0:0:0:
0,148,48540,1,0,0:0:0:0:
149,175,48718,6,0,L|251:185,1,62.9999980773926
392,160,49076,1,0,0:0:0:0:
448,16,49255,1,0,0:0:0:0:
336,120,49433,2,0,L|256:184,1,62.9999980773926
387,239,49790,1,0,0:0:0:0:
512,148,49969,1,0,0:0:0:0:
362,175,50147,6,0,L|260:185,1,62.9999980773926
144,200,50504,2,0,L|206:193,1,62.9999980773926
256,112,50861,2,0,L|154:122,1,62.9999980773926
37,136,51218,2,0,L|99:129,1,62.9999980773926
64,288,51576,5,0,0:0:0:0:
208,224,51754,1,0,0:0:0:0:
176,344,51933,2,0,L|256:304,1,62.9999980773926
199,140,52290,2,0,L|279:100,1,62.9999980773926
320,256,52647,1,0,0:0:0:0:
392,112,52826,1,0,0:0:0:0:
432,264,53004,6,0,L|448:324,1,62.9999980773926
288,344,53361,1,0,0:0:0:0:
232,200,53540,1,0,0:0:0:0:
80,264,53718,2,0,L|63:324,1,62.9999980773926
312,272,54076,1,0,0:0:0:0:
200,128,54254,1,0,0:0:0:0:
432,120,54433,6,0,L|448:59,1,62.9999980773926
392,240,54790,1,0,0:0:0:0:
264,88,54968,1,0,0:0:0:0:
80,120,55147,2,0,L|63:59,1,62.9999980773926
256,192,55504,1,0,0:0:0:0:
256,192,55683,12,0,57290,0:0:0:0:
224,192,57647,6,0,L|160:192,1,62.9999980773926
288,192,58004,6,0,L|352:192,1,62.9999980773926
200,104,58361,6,0,P|272:56|344:88,2,140
96,248,59254,1,0,0:0:0:0:
272,280,59433,1,0,0:0:0:0:
128,184,59611,2,0,L|56:152,1,70
304,216,59968,1,0,0:0:0:0:
160,120,60147,6,0,L|88:88,1,70
272,64,60504,5,0,0:0:0:0:
432,136,60683,1,0,0:0:0:0:
256,160,60861,5,0,0:0:0:0:
456,32,61040,1,0,0:0:0:0:
368,184,61218,6,0,P|352:256|432:288,1,140
232,232,61754,1,0,0:0:0:0:
96,120,61933,2,0,L|24:168,1,70
232,232,62290,1,0,0:0:0:0:
56,212,62469,2,0,L|21:291,1,70,0|0,0:0|0:0,0:0:0:0:
232,232,62826,1,0,0:0:0:0:
73,311,63004,6,0,L|87:396,1,70
243,301,63361,2,0,L|231:231,1,70
240,56,63718,1,0,0:0:0:0:
360,184,63897,1,0,0:0:0:0:
184,176,64076,2,0,L|114:187,1,70
240,56,64433,6,0,L|309:44,1,70
368,144,64790,2,0,L|298:155,1,70
424,24,65147,2,0,L|493:12,1,70
496,184,65504,1,0,0:0:0:0:
328,232,65683,1,0,0:0:0:0:
480,312,65861,6,0,L|412:331,1,70
240,320,66218,2,0,L|307:300,1,70
272,128,66576,1,0,0:0:0:0:
160,256,66754,1,0,0:0:0:0:
112,120,66933,2,0,L|56:200,1,70
272,128,67290,5,0,0:0:0:0:
247,296,67468,1,0,0:0:0:0:
133,208,67647,2,0,L|129:305,1,70
272,128,68004,1,0,0:0:0:0:
342,282,68182,1,0,0:0:0:0:
198,270,68361,2,0,L|248:353,1,70
272,128,68718,5,0,0:0:0:0:
415,219,68896,1,0,0:0:0:0:
288,287,69075,2,0,L|375:329,1,70
224,192,69433,2,0,L|161:161,1,70
320,232,69790,6,0,P|327:164|283:112,2,140
144,232,70683,1,0,0:0:0:0:
283,112,70861,1,0,0:0:0:0:
112,128,71040,2,0,L|40:192,1,70
251,8,71397,1,0,0:0:0:0:
80,24,71576,2,0,L|8:88,1,70
230,158,71933,6,0,L|282:111,1,70
312,288,72290,1,0,0:0:0:0:
408,144,72468,1,0,0:0:0:0:
232,160,72647,6,0,P|200:232|264:224,1,140
72,304,73183,1,0,0:0:0:0:
104,128,73361,2,0,L|136:208,1,70
72,304,73718,1,0,0:0:0:0:
200,184,73897,2,0,L|187:252,1,70
318,211,74254,2,0,L|334:126,1,70
160,88,74611,5,0,0:0:0:0:
336,64,74790,1,0,0:0:0:0:
136,16,74968,5,0,0:0:0:0:
296,128,75147,1,0,0:0:0:0:
128,192,75326,2,0,L|184:272,1,70
328,320,75683,1,0,0:0:0:0:
336,185,75861,2,0,L|295:127,1,70
120,96,76218,6,0,P|32:192|128:296,2,280
296,96,77826,1,0,0:0:0:0:
256,264,78004,1,0,0:0:0:0:
216,96,78183,1,0,0:0:0:0:
392,96,78361,6,0,P|480:192|384:296,2,280
216,288,79968,1,0,0:0:0:0:
256,120,80146,5,0,0:0:0:0:
296,288,80325,1,0,0:0:0:0:
136,208,80504,6,0,L|88:160,1,52.5
72,144,80861,6,0,B|128:88|128:88|168:128|168:128|224:72,2,210
184,280,82111,1,0,0:0:0:0:
440,240,82290,6,0,B|384:296|384:296|344:256|344:256|288:312,2,210
408,67,83540,2,0,L|437:169,2,70
256,192,84076,12,0,86571,0:0:0:0:
80,80,87285,5,0,0:0:0:0:
200,136,87463,1,0,0:0:0:0:
72,176,87642,2,0,L|136:216,1,52.5000020027161
200,136,87999,1,0,0:0:0:0:
114,239,88178,2,0,L|189:237,1,52.5000020027161
216,360,88535,5,0,0:0:0:0:
264,240,88713,1,0,0:0:0:0:
152,312,88892,1,0,0:0:0:0:
280,312,89071,2,0,L|360:344,1,52.5000020027161
215,257,89428,2,0,L|166:237,1,52.5000020027161
296,208,89785,6,0,L|344:188,1,52.5000020027161
216,152,90142,1,0,0:0:0:0:
88,128,90321,1,0,0:0:0:0:
208,72,90499,2,0,P|272:72|296:80,1,52.5000020027161
88,128,90856,1,0,0:0:0:0:
219,145,91034,2,0,P|272:179|288:199,1,52.5000020027161
136,208,91392,5,0,0:0:0:0:
240,288,91571,2,0,P|261:303|284:314,1,52.5000020027161
352,200,91928,2,0,L|384:256,1,52.5000020027161
440,128,92285,1,0,0:0:0:0:
426,105,92374,1,0,0:0:0:0:
413,82,92463,1,0,0:0:0:0:
280,80,92642,6,0,L|306:125,1,52.5000020027161
176,144,92999,2,0,L|130:170,1,52.5000020027161
256,216,93356,1,0,0:0:0:0:
144,280,93535,1,0,0:0:0:0:
264,320,93713,2,0,L|309:293,2,52.5000020027161
392,336,94249,1,0,0:0:0:0:
488,240,94428,2,0,P|448:176|416:200,2,105.000004005432
472,264,95231,1,0,0:0:0:0:
440,280,95320,1,0,0:0:0:0:
256,192,95499,6,0,L|320:136,1,52.5000020027161
176,136,95856,5,0,0:0:0:0:
320,232,96035,1,0,0:0:0:0:
168,253,96213,5,0,0:0:0:0:
326,148,96392,1,0,0:0:0:0:
160,124,96570,5,0,0:0:0:0:
332,240,96749,1,0,0:0:0:0:
150,265,96927,5,0,0:0:0:0:
340,139,97106,1,0,0:0:0:0:
160,124,97285,1,0,0:0:0:0:
272,256,97463,1,0,0:0:0:0:
302,274,97553,1,0,0:0:0:0:
338,271,97642,1,0,0:0:0:0:
370,258,97731,1,0,0:0:0:0:
394,233,97820,1,0,0:0:0:0:
405,199,97910,1,0,0:0:0:0:
392,168,97999,2,0,L|323:92,1,78.7500030040742
320,88,98356,6,0,L|168:88,2,140
320,88,99428,1,0,0:0:0:0:
216,232,99606,1,0,0:0:0:0:
392,224,99785,6,0,P|384:304|312:352,2,140
392,224,100856,1,0,0:0:0:0:
375,193,100945,1,0,0:0:0:0:
358,162,101035,1,0,0:0:0:0:
184,168,101213,5,0,0:0:0:0:
344,88,101392,1,0,0:0:0:0:
232,224,101570,1,0,0:0:0:0:
280,56,101749,1,0,0:0:0:0:
304,232,101928,2,0,L|322:370,1,140
152,328,102463,1,0,0:0:0:0:
304,232,102642,6,0,L|285:93,1,140
136,184,103178,1,0,0:0:0:0:
304,232,103356,6,0,L|442:213,1,140
472,192,103803,1,0,0:0:0:0:
480,160,103892,1,0,0:0:0:0:
352,40,104070,6,0,L|376:112,1,70
200,112,104428,1,0,0:0:0:0:
144,160,104606,1,0,0:0:0:0:
128,232,104785,2,0,P|128:280|160:304,2,70
144,160,105320,1,0,0:0:0:0:
200,112,105499,5,0,0:0:0:0:
280,112,105678,1,0,0:0:0:0:
336,160,105856,1,0,0:0:0:0:
352,232,106035,2,0,P|352:280|320:304,2,70
280,112,106570,5,0,0:0:0:0:
320,128,106660,1,0,0:0:0:0:
336,160,106749,1,0,0:0:0:0:
256,320,106928,6,0,L|256:240,1,70
176,96,107285,5,0,0:0:0:0:
96,256,107463,1,0,0:0:0:0:
80,56,107642,5,0,0:0:0:0:
184,272,107820,1,0,0:0:0:0:
180,88,107999,5,0,0:0:0:0:
92,264,108177,1,0,0:0:0:0:
74,44,108356,5,0,0:0:0:0:
189,282,108534,1,0,0:0:0:0:
330,84,108713,2,0,P|272:107|256:48,2,140
352,56,109517,1,0,0:0:0:0:
384,48,109606,1,0,0:0:0:0:
424,64,109695,1,0,0:0:0:0:
432,104,109785,6,0,L|440:184,1,70
264,168,110142,2,0,L|272:248,1,70
112,168,110499,1,0,0:0:0:0:
256,72,110677,1,0,0:0:0:0:
80,80,110856,2,0,L|0:88,1,70
256,72,111213,5,0,0:0:0:0:
256,248,111392,1,0,0:0:0:0:
344,96,111570,2,0,L|379:35,1,70
432,200,111927,1,0,0:0:0:0:
264,152,112106,1,0,0:0:0:0:
344,288,112285,2,0,L|379:348,1,70
264,152,112642,5,0,0:0:0:0:
88,168,112821,1,0,0:0:0:0:
190,290,113000,2,0,L|154:350,1,70
160,184,113356,2,0,L|195:123,1,70
360,48,113713,1,0,0:0:0:0:
440,200,113892,1,0,0:0:0:0:
224,40,114070,6,0,L|296:128,1,70
344,256,114427,2,0,L|299:201,1,70
115,129,114785,2,0,L|187:217,1,70
235,345,115142,2,0,L|190:290,1,70
240,120,115499,5,0,0:0:0:0:
304,280,115677,1,0,0:0:0:0:
368,120,115856,2,0,L|400:32,1,70
304,280,116213,1,0,0:0:0:0:
368,120,116391,1,0,0:0:0:0:
432,280,116570,2,0,L|464:368,1,70
304,280,116927,6,0,L|280:214,1,70
112,272,117285,2,0,L|80:360,1,70
152,176,117642,1,0,0:0:0:0:
240,328,117820,1,0,0:0:0:0:
272,152,117999,2,0,L|360:184,1,70
256,192,118356,12,0,120142,0:0:0:0:
256,160,120499,6,0,L|256:88,1,70
256,224,120856,6,0,L|256:296,1,70
80,272,121213,6,0,B|40:216|40:216|88:160,1,140
224,48,121749,1,0,0:0:0:0:
256,224,121927,2,0,L|216:284,1,70
185,106,122285,2,0,L|223:47,1,70
312,208,122642,5,0,0:0:0:0:
432,24,122820,1,0,0:0:0:0:
456,216,122999,1,0,0:0:0:0:
320,24,123177,1,0,0:0:0:0:
456,216,123356,2,0,L|504:280,1,70
312,208,123713,2,0,L|270:264,1,70
86,161,124070,6,0,B|40:216|40:216|80:272,1,140
160,120,124606,1,0,0:0:0:0:
176,296,124785,2,0,L|224:352,1,70
136,183,125142,1,0,0:0:0:0:
245,322,125321,2,0,L|316:343,1,70,0|0,0:0|0:0,0:0:0:0:
151,250,125677,1,0,0:0:0:0:
318,307,125856,2,0,L|389:286,1,70,0|0,0:0|0:0,0:0:0:0:
280,144,126213,6,0,L|208:88,1,70
400,72,126570,2,0,L|455:114,1,70
176,232,126927,1,0,0:0:0:0:
416,240,127106,1,0,0:0:0:0:
176,136,127285,2,0,B|80:112|80:112|144:176,1,140
368,208,127820,5,0,0:0:0:0:
112,264,127999,1,0,0:0:0:0:
320,80,128177,5,0,0:0:0:0:
192,336,128356,1,0,0:0:0:0:
192,40,128535,5,0,0:0:0:0:
336,360,128713,1,0,0:0:0:0:
56,72,128892,5,0,0:0:0:0:
440,296,129070,6,0,L|512:344,1,70
64,192,129427,2,0,L|5:153,1,70
352,56,129785,6,0,P|416:88|368:216,1,210
159,56,130499,2,0,P|82:115|119:206,1,210
352,224,131213,6,0,P|416:256|368:384,1,210
159,224,131927,2,0,P|81:283|118:374,1,210
256,208,132642,6,0,B|256:112|256:112|280:160,2,140
136,80,133535,5,0,0:0:0:0:
152,256,133713,2,0,L|224:320,1,70
91,197,134070,5,0,0:0:0:0:
227,310,134248,2,0,L|323:305,1,70,0|0,0:0|0:0,0:0:0:0:
144,312,134606,5,0,0:0:0:0:
320,296,134784,2,0,L|384:223,1,70
190,259,135142,2,0,L|143:311,1,70
256,176,135499,6,0,B|256:272|256:272|275:232,2,140
376,304,136392,5,0,0:0:0:0:
360,128,136570,2,0,L|288:64,1,70
420,186,136927,5,0,0:0:0:0:
284,73,137106,2,0,L|188:78,1,70
368,72,137463,5,0,0:0:0:0:
192,88,137641,2,0,L|128:160,1,70
322,125,137999,2,0,L|368:72,1,70
96,328,149785,5,0,0:0:0:0:
104,200,149963,1,0,0:0:0:0:
200,288,150142,2,0,L|256:232,1,52.5000020027161
368,264,150499,2,0,L|272:168,1,105.000004005432
160,192,151035,1,0,0:0:0:0:
200,96,151213,6,0,L|256:152,1,52.5000020027161
304,96,151570,2,0,L|378:170,2,105.000004005432
432,64,152463,1,0,0:0:0:0:
496,128,152642,5,0,0:0:0:0:
480,216,152820,1,0,0:0:0:0:
400,264,152999,2,0,L|352:296,1,52.5000020027161
264,200,153356,2,0,L|216:168,1,52.5000020027161
128,264,153713,6,0,L|80:296,2,52.5000020027161
240,336,154249,1,0,0:0:0:0:
264,200,154427,2,0,L|307:229,1,52.5000020027161
432,200,154785,2,0,L|343:140,2,105.000004005432
472,272,155677,5,0,0:0:0:0:
416,336,155856,2,0,L|360:368,1,52.5000020027161
328,240,156213,2,0,L|272:208,1,52.5000020027161
240,336,156570,2,0,L|184:368,2,52.5000020027161
236,240,157106,6,0,L|281:213,1,52.5000020027161
416,216,157463,2,0,L|448:144,1,52.5000020027161
328,240,157820,2,0,L|306:287,1,52.5000020027161
344,160,158177,1,0,0:0:0:0:
192,80,158356,6,0,P|128:112|104:192,3,140
320,80,159785,2,0,P|384:112|408:192,3,140
426,336,161213,5,0,0:0:0:0:
418,200,161391,1,0,0:0:0:0:
315,294,161570,2,0,L|256:234,1,59.5000011348725
136,268,161927,2,0,L|237:166,1,119.000002269745
358,192,162463,1,0,0:0:0:0:
315,89,162641,6,0,L|256:149,1,59.5000011348725
199,79,162998,2,0,L|111:166,2,119.000002269745
68,55,163891,1,0,0:0:0:0:
0,123,164071,5,0,0:0:0:0:
17,217,164248,1,0,0:0:0:0:
102,268,164427,2,0,L|153:302,1,59.5000011348725
247,200,164784,2,0,L|298:166,1,59.5000011348725
392,268,165141,2,0,L|443:302,2,59.5000011348725
273,345,165677,5,0,0:0:0:0:
247,200,165855,2,0,L|195:234,1,59.5000011348725
68,200,166213,2,0,L|171:130,2,119.000002269745
25,277,167105,5,0,0:0:0:0:
85,345,167285,2,0,L|145:379,1,59.5000011348725
179,243,167641,2,0,L|238:209,1,59.5000011348725
273,345,167998,2,0,L|332:379,2,59.5000011348725
277,243,168534,6,0,L|223:211,1,59.5000011348725
85,217,168891,2,0,L|51:140,1,59.5000011348725
179,243,169248,2,0,L|203:298,1,59.5000011348725
162,157,169605,1,0,0:0:0:0:
320,80,169785,6,0,P|413:126|449:244,3,175
192,80,171213,6,0,P|98:126|62:244,3,175
400,312,172642,5,0,0:0:0:0:
264,320,172820,2,0,P|272:232|360:192,1,140
440,144,173356,1,0,0:0:0:0:
320,72,173535,2,0,B|288:88|288:88|240:88,1,70
176,208,173892,6,0,P|152:128|96:152,1,140
112,272,174427,1,0,0:0:0:0:
32,152,174606,1,0,0:0:0:0:
176,208,174785,2,0,L|272:224,1,70
384,248,175142,2,0,L|288:264,1,70
376,136,175499,6,0,B|384:64|384:64|320:24,2,140
240,168,176392,2,0,L|168:136,2,70
376,200,176927,1,0,0:0:0:0:
240,248,177106,1,0,0:0:0:0:
376,280,177284,2,0,L|448:312,1,70
296,312,177642,2,0,L|224:344,1,70
177,140,177999,1,0,0:0:0:0:
128,272,178177,1,0,0:0:0:0:
80,136,178356,6,0,L|40:48,1,70
177,140,178713,2,0,L|217:228,1,70
432,136,179070,2,0,L|472:48,1,70
335,140,179427,2,0,L|295:228,1,70
256,72,179784,6,0,L|256:176,1,70
256,312,180142,2,0,L|256:208,1,70
168,128,180499,5,0,0:0:0:0:
336,240,180677,1,0,0:0:0:0:
149,270,180856,5,0,0:0:0:0:
356,131,181034,1,0,0:0:0:0:
168,128,181213,2,0,L|96:72,1,70
336,240,181749,1,0,0:0:0:0:
336,240,181927,2,0,L|408:296,1,70
149,270,182463,1,0,0:0:0:0:
149,270,182642,6,0,L|104:176,1,70
256,232,182999,2,0,L|301:326,1,70
304,160,183356,6,0,B|240:96|240:96|224:168,1,140
312,280,184070,6,0,P|240:328|168:296,2,140
416,136,184963,1,0,0:0:0:0:
240,104,185142,1,0,0:0:0:0:
384,200,185320,2,0,L|456:232,1,70
208,168,185677,1,0,0:0:0:0:
352,264,185856,6,0,L|424:296,1,70
240,320,186213,5,0,0:0:0:0:
80,248,186392,1,0,0:0:0:0:
256,224,186570,5,0,0:0:0:0:
56,352,186749,1,0,0:0:0:0:
144,200,186927,6,0,P|160:128|80:96,1,140
280,152,187463,1,0,0:0:0:0:
416,264,187642,2,0,L|488:216,1,70
280,152,187999,1,0,0:0:0:0:
456,172,188178,2,0,L|491:93,1,70,0|0,0:0|0:0,0:0:0:0:
280,152,188535,1,0,0:0:0:0:
439,73,188713,6,0,L|425:-12,1,70
269,83,189070,2,0,L|281:153,1,70
272,328,189427,1,0,0:0:0:0:
152,200,189606,1,0,0:0:0:0:
328,208,189785,2,0,L|398:197,1,70
272,328,190142,6,0,L|203:340,1,70
144,240,190499,2,0,L|214:229,1,70
88,360,190856,2,0,L|19:372,1,70
16,200,191213,1,0,0:0:0:0:
192,208,191392,1,0,0:0:0:0:
32,72,191570,6,0,L|100:53,1,70
272,64,191927,2,0,L|205:84,1,70
240,256,192285,1,0,0:0:0:0:
352,128,192463,1,0,0:0:0:0:
400,264,192642,2,0,L|456:184,1,70
240,256,192999,5,0,0:0:0:0:
265,88,193177,1,0,0:0:0:0:
379,176,193356,2,0,L|383:79,1,70
240,256,193713,1,0,0:0:0:0:
170,102,193891,1,0,0:0:0:0:
314,114,194070,6,0,L|264:31,1,70
352,224,194427,1,0,0:0:0:0:
377,199,194516,1,0,0:0:0:0:
391,168,194605,1,0,0:0:0:0:
394,133,194694,1,0,0:0:0:0:
383,100,194784,1,0,0:0:0:0:
361,73,194873,1,0,0:0:0:0:
330,56,194962,1,0,0:0:0:0:
296,51,195051,1,0,0:0:0:0:
262,60,195141,1,0,0:0:0:0:
234,80,195230,1,0,0:0:0:0:
214,109,195319,1,0,0:0:0:0:
192,152,195499,6,0,P|185:220|229:272,2,140
368,152,196392,1,0,0:0:0:0:
229,272,196570,1,0,0:0:0:0:
400,256,196749,2,0,L|472:192,1,70
261,376,197106,1,0,0:0:0:0:
432,360,197285,2,0,L|504:296,1,70
282,226,197642,6,0,L|230:273,1,70
200,96,197999,1,0,0:0:0:0:
104,240,198177,1,0,0:0:0:0:
280,224,198356,6,0,P|312:152|248:160,1,140
440,80,198892,1,0,0:0:0:0:
408,256,199070,2,0,L|376:176,1,70
440,80,199427,1,0,0:0:0:0:
312,200,199606,2,0,L|324:131,1,70
194,173,199963,2,0,L|178:258,1,70
352,296,200320,5,0,0:0:0:0:
176,320,200499,1,0,0:0:0:0:
376,368,200677,5,0,0:0:0:0:
216,256,200856,1,0,0:0:0:0:
384,192,201035,6,0,L|328:112,1,70
168,168,201392,2,0,L|112:88,1,70
72,280,201749,5,0,0:0:0:0:
240,336,201927,1,0,0:0:0:0:
112,216,202106,5,0,0:0:0:0:
288,208,202285,1,0,0:0:0:0:
304,32,202463,6,0,L|360:96,1,70
96,144,202820,6,0,L|160:88,1,70
208,352,203177,6,0,L|152:288,1,70
416,239,203535,6,0,L|352:296,1,70
256,192,203892,12,0,206749,0:0:0:0:
112,128,207106,6,0,L|184:80,1,70
344,104,207463,2,0,L|285:142,1,70
168,272,207820,1,0,0:0:0:0:
344,280,207999,1,0,0:0:0:0:
176,224,208177,6,0,B|80:190|80:190|118:185,1,140
280,112,208713,1,0,0:0:0:0:
136,16,208892,1,0,0:0:0:0:
61,147,209070,2,0,B|156:180|156:180|118:185,1,140
256,192,209606,12,0,211749,0:0:0:0:
128,192,212463,6,0,L|184:272,1,70
344,216,212820,2,0,L|400:296,1,70
440,104,213177,5,0,0:0:0:0:
272,48,213355,1,0,0:0:0:0:
400,168,213534,5,0,0:0:0:0:
224,176,213713,1,0,0:0:0:0:
208,352,213891,6,0,P|176:336|152:288,1,70
416,240,214249,6,0,P|399:272|352:296,1,70
304,32,214606,6,0,P|336:48|360:96,1,70
96,144,214964,6,0,P|112:112|160:88,1,70
256,192,215320,12,0,218177,0:0:0:0:
112,128,218535,6,0,L|184:80,1,70
344,104,218892,2,0,L|285:142,1,70
168,272,219249,1,0,0:0:0:0:
344,280,219428,1,0,0:0:0:0:
176,224,219606,6,0,B|80:190|80:190|118:185,1,140
280,112,220142,1,0,0:0:0:0:
136,16,220321,1,0,0:0:0:0:
61,147,220499,2,0,B|156:180|156:180|118:185,1,140
256,192,221035,12,0,223535,0:0:0:0:
