osu file format v14

[General]
AudioFilename: audio.mp3
AudioLeadIn: 0
PreviewTime: 51249
Countdown: 0
SampleSet: Soft
StackLeniency: 0.7
Mode: 0
LetterboxInBreaks: 0
WidescreenStoryboard: 1

[Editor]
Bookmarks: 26562,36562,71562,91249,96562,169062,209062
DistanceSpacing: 1.1
BeatDivisor: 4
GridSize: 4
TimelineZoom: 2.599999

[Metadata]
Title:Clock Strikes
TitleUnicode:Clock Strikes
Artist:ONE OK ROCK
ArtistUnicode:ONE OK ROCK
Creator:Nevo
Version:Flowziee's Hard
Source:
Tags:japanese rock addy2607 sajinn narrative maiev flowziee jinsei kakete x boku wa jrock j-rock 人生×僕
BeatmapID:2957335
BeatmapSetID:1289103

[Difficulty]
HPDrainRate:4.5
CircleSize:3.5
OverallDifficulty:6.4
ApproachRate:7.9
SliderMultiplier:1.3
SliderTickRate:1

[Events]
//Background and Video events
0,0,"47069998_p0.jpg",0,0
//Break Periods
2,46655,49754
2,71811,80848
2,119312,125848
//Storyboard Layer 0 (Background)
//Storyboard Layer 1 (Fail)
//Storyboard Layer 2 (Pass)
//Storyboard Layer 3 (Foreground)
//Storyboard Layer 4 (Overlay)
//Storyboard Sound Samples

[TimingPoints]
6612,312.5,4,2,1,40,1,0
6612,-125,4,2,1,40,0,0
16612,-100,4,2,1,70,0,0
17237,-125,4,2,1,70,0,0
19112,-100,4,2,1,70,0,0
19424,-125,4,2,1,70,0,0
21612,-100,4,2,1,70,0,0
21924,-125,4,2,1,70,0,0
24112,-100,4,2,1,70,0,0
24424,-125,4,2,1,70,0,0
25205,-100,4,2,1,70,0,0
26612,-100,4,2,1,80,0,0
46612,-100,4,2,1,60,0,0
51612,-83.3333333333333,4,2,1,90,0,1
71612,-100,4,2,1,60,0,0
81612,-100,4,2,1,70,0,0
91612,-125,4,2,1,70,0,0
96612,-83.3333333333333,4,2,1,90,0,1
116612,-166.666666666667,4,2,1,40,0,0
126612,-166.666666666667,4,2,1,60,0,0
136612,-125,4,2,1,70,0,0
156612,-100,4,2,1,70,0,0
164112,-100,4,2,1,80,0,0
169112,-83.3333333333333,4,2,1,90,0,1
189112,-83.3333333333333,4,2,1,70,0,0
209190,-83.3333333333333,4,2,1,5,0,0

[Colours]
Combo1 : 0,78,155
Combo2 : 192,192,192
Combo3 : 255,94,94

[HitObjects]
198,124,6612,5,2,0:0:0:0:
459,125,7237,5,2,0:0:0:0:
382,57,7549,2,0,B|327:37|273:75|303:93|255:137|186:121,1,208,2|2,0:0|0:0,0:0:0:0:
102,65,8487,1,2,0:0:0:0:
203,23,8799,1,2,0:0:0:0:
48,314,9737,5,2,0:0:0:0:
105,228,10049,2,0,B|123:187|186:180|227:269|137:329,1,208,2|2,0:0|0:0,0:0:0:0:
49,314,10987,1,2,0:0:0:0:
14,215,11299,1,2,0:0:0:0:
454,300,12237,5,2,0:0:0:0:
393,380,12549,2,0,B|351:343|351:343|364:173,1,208,2|2,0:0|0:0,0:0:0:0:
427,95,13487,1,2,0:0:0:0:
322,79,13799,1,2,0:0:0:0:
322,79,14737,5,2,0:0:0:0:
226,21,15049,2,0,B|168:30|134:81|134:81|190:44|248:67|222:83|270:109|329:75,1,312,2|2,0:0|0:0,0:0:0:0:
62,267,16612,6,0,L|53:341,2,65,2|0|8,3:2|3:2|0:0,0:0:0:0:
3,46,17237,6,0,L|116:54,1,104,2|0,0:0|0:0,0:0:0:0:
176,107,17705,2,0,P|195:49|169:-5,2,104,2|2|2,0:0|0:0|0:0,0:0:0:0:
212,256,18643,1,2,0:0:0:0:
212,256,18799,1,2,0:0:0:0:
419,339,19112,6,0,L|345:330,2,65,2|0|10,3:2|3:2|0:0,0:0:0:0:
499,205,19737,6,0,P|443:183|392:197,1,104,2|2,0:0|0:0,0:0:0:0:
342,247,20205,1,2,0:0:0:0:
103,13,20830,1,0,0:0:0:0:
103,13,20987,2,0,L|95:123,1,104,2|2,0:0|0:0,0:0:0:0:
73,281,21612,6,0,L|-1:290,2,65,0|0|8,3:2|3:2|0:0,0:0:0:0:
155,268,22080,6,0,P|194:309|210:360,1,104,2|0,0:0|0:0,0:0:0:0:
288,384,22549,1,2,0:0:0:0:
288,384,22705,2,0,L|295:280,1,104,2|0,0:0|0:0,0:0:0:0:
254,213,23174,1,2,0:0:0:0:
254,213,23330,1,2,0:0:0:0:
345,56,23799,2,0,L|410:47,1,52,2|2,0:0|0:0,0:0:0:0:
485,114,24112,6,0,L|494:40,2,65,0|0|10,3:2|3:2|0:0,0:0:0:0:
451,199,24580,2,0,L|324:182,1,104
254,213,25049,1,2,0:0:0:0:
254,213,25205,6,0,B|207:208|167:234|154:287|154:287|122:246|135:197|159:216|173:147|128:112,1,325,2|0,0:0|0:0,0:0:0:0:
22,85,26143,1,0,3:2:0:0:
22,85,26221,1,0,3:2:0:0:
22,85,26299,2,0,L|32:37,3,32.5,8|8|8|8,0:0|0:0|0:0|0:0,0:0:0:0:
39,114,26612,6,0,L|34:182,1,65,6|0,3:2|3:2,0:0:0:0:
40,265,26924,1,8,0:0:0:0:
40,265,27080,2,0,B|65:297|65:297|172:286,1,130,2|0,0:0|3:2,0:0:0:0:
228,345,27549,1,2,0:3:0:0:
228,345,27705,2,0,P|248:289|215:222,1,130,10|0,0:0|3:2,0:0:0:0:
138,204,28174,2,0,L|152:74,1,130,10|0,0:0|3:2,0:0:0:0:
295,1,28799,2,0,L|299:38,3,32.5,2|2|2|2,0:3|0:3|0:3|0:3,0:0:0:0:
297,64,29112,6,0,L|305:137,2,65,2|0|10,3:2|3:2|0:0,0:0:0:0:
383,20,29580,2,0,L|398:154,1,130,2|0,0:0|3:2,0:0:0:0:
416,237,30049,1,2,0:3:0:0:
416,237,30205,2,0,P|462:257|460:335,1,130,2|0,3:2|3:2,0:0:0:0:
379,360,30674,2,0,L|240:351,1,130,8|0,0:0|3:2,0:0:0:0:
151,345,31143,1,0,3:2:0:0:
206,268,31299,2,0,L|212:214,3,32.5,8|8|8|8,0:0|0:0|0:0|0:0,0:0:0:0:
201,205,31612,6,0,L|120:212,1,65,2|0,3:2|3:2,0:0:0:0:
52,203,31924,1,8,0:0:0:0:
52,203,32080,2,0,B|50:163|70:140|79:151|102:122|98:87,1,130,2|0,0:0|3:2,0:0:0:0:
170,36,32549,1,2,0:3:0:0:
170,36,32705,2,0,L|305:49,1,130,10|0,0:0|3:2,0:0:0:0:
369,0,33174,2,0,P|386:65|348:119,1,130,10|0,0:0|3:2,0:0:0:0:
203,208,33799,2,0,L|199:263,3,32.5,2|2|2|2,0:3|0:3|0:3|0:3,0:0:0:0:
167,268,34112,6,0,L|246:263,1,65,2|0,3:2|3:2,0:0:0:0:
276,346,34424,1,10,0:0:0:0:
276,346,34580,2,0,B|316:324|316:324|325:220,1,130,0|0,0:0|3:2,0:0:0:0:
280,158,35049,1,2,0:3:0:0:
280,158,35205,2,0,B|240:180|240:180|231:284,1,130,2|0,3:2|3:2,0:0:0:0:
323,239,35674,2,0,L|465:221,1,130,10|0,0:0|3:2,0:0:0:0:
505,141,36143,1,2,3:2:0:0:
418,104,36299,2,0,L|422:56,3,32.5,10|8|10|8,0:0|0:0|0:0|0:0,0:0:0:0:
423,47,36612,6,0,L|356:42,1,65,2|2,3:2|3:2,0:0:0:0:
260,76,36924,2,0,L|193:81,1,65,10|2,0:0|0:0,0:0:0:0:
94,45,37237,2,0,L|29:40,2,65,2|2|10,3:2|3:2|0:0,0:0:0:0:
116,141,37705,6,0,L|104:275,1,130,2|2,3:2|3:2,0:0:0:0:
88,362,38174,1,10,0:0:0:0:
0,330,38330,2,0,P|52:276|117:273,1,130,2|0,0:0|3:2,0:0:0:0:
178,329,38799,2,0,L|256:325,1,65,10|2,0:0|0:0,0:0:0:0:
354,380,39112,6,0,P|344:343|351:305,1,65,2|2,3:2|3:2,0:0:0:0:
292,234,39424,2,0,P|319:206|355:193,1,65,10|0,0:0|0:0,0:0:0:0:
387,107,39737,2,0,P|424:116|453:141,2,65,2|2|10,3:2|3:2|0:0,0:0:0:0:
303,68,40205,1,2,3:2:0:0:
303,68,40362,6,0,P|293:31|300:-7,2,65,2|2|10,0:3|3:2|0:0,0:0:0:0:
263,150,40830,2,0,P|183:160|135:121,1,130,2|2,0:0|3:2,0:0:0:0:
92,64,41299,2,0,L|101:-15,1,65,10|2,0:0|3:2,0:0:0:0:
1,85,41612,6,0,L|6:158,1,65,2|2,3:2|3:2,0:0:0:0:
77,215,41924,2,0,L|82:280,1,65,10|0,0:0|0:0,0:0:0:0:
2,338,42237,2,0,P|24:358|59:372,1,65,2|2,3:2|3:2,0:0:0:0:
154,353,42549,2,0,P|183:343|212:320,1,65,10|2,0:0|3:2,0:0:0:0:
280,232,42862,6,0,P|312:234|351:254,1,65,2|0,0:0|3:2,0:0:0:0:
405,312,43174,1,10,0:0:0:0:
472,252,43330,2,0,L|485:108,1,130,2|0,0:2|3:2,0:0:0:0:
406,62,43799,2,0,L|333:69,1,65,10|2,0:0|0:0,0:0:0:0:
271,132,44112,6,0,B|237:115|237:115|245:9,2,130,2|10|2,3:2|0:0|3:2,0:0:0:0:
352,187,44893,1,8,0:0:0:0:
352,187,45049,2,0,L|347:252,1,65,2|0,3:2|0:0,0:0:0:0:
252,312,45362,2,0,L|247:247,1,65,2|0,3:2|3:2,0:0:0:0:
170,179,45674,2,0,P|122:176|74:208,1,97.5,8|0,0:0|0:0,0:0:0:0:
50,217,45987,6,0,L|43:145,1,65,8|0,0:0|3:2,0:0:0:0:
137,338,46299,2,0,L|144:266,1,65,8|0,0:0|3:2,0:0:0:0:
107,69,50518,6,0,L|178:63,2,65,0|0|0,3:2|3:2|3:2,0:0:0:0:
21,81,50987,1,8,0:0:0:0:
21,81,51143,1,0,3:2:0:0:
355,363,51612,5,6,3:2:0:0:
355,363,51768,2,0,L|365:208,1,155.999995239258,0|0,3:2|3:2,0:0:0:0:
445,136,52237,1,8,0:2:0:0:
507,229,52393,2,0,P|437:244|364:206,1,155.999995239258,0|0,3:2|0:0,0:0:0:0:
279,163,52862,5,2,3:2:0:0:
279,163,53018,2,0,L|269:8,1,155.999995239258,0|0,3:2|3:2,0:0:0:0:
160,31,53487,2,0,L|166:122,1,77.999997619629,10|0,0:2|3:2,0:0:0:0:
66,158,53799,2,0,L|60:67,1,77.999997619629,2|0,0:2|0:0,0:0:0:0:
152,211,54112,5,2,3:2:0:0:
152,211,54268,2,0,P|103:250|3:238,1,155.999995239258,0|0,3:2|3:2,0:0:0:0:
0,338,54737,1,8,0:2:0:0:
96,366,54893,2,0,B|135:380|174:353|152:340|187:308|237:319,1,155.999995239258,0|0,3:2|0:0,0:0:0:0:
315,374,55362,5,2,3:2:0:0:
315,374,55518,2,0,P|331:320|280:234,1,155.999995239258,0|0,3:2|3:2,0:0:0:0:
217,157,55987,5,10,0:2:0:0:
316,147,56143,1,0,3:2:0:0:
416,137,56299,1,2,3:2:0:0:
217,157,56612,5,6,3:2:0:0:
217,157,56768,2,0,L|233:-10,1,155.999995239258,0|0,3:2|3:2,0:0:0:0:
324,63,57237,1,8,0:2:0:0:
402,1,57393,2,0,B|439:30|439:30|413:148,1,155.999995239258,0|0,3:0|0:0,0:0:0:0:
486,221,57862,5,2,3:2:0:0:
486,221,58018,2,0,L|502:388,1,155.999995239258,0|0,3:2|3:2,0:0:0:0:
383,248,58487,2,0,L|390:333,1,77.999997619629,10|0,0:2|3:2,0:0:0:0:
285,354,58799,2,0,L|278:269,1,77.999997619629,2|0,0:3|0:0,0:0:0:0:
276,170,59112,5,6,3:2:0:0:
276,170,59268,2,0,L|109:154,1,155.999995239258,0|0,3:2|3:2,0:0:0:0:
33,95,59737,1,8,0:2:0:0:
99,14,59893,2,0,P|138:91|117:160,1,155.999995239258,0|0,3:2|0:0,0:0:0:0:
20,185,60362,5,10,0:2:0:0:
74,270,60518,1,2,3:2:0:0:
74,270,60674,2,0,L|65:353,1,77.999997619629,2|2,3:2|3:2,0:0:0:0:
120,154,60987,5,10,0:2:0:0:
174,239,61143,1,2,3:2:0:0:
174,239,61299,2,0,L|165:322,1,77.999997619629,10|2,0:3|3:2,0:0:0:0:
259,376,61612,5,6,3:2:0:0:
259,376,61768,2,0,L|274:212,1,155.999995239258,0|0,3:2|3:2,0:0:0:0:
240,131,62237,1,8,0:2:0:0:
326,80,62393,2,0,B|365:65|404:92|382:105|417:137|467:126,1,155.999995239258,0|0,3:2|0:0,0:0:0:0:
428,229,62862,5,2,3:2:0:0:
428,229,63018,2,0,L|272:220,1,155.999995239258,0|0,3:2|3:2,0:0:0:0:
178,202,63487,2,0,L|169:285,1,77.999997619629,10|0,0:2|3:2,0:0:0:0:
87,356,63799,2,0,L|78:273,1,77.999997619629,2|0,0:2|3:0,0:0:0:0:
1,227,64112,5,2,3:2:0:0:
1,227,64268,2,0,L|25:71,1,155.999995239258,0|0,3:2|3:2,0:0:0:0:
109,29,64737,1,8,0:2:0:0:
182,98,64893,2,0,B|221:112|260:85|238:72|273:40|323:51,1,155.999995239258,0|0,3:2|0:0,0:0:0:0:
419,19,65362,5,2,3:2:0:0:
419,19,65518,1,0,3:2:0:0:
486,90,65674,2,0,L|477:174,1,77.999997619629,10|0,0:0|3:2,0:0:0:0:
324,133,65987,5,10,0:2:0:0:
324,133,66143,1,0,3:2:0:0:
391,204,66299,2,0,L|382:288,1,77.999997619629,10|0,0:2|0:0,0:0:0:0:
277,376,66612,5,6,3:2:0:0:
277,376,66768,2,0,L|296:212,1,155.999995239258,0|0,3:2|3:2,0:0:0:0:
193,183,67237,1,8,0:2:0:0:
168,289,67393,2,0,P|242:278|297:215,1,155.999995239258,0|0,3:0|0:0,0:0:0:0:
193,183,67862,5,2,3:2:0:0:
193,183,68018,2,0,L|33:170,1,155.999995239258,0|0,3:2|3:2,0:0:0:0:
11,68,68487,2,0,L|94:74,1,77.999997619629,10|0,0:2|3:2,0:0:0:0:
178,29,68799,2,0,L|261:35,1,77.999997619629,2|0,0:3|0:0,0:0:0:0:
363,6,69112,5,6,3:2:0:0:
363,6,69268,2,0,L|377:166,1,155.999995239258,0|0,3:2|3:2,0:0:0:0:
476,192,69737,1,8,0:2:0:0:
411,264,69893,2,0,P|346:264|275:181,1,155.999995239258,0|0,3:2|3:0,0:0:0:0:
193,139,70362,6,0,L|187:234,1,77.999997619629,14|2,0:2|3:2,0:0:0:0:
183,310,70674,1,2,3:2:0:0:
87,344,70830,6,0,L|93:249,1,77.999997619629,10|6,0:2|3:2,0:0:0:0:
97,173,71142,1,2,3:2:0:0:
9,119,71299,6,0,L|0:275,1,155.999995239258,10|6,0:2|3:2,0:0:0:0:
504,272,81612,6,0,P|474:255|432:250,1,65,6|2,3:2|3:2,0:0:0:0:
368,193,81924,2,0,P|339:210|313:244,1,65,10|2,0:0|0:0,0:0:0:0:
231,271,82237,2,0,P|231:304|248:344,2,65,2|2|10,3:2|3:2|0:0,0:0:0:0:
177,201,82705,1,2,3:2:0:0:
177,201,82862,6,0,L|189:134,2,65,0|2|10,0:3|3:2|0:0,0:0:0:0:
98,260,83330,2,0,B|70:240|70:240|87:145,1,130,2|0,0:0|3:2,0:0:0:0:
65,53,83799,2,0,L|146:48,1,65,10|2,0:0|0:0,0:0:0:0:
252,10,84112,6,0,L|243:84,1,65,2|2,3:2|3:2,0:0:0:0:
297,155,84424,2,0,L|306:229,1,65,10|0,0:0|0:0,0:0:0:0:
242,297,84737,2,0,L|233:371,2,65,2|2|10,3:2|3:2|0:0,0:0:0:0:
330,313,85205,6,0,P|375:334|457:311,1,130,2|2,3:2|3:2,0:0:0:0:
387,243,85674,1,10,0:0:0:0:
481,228,85830,2,0,L|493:98,1,130,2|2,0:0|3:2,0:0:0:0:
403,76,86299,2,0,L|395:146,1,65,10|2,0:0|3:2,0:0:0:0:
303,183,86612,6,0,P|303:145|287:112,1,65,2|2,3:2|3:2,0:0:0:0:
221,51,86924,2,0,L|147:57,1,65,10|0,0:0|0:0,0:0:0:0:
66,24,87237,2,0,L|-8:18,2,65,2|2|10,3:2|3:2|0:0,0:0:0:0:
84,124,87705,1,2,3:2:0:0:
84,124,87862,6,0,L|100:262,1,130,2|10,0:0|0:0,0:0:0:0:
17,314,88330,2,0,P|79:354|143:345,1,130,2|0,0:2|3:2,0:0:0:0:
192,277,88799,2,0,L|262:284,1,65,10|2,0:0|0:0,0:0:0:0:
325,349,89112,6,0,B|358:335|358:335|348:228,2,130,2|10|2,3:2|0:0|0:2,0:0:0:0:
256,283,89893,1,0,1:0:0:0:
256,283,90049,2,0,L|267:214,1,65,10|0,0:2|1:0,0:0:0:0:
253,127,90362,5,0,1:0:0:0:
348,151,90518,1,10,0:3:0:0:
348,151,90674,2,0,P|385:158|423:165,1,65,8|10,0:3|0:3,0:0:0:0:
455,57,90987,2,0,P|418:64|380:71,1,65,10|10,0:3|0:3,0:0:0:0:
302,34,91299,2,0,P|249:43|190:48,1,97.5,8|0,0:0|0:0,0:0:0:0:
175,40,91612,6,0,L|158:197,2,156,2|2|2,3:2|3:2|3:2,0:0:0:0:
45,90,92862,1,2,0:0:0:0:
69,184,93174,1,0,3:0:0:0:
93,278,93487,2,0,L|87:344,2,52,8|0|2,0:0|3:0|0:0,0:0:0:0:
93,278,94112,6,0,B|128:239|128:239|236:251,2,156,2|2|2,3:2|3:2|3:2,0:0:0:0:
92,278,95362,6,0,L|86:344,1,52,0|0,3:0|3:0,0:0:0:0:
194,384,95674,2,0,L|188:318,1,52,0|0,3:0|3:0,0:0:0:0:
256,257,95987,1,8,0:0:0:0:
256,257,96143,1,8,0:0:0:0:
187,167,96299,1,8,0:0:0:0:
187,167,96455,1,8,0:0:0:0:
261,95,96612,5,6,3:2:0:0:
261,95,96768,2,0,B|300:109|339:82|317:69|352:37|402:48,1,155.999995239258,0|0,3:2|3:2,0:0:0:0:
493,97,97237,1,8,0:2:0:0:
403,141,97393,2,0,L|391:306,1,155.999995239258,0|0,3:2|0:0,0:0:0:0:
314,363,97862,5,2,3:2:0:0:
314,363,98018,2,0,P|276:303|189:308,1,155.999995239258,0|0,3:2|3:2,0:0:0:0:
99,351,98487,2,0,L|12:343,1,77.999997619629,10|0,0:2|3:2,0:0:0:0:
18,242,98799,2,0,L|95:249,1,77.999997619629,2|0,0:2|0:0,0:0:0:0:
197,302,99112,5,2,3:2:0:0:
197,302,99268,2,0,P|212:239|154:156,1,155.999995239258,0|0,3:2|3:2,0:0:0:0:
65,137,99737,1,8,0:2:0:0:
132,68,99893,2,0,L|296:77,1,155.999995239258,0|0,3:2|0:0,0:0:0:0:
358,10,100362,5,2,3:2:0:0:
358,10,100518,2,0,B|389:34|389:34|374:157,1,155.999995239258,0|0,3:2|3:2,0:0:0:0:
432,229,100987,5,10,0:2:0:0:
333,239,101143,1,0,3:2:0:0:
233,249,101299,1,2,3:2:0:0:
432,229,101612,5,6,3:2:0:0:
432,229,101768,2,0,P|459:273|415:368,1,155.999995239258,0|0,3:2|3:2,0:0:0:0:
315,337,102237,1,8,0:2:0:0:
333,239,102393,2,0,L|318:69,1,155.999995239258,0|0,3:0|0:0,0:0:0:0:
247,17,102862,5,2,3:2:0:0:
247,17,103018,2,0,B|212:37|212:37|223:158,1,155.999995239258,0|0,3:2|3:2,0:0:0:0:
143,210,103487,2,0,L|62:201,1,77.999997619629,10|0,0:2|3:2,0:0:0:0:
60,301,103799,2,0,L|137:309,1,77.999997619629,2|0,0:3|0:0,0:0:0:0:
234,259,104112,5,6,3:2:0:0:
234,259,104268,2,0,B|274:269|310:239|287:228|319:193|370:199,1,155.999995239258,0|0,3:2|3:2,0:0:0:0:
407,295,104737,1,8,0:2:0:0:
469,212,104893,2,0,P|468:176|378:100,1,155.999995239258,0|0,3:2|0:0,0:0:0:0:
295,18,105362,5,10,0:2:0:0:
226,86,105518,1,2,3:2:0:0:
226,86,105674,2,0,L|237:174,1,77.999997619629,2|2,3:2|3:2,0:0:0:0:
64,103,105987,5,10,0:2:0:0:
133,171,106143,1,2,3:2:0:0:
133,171,106299,2,0,L|122:259,1,77.999997619629,10|0,0:3|0:0,0:0:0:0:
37,298,106612,5,6,3:2:0:0:
37,298,106768,2,0,P|104:346|185:332,1,155.999995239258,0|0,3:2|3:2,0:0:0:0:
273,321,107237,1,8,0:2:0:0:
215,241,107393,2,0,L|226:80,1,155.999995239258,0|0,3:2|0:0,0:0:0:0:
304,19,107862,5,2,3:2:0:0:
304,19,108018,2,0,P|360:24|394:109,1,155.999995239258,0|0,3:2|3:2,0:0:0:0:
470,164,108487,2,0,L|479:253,1,77.999997619629,10|0,0:2|3:2,0:0:0:0:
370,283,108799,2,0,L|379:194,1,77.999997619629,2|0,0:2|0:0,0:0:0:0:
307,141,109112,5,2,3:2:0:0:
307,141,109268,2,0,B|268:127|229:154|251:167|216:199|166:188,1,155.999995239258,0|0,3:2|3:2,0:0:0:0:
170,89,109737,1,8,0:2:0:0:
72,61,109893,2,0,B|36:82|36:82|53:203,1,155.999995239258,0|0,3:2|0:0,0:0:0:0:
32,293,110362,5,2,3:2:0:0:
32,293,110518,1,0,3:2:0:0:
118,349,110674,2,0,L|202:343,1,77.999997619629,10|0,0:0|3:2,0:0:0:0:
51,195,110987,5,10,0:2:0:0:
51,195,111143,1,0,3:2:0:0:
137,251,111299,2,0,L|221:245,1,77.999997619629,10|0,0:2|0:0,0:0:0:0:
302,319,111612,5,6,3:2:0:0:
302,319,111768,2,0,P|318:274|421:257,1,155.999995239258,0|0,3:2|3:2,0:0:0:0:
508,217,112237,1,8,0:2:0:0:
446,140,112393,2,0,L|286:151,1,155.999995239258,0|0,3:0|0:0,0:0:0:0:
221,68,112862,5,2,3:2:0:0:
221,68,113018,2,0,P|159:54|90:115,1,155.999995239258,0|0,3:2|3:2,0:0:0:0:
126,206,113487,2,0,L|213:201,1,77.999997619629,10|0,0:2|3:2,0:0:0:0:
77,294,113799,2,0,L|-10:289,1,77.999997619629,2|0,0:3|0:0,0:0:0:0:
189,346,114112,5,6,3:2:0:0:
189,346,114268,2,0,B|216:314|216:314|202:191,1,155.999995239258,0|0,3:2|3:2,0:0:0:0:
280,145,114737,1,8,0:2:0:0:
365,208,114893,2,0,L|354:366,1,155.999995239258,0|0,3:2|3:0,0:0:0:0:
450,314,115362,6,0,L|455:223,1,77.999997619629,14|2,0:2|3:2,0:0:0:0:
512,156,115674,1,2,3:2:0:0:
512,156,115830,1,2,3:2:0:0:
365,208,115987,6,0,L|360:117,1,77.999997619629,14|2,0:2|3:2,0:0:0:0:
303,50,116299,1,10,0:2:0:0:
303,50,116455,1,8,0:0:0:0:
425,32,116612,5,6,3:2:0:0:
256,192,116690,12,0,119112,0:0:0:0:
443,332,126612,6,0,B|365:369|282:296|347:259|274:181|187:222,2,311.999990478516,2|2|2,3:2|3:2|3:2,0:0:0:0:
443,332,130362,2,0,P|457:255|474:173,1,155.999995239258,2|2,3:2|0:2,0:0:0:0:
189,221,131612,6,0,B|121:156|155:0|311:46|266:150,2,311.999990478516,2|2|2,3:2|3:2|3:2,0:0:0:0:
189,221,135362,2,0,P|174:291|156:389,1,155.999995239258,2|2,3:2|0:2,0:0:0:0:
399,306,136612,6,0,L|343:302,1,52,2|0,3:2|3:0,0:0:0:0:
466,361,136924,2,0,P|488:313|470:256,1,104,8|0,0:0|3:0,0:0:0:0:
402,224,137393,2,0,L|411:105,1,104,8|0,0:0|3:0,0:0:0:0:
471,55,137862,2,0,P|418:30|370:42,1,104,10|0,0:0|3:0,0:0:0:0:
325,106,138330,1,8,0:0:0:0:
325,106,138487,2,0,L|263:102,1,52,0|0,3:0|3:0,0:0:0:0:
192,76,138799,2,0,L|161:73,3,26,8|8|8|8,0:0|0:0|0:0|0:0,0:0:0:0:
138,62,139112,6,0,L|142:119,1,52,2|0,3:2|3:0,0:0:0:0:
58,151,139424,2,0,P|91:192|149:204,1,104,8|0,0:0|3:0,0:0:0:0:
213,167,139893,2,0,B|237:181|237:181|228:269,1,104,8|0,0:0|3:0,0:0:0:0:
261,339,140362,2,0,P|208:344|159:312,1,104,10|0,0:0|3:0,0:0:0:0:
229,256,140830,1,8,0:0:0:0:
229,256,140987,2,0,L|297:261,1,52,0|0,0:0|3:0,0:0:0:0:
355,307,141299,2,0,L|386:304,3,26,8|8|8|8,0:0|0:0|0:0|0:0,0:0:0:0:
415,319,141612,6,0,L|422:249,1,52,2|0,3:2|3:0,0:0:0:0:
479,204,141924,2,0,L|473:97,1,104,8|0,0:0|3:0,0:0:0:0:
510,23,142393,2,0,P|452:15|406:46,1,104,8|0,0:0|3:0,0:0:0:0:
383,116,142862,2,0,L|272:110,1,104,10|0,0:0|3:0,0:0:0:0:
211,57,143330,1,8,0:0:0:0:
211,57,143487,2,0,L|156:60,1,52,0|0,3:0|3:0,0:0:0:0:
80,97,143799,2,0,L|52:95,3,26,8|8|8|8,0:0|0:0|0:0|0:0,0:0:0:0:
99,124,144112,6,0,L|91:181,1,52,2|0,3:2|3:0,0:0:0:0:
31,240,144424,2,0,L|36:355,1,104,8|0,0:0|3:0,0:0:0:0:
126,364,144893,2,0,L|121:260,1,104,8|0,0:0|3:0,0:0:0:0:
186,192,145362,2,0,L|190:88,1,104,10|0,0:0|3:0,0:0:0:0:
265,38,145830,1,8,0:0:0:0:
265,38,145987,2,0,L|331:43,1,52,0|0,3:0|3:0,0:0:0:0:
406,66,146299,2,0,L|407:40,3,26,8|8|8|8,0:0|0:0|0:0|0:0,0:0:0:0:
405,98,146612,6,0,L|401:164,1,52,2|0,3:2|3:0,0:0:0:0:
474,201,146924,2,0,L|477:252,1,52,8|0,0:0|3:0,0:0:0:0:
435,335,147237,1,0,3:0:0:0:
435,335,147393,1,8,0:0:0:0:
361,280,147549,2,0,L|364:228,1,52,0|0,3:0|3:0,0:0:0:0:
306,349,147862,6,0,P|253:346|206:311,1,104,10|0,0:0|3:0,0:0:0:0:
119,329,148330,1,8,0:0:0:0:
119,329,148487,2,0,L|124:270,1,52,0|0,3:0|3:0,0:0:0:0:
61,213,148799,2,0,L|58:183,3,26,8|8|8|8,0:0|0:0|0:0|0:0,0:0:0:0:
56,154,149112,6,0,L|120:158,1,52,2|0,3:2|3:0,0:0:0:0:
162,64,149424,2,0,L|98:68,1,52,8|0,0:0|3:0,0:0:0:0:
203,150,149737,1,0,3:0:0:0:
203,150,149893,1,8,0:0:0:0:
254,76,150049,2,0,L|250:12,1,52,0|0,3:0|3:0,0:0:0:0:
344,9,150362,6,0,L|348:124,1,104,10|0,0:0|3:0,0:0:0:0:
295,181,150830,1,8,0:0:0:0:
295,181,150987,2,0,P|319:195|350:200,1,52,0|0,3:0|3:0,0:0:0:0:
430,164,151299,2,0,L|433:124,3,26,8|8|8|8,0:0|0:0|0:0|0:0,0:0:0:0:
448,191,151612,6,0,L|444:255,1,52,2|0,3:2|3:0,0:0:0:0:
465,330,151924,2,0,L|401:326,1,52,8|0,0:0|3:0,0:0:0:0:
335,382,152237,1,0,3:0:0:0:
335,382,152393,1,8,0:0:0:0:
262,319,152549,2,0,L|266:255,1,52,0|0,3:0|3:0,0:0:0:0:
177,220,152862,6,0,L|173:334,1,104,10|0,0:0|3:0,0:0:0:0:
86,352,153330,1,8,0:0:0:0:
86,352,153487,2,0,L|89:294,1,52,0|0,3:0|3:0,0:0:0:0:
45,223,153799,2,0,L|43:194,3,26,8|8|8|8,0:0|0:0|0:0|0:0,0:0:0:0:
33,163,154112,6,0,L|36:105,1,52,2|0,3:2|3:0,0:0:0:0:
122,63,154424,2,0,L|125:121,1,52,8|0,0:0|3:0,0:0:0:0:
200,168,154737,1,0,3:0:0:0:
200,168,154893,1,8,0:0:0:0:
250,99,155049,2,0,L|253:41,1,52,0|0,3:0|3:0,0:0:0:0:
346,16,155362,6,0,L|336:135,1,104,10|0,0:0|3:0,0:0:0:0:
287,201,155830,1,8,0:0:0:0:
287,201,155987,2,0,L|289:252,1,52,0|0,3:0|3:0,0:0:0:0:
326,341,156299,2,0,L|351:339,3,26,8|8|8|8,0:0|0:0|0:0|0:0,0:0:0:0:
385,356,156612,5,6,3:2:0:0:
385,356,156768,1,0,3:2:0:0:
401,106,157080,5,0,3:2:0:0:
394,194,157237,1,8,0:2:0:0:
482,314,157549,5,6,3:2:0:0:
482,314,157705,1,0,3:2:0:0:
499,65,158017,5,0,3:2:0:0:
492,153,158174,2,0,L|487:217,1,65,8|0,0:2|3:2,0:0:0:0:
401,106,158487,2,0,L|405:41,1,65,0|0,3:2|3:2,0:0:0:0:
309,0,158799,2,0,L|306:32,3,32.5,8|8|8|8,0:2|0:2|0:2|0:2,0:0:0:0:
306,62,159112,5,6,3:2:0:0:
306,62,159268,1,0,3:2:0:0:
24,40,159581,5,0,3:2:0:0:
110,46,159737,1,8,0:2:0:0:
322,155,160049,5,6,3:2:0:0:
322,155,160205,1,0,3:2:0:0:
39,131,160518,5,0,3:2:0:0:
125,137,160674,2,0,L|211:145,1,65,8|0,0:2|3:2,0:0:0:0:
144,234,160987,2,0,L|79:240,1,65,0|0,3:2|3:2,0:0:0:0:
73,346,161299,1,8,0:2:0:0:
73,346,161455,1,0,3:2:0:0:
174,335,161612,5,6,3:2:0:0:
174,335,161768,1,0,3:2:0:0:
196,57,162080,5,0,3:2:0:0:
189,143,162237,1,8,0:2:0:0:
263,362,162549,5,6,3:2:0:0:
263,362,162705,1,0,3:2:0:0:
286,85,163017,5,0,3:2:0:0:
279,171,163174,2,0,L|274:235,1,65,8|0,0:2|3:2,0:0:0:0:
375,186,163487,2,0,L|379:121,1,65,0|0,3:2|3:2,0:0:0:0:
450,59,163799,2,0,L|447:26,3,32.5,8|8|8|8,0:2|0:2|0:2|0:2,0:0:0:0:
471,88,164112,5,6,3:2:0:0:
471,89,164268,2,0,L|460:237,1,130,0|0,3:2|3:2,0:0:0:0:
455,306,164737,1,8,0:2:0:0:
286,85,165049,5,6,3:2:0:0:
286,86,165205,2,0,L|297:234,1,130,0|0,3:2|3:2,0:0:0:0:
306,315,165674,2,0,L|237:306,1,65,8|0,0:2|3:2,0:0:0:0:
153,274,165987,1,8,0:2:0:0:
85,345,166143,2,0,B|51:326|51:326|57:222,1,130,6|8,3:2|0:2,0:0:0:0:
63,206,166533,1,8,0:2:0:0:
63,206,166612,6,0,L|129:197,1,65,6|0,3:2|3:2,0:0:0:0:
178,108,166924,1,4,3:2:0:0:
178,108,167080,2,0,L|112:99,2,65,8|4|0,0:2|3:2|3:2,0:0:0:0:
260,165,167549,1,10,0:2:0:0:
260,165,167705,1,0,3:2:0:0:
313,92,167862,6,0,L|316:23,1,65,0|0,3:2|3:2,0:0:0:0:
415,42,168174,2,0,L|418:111,1,65,0|0,3:2|3:2,0:0:0:0:
375,191,168487,6,0,L|381:244,2,43.3333333333333,14|14|14,0:2|0:2|0:2,0:0:0:0:
408,256,168799,6,0,L|402:309,2,43.3333333333333,14|14|14,0:2|0:2|0:2,0:0:0:0:
384,331,169112,5,6,3:2:0:0:
384,331,169268,2,0,L|222:324,1,155.999995239258,0|0,3:2|3:2,0:0:0:0:
148,256,169737,1,8,0:2:0:0:
219,182,169893,2,0,P|249:239|227:325,1,155.999995239258,0|0,3:2|0:0,0:0:0:0:
94,338,170362,5,2,3:2:0:0:
94,338,170518,2,0,B|54:314|54:314|65:200,1,155.999995239258,0|0,3:2|3:2,0:0:0:0:
28,113,170987,2,0,L|18:33,1,77.999997619629,10|0,0:2|3:2,0:0:0:0:
135,48,171299,2,0,L|125:128,1,77.999997619629,2|0,0:2|0:0,0:0:0:0:
219,182,171612,5,2,3:2:0:0:
219,182,171768,2,0,L|237:17,1,155.999995239258,0|0,3:2|3:2,0:0:0:0:
323,89,172237,1,8,0:2:0:0:
389,17,172393,2,0,B|423:40|423:40|409:166,1,155.999995239258,0|0,3:2|0:0,0:0:0:0:
459,238,172862,5,2,3:2:0:0:
459,238,173018,2,0,P|404:250|321:188,1,155.999995239258,0|0,3:2|3:2,0:0:0:0:
219,182,173487,5,10,0:2:0:0:
229,281,173643,1,0,3:2:0:0:
239,381,173799,1,2,3:2:0:0:
219,182,174112,5,6,3:2:0:0:
219,182,174268,2,0,B|180:196|141:169|163:156|128:124|78:135,1,155.999995239258,0|0,3:2|3:2,0:0:0:0:
86,235,174737,1,8,0:2:0:0:
0,290,174893,2,0,P|63:337|138:328,1,155.999995239258,0|0,3:0|0:0,0:0:0:0:
229,281,175362,5,2,3:2:0:0:
229,281,175518,2,0,L|394:293,1,155.999995239258,0|0,3:2|3:2,0:0:0:0:
479,344,175987,2,0,L|483:264,1,77.999997619629,10|0,0:2|3:2,0:0:0:0:
407,200,176299,2,0,L|403:120,1,77.999997619629,2|0,0:3|0:0,0:0:0:0:
459,34,176612,5,6,3:2:0:0:
459,34,176768,2,0,B|496:51|496:51|504:176,1,155.999995239258,0|0,3:2|3:2,0:0:0:0:
482,266,177237,1,8,0:2:0:0:
407,200,177393,2,0,B|368:186|329:213|351:226|316:258|266:247,1,155.999995239258,0|0,3:2|0:0,0:0:0:0:
183,187,177862,5,10,0:2:0:0:
273,131,178018,1,2,3:2:0:0:
273,131,178174,2,0,L|267:42,1,77.999997619629,2|2,3:2|3:2,0:0:0:0:
84,145,178487,5,10,0:2:0:0:
174,89,178643,1,2,3:2:0:0:
174,89,178799,2,0,L|168:0,1,77.999997619629,10|8,0:3|3:3,0:0:0:0:
28,77,179112,5,6,3:2:0:0:
28,77,179268,2,0,B|-7:104|-7:104|10:227,1,155.999995239258,0|0,3:2|3:2,0:0:0:0:
56,298,179737,1,8,0:2:0:0:
122,230,179893,2,0,P|192:238|240:309,1,155.999995239258,0|0,3:2|0:0,0:0:0:0:
329,364,180362,5,2,3:2:0:0:
329,364,180518,2,0,L|334:190,1,155.999995239258,0|0,3:2|3:2,0:0:0:0:
262,138,180987,2,0,L|259:51,1,77.999997619629,10|0,0:2|3:2,0:0:0:0:
360,28,181299,2,0,L|357:114,1,77.999997619629,2|0,0:2|0:0,0:0:0:0:
430,176,181612,5,2,3:2:0:0:
430,176,181768,2,0,L|425:350,1,155.999995239258,0|0,3:2|3:2,0:0:0:0:
329,364,182237,1,8,0:2:0:0:
253,296,182393,2,0,B|214:282|175:309|197:322|162:354|112:343,1,155.999995239258,0|0,3:2|0:0,0:0:0:0:
20,297,182862,5,2,3:2:0:0:
20,297,183018,1,0,3:2:0:0:
55,197,183174,2,0,L|47:111,1,77.999997619629,10|0,0:0|3:2,0:0:0:0:
114,343,183487,5,10,0:2:0:0:
114,343,183643,1,0,3:2:0:0:
149,243,183799,2,0,L|141:157,1,77.999997619629,10|0,0:2|3:0,0:0:0:0:
135,64,184112,5,6,3:2:0:0:
135,64,184268,2,0,L|301:78,1,155.999995239258,0|0,3:2|3:2,0:0:0:0:
377,136,184737,1,8,0:2:0:0:
430,45,184893,2,0,P|350:36|281:92,1,155.999995239258,0|0,3:0|0:0,0:0:0:0:
255,171,185362,5,2,3:2:0:0:
255,171,185518,2,0,L|267:333,1,155.999995239258,0|0,3:2|3:2,0:0:0:0:
357,377,185987,2,0,L|441:369,1,77.999997619629,10|0,0:2|3:2,0:0:0:0:
439,275,186299,2,0,L|355:267,1,77.999997619629,2|0,0:3|0:0,0:0:0:0:
266,326,186612,5,6,3:2:0:0:
266,326,186768,2,0,L|111:338,1,155.999995239258,0|0,3:2|3:2,0:0:0:0:
114,240,187237,1,8,0:2:0:0:
12,266,187393,2,0,P|20:198|96:141,1,155.999995239258,0|0,3:2|3:0,0:0:0:0:
115,138,187783,1,0,3:0:0:0:
115,138,187862,5,14,0:2:0:0:
170,62,188018,2,0,B|209:48|248:75|226:88|261:120|311:109,1,155.999995239258,2|2,3:2|3:2,0:0:0:0:
396,63,188487,1,14,0:2:0:0:
396,63,188643,1,2,3:2:0:0:
473,139,188799,1,10,0:2:0:0:
473,139,188955,1,8,0:0:0:0:
415,222,189112,5,6,3:2:0:0:
415,222,189268,2,0,B|340:220|340:220|331:214|331:214|253:211,1,155.999995239258,0|0,3:2|3:2,0:0:0:0:
199,294,189737,1,8,0:2:0:0:
293,348,189893,2,0,P|307:287|251:205,1,155.999995239258,0|0,3:2|3:2,0:0:0:0:
227,114,190362,5,0,3:2:0:0:
227,114,190518,2,0,B|152:112|152:112|143:106|143:106|65:103,1,155.999995239258,0|0,3:2|3:2,0:0:0:0:
11,186,190987,1,8,0:2:0:0:
105,240,191143,2,0,P|119:179|63:97,1,155.999995239258,0|0,3:2|0:0,0:0:0:0:
172,23,191612,5,6,3:2:0:0:
172,23,191768,2,0,L|337:27,1,155.999995239258,0|0,3:2|3:2,0:0:0:0:
227,114,192237,5,8,0:2:0:0:
227,114,192393,2,0,L|392:118,1,155.999995239258,0|0,3:2|0:0,0:0:0:0:
282,205,192862,5,2,3:2:0:0:
282,205,193018,2,0,L|447:209,1,155.999995239258,2|0,3:2|3:2,0:0:0:0:
337,296,193487,6,0,L|419:298,2,77.999997619629,8|0|2,0:2|3:2|3:2,0:0:0:0:
178,384,194112,5,2,3:2:0:0:
178,384,194268,2,0,B|211:351|211:351|184:240,1,155.999995239258,0|0,3:2|3:2,0:0:0:0:
106,179,194737,1,8,0:2:0:0:
44,257,194894,2,0,P|99:279|189:238,1,155.999995239258,0|0,3:2|3:2,0:0:0:0:
282,205,195361,5,0,3:2:0:0:
282,205,195517,2,0,B|249:172|249:172|276:61,1,155.999995239258,0|0,3:2|3:2,0:0:0:0:
354,0,195986,1,8,0:2:0:0:
416,78,196143,2,0,P|361:100|271:59,1,155.999995239258,0|0,3:2|0:0,0:0:0:0:
184,36,196612,5,6,3:2:0:0:
184,36,196768,2,0,L|18:28,1,155.999995239258,0|0,3:2|3:2,0:0:0:0:
161,129,197237,5,8,0:2:0:0:
161,129,197393,2,0,L|-5:121,1,155.999995239258,0|2,3:2|0:0,0:0:0:0:
138,222,197862,5,10,0:2:0:0:
138,222,198018,1,2,3:2:0:0:
77,294,198174,2,0,L|0:290,1,77.999997619629,0|2,3:2|3:2,0:0:0:0:
133,372,198487,2,0,L|210:368,1,77.999997619629,8|0,0:2|3:2,0:0:0:0:
278,289,198799,1,2,3:2:0:0:
464,370,199112,5,6,3:2:0:0:
464,370,199268,2,0,L|474:205,1,155.999995239258,2|0,3:2|3:2,0:0:0:0:
424,135,199737,1,8,0:2:0:0:
424,135,199893,2,0,B|381:152|381:152|375:264,1,155.999995239258,0|0,3:2|3:2,0:0:0:0:
278,289,200362,5,2,3:2:0:0:
278,289,200518,2,0,L|288:124,1,155.999995239258,0|2,3:2|3:2,0:0:0:0:
238,54,200987,1,8,0:2:0:0:
238,54,201143,2,0,B|195:71|195:71|189:183,1,155.999995239258,0|0,3:2|0:0,0:0:0:0:
160,276,201612,5,6,3:2:0:0:
160,276,201768,2,0,L|-5:266,1,155.999995239258,0|0,3:2|3:2,0:0:0:0:
189,181,202237,5,8,0:2:0:0:
189,181,202393,2,0,L|24:171,1,155.999995239258,0|0,3:2|0:0,0:0:0:0:
218,86,202862,5,2,3:2:0:0:
218,86,203018,1,2,3:2:0:0:
306,41,203174,2,0,L|383:45,1,77.999997619629,8|2,0:2|3:2,0:0:0:0:
444,141,203487,2,0,L|366:136,1,77.999997619629,0|0,3:2|3:2,0:0:0:0:
270,196,203799,1,10,0:2:0:0:
415,350,204112,5,6,3:2:0:0:
415,350,204268,2,0,B|375:339|375:339|362:217,1,155.999995239258,0|0,3:2|3:2,0:0:0:0:
270,196,204737,1,8,0:2:0:0:
270,196,204893,2,0,L|288:358,1,155.999995239258,0|0,3:2|3:2,0:0:0:0:
188,317,205362,5,0,3:2:0:0:
188,317,205518,2,0,B|148:306|148:306|135:184,1,155.999995239258,0|0,3:2|3:2,0:0:0:0:
43,163,205987,1,8,0:2:0:0:
43,163,206143,2,0,L|61:325,1,155.999995239258,0|0,3:2|0:0,0:0:0:0:
188,317,206612,5,6,3:2:0:0:
188,317,206768,2,0,L|170:155,1,155.999995239258,0|0,3:2|3:2,0:0:0:0:
282,291,207237,5,8,0:2:0:0:
282,291,207393,2,0,L|264:129,1,155.999995239258,0|2,3:2|3:2,0:0:0:0:
262,108,207783,1,0,3:2:0:0:
262,108,207862,5,10,0:2:0:0:
344,50,208018,2,0,B|383:36|422:63|400:76|435:108|485:97,1,155.999995239258,0|0,3:2|3:2,0:0:0:0:
447,194,208487,2,0,L|361:188,1,77.999997619629,8|0,0:2|3:2,0:0:0:0:
262,108,208799,2,0,L|134:99,1,116.999996429443,2|6,3:2|0:2,0:0:0:0:
115,97,209112,1,6,0:2:0:0:
256,192,209190,12,0,229737,0:0:0:0:
