osu file format v14

[General]
AudioFilename: audio.mp3
AudioLeadIn: 0
PreviewTime: 51249
Countdown: 0
SampleSet: Soft
StackLeniency: 0.7
Mode: 0
LetterboxInBreaks: 0
WidescreenStoryboard: 0

[Editor]
DistanceSpacing: 1.1
BeatDivisor: 4
GridSize: 4
TimelineZoom: 1.7

[Metadata]
Title:Clock Strikes
TitleUnicode:Clock Strikes
Artist:ONE OK ROCK
ArtistUnicode:ONE OK ROCK
Creator:Nevo
Version:Eternal
Source:
Tags:japanese rock addy2607 sajinn narrative maiev flowziee jinsei kakete x boku wa jrock j-rock 人生×僕
BeatmapID:2676109
BeatmapSetID:1289103

[Difficulty]
HPDrainRate:6
CircleSize:4
OverallDifficulty:9
ApproachRate:9.3
SliderMultiplier:1.7
SliderTickRate:1

[Events]
//Background and Video events
0,0,"47069998_p0.jpg",0,0
//Break Periods
//Storyboard Layer 0 (Background)
//Storyboard Layer 1 (Fail)
//Storyboard Layer 2 (Pass)
//Storyboard Layer 3 (Foreground)
//Storyboard Layer 4 (Overlay)
//Storyboard Sound Samples

[TimingPoints]
6612,312.5,4,2,1,40,1,0
6612,-181.818181818181,4,2,1,40,0,0
16612,-181.818181818181,4,2,1,70,0,0
26612,-133.333333333333,4,2,1,80,0,0
36612,-111.111111111111,4,2,1,80,0,0
46612,-249.999999999999,4,2,1,60,0,0
51612,-83.3333333333332,4,2,1,90,0,1
71612,-100,4,2,1,60,0,0
81612,-100,4,2,1,70,0,0
96612,-83.3333333333333,4,2,1,90,0,1
116612,-83.3333333333333,4,2,1,40,0,0
126612,-222.222222222221,4,2,1,60,0,0
136612,-153.846153846153,4,2,1,70,0,0
151612,-133.333333333333,4,2,1,70,0,0
164112,-117.647058823529,4,2,1,80,0,0
165205,-100,4,2,1,80,0,0
169112,-80,4,2,1,90,0,1
189112,-100,4,2,1,70,0,0
209190,-100,4,2,1,5,0,0

[Colours]
Combo1 : 0,78,155
Combo2 : 192,192,192
Combo3 : 255,94,94

[HitObjects]
127,321,6612,5,2,0:0:0:0:
60,261,6768,2,0,P|71:302|118:335,1,93.5000028533937,2|2,0:0|0:0,0:0:0:0:
55,178,7237,2,0,P|33:214|43:271,1,93.5000028533937,2|2,0:0|0:0,0:0:0:0:
110,115,7705,2,0,P|69:126|36:173,1,93.5000028533937,2|2,0:0|0:0,0:0:0:0:
193,109,8174,2,0,P|156:87|99:97,1,93.5000028533937,2|2,0:0|0:0,0:0:0:0:
385,321,9112,5,2,0:0:0:0:
452,261,9268,2,0,P|441:302|394:335,1,93.5000028533937,2|2,0:0|0:0,0:0:0:0:
457,178,9737,2,0,P|478:214|468:271,1,93.5000028533937,2|2,0:0|0:0,0:0:0:0:
402,115,10205,2,0,P|443:126|476:173,1,93.5000028533937,2|2,0:0|0:0,0:0:0:0:
319,109,10674,2,0,P|355:87|412:97,1,93.5000028533937,2|2,0:0|0:0,0:0:0:0:
255,317,11612,5,2,0:0:0:0:
232,200,11768,2,0,L|257:304,1,93.5000028533937,2|2,0:0|0:0,0:0:0:0:
296,139,12237,2,0,L|271:243,1,93.5000028533937,2|2,0:0|0:0,0:0:0:0:
232,78,12705,2,0,L|257:182,1,93.5000028533937,2|2,0:0|0:0,0:0:0:0:
296,17,13174,2,0,L|271:121,1,93.5000028533937,2|2,0:0|0:0,0:0:0:0:
150,295,14112,5,2,0:0:0:0:
62,342,14268,2,0,P|113:323|168:317,1,93.5000028533937,2|2,0:0|0:0,0:0:0:0:
450,342,14737,2,0,P|399:323|344:317,1,93.5000028533937,2|2,0:0|0:0,0:0:0:0:
132,203,15205,2,0,L|152:305,1,93.5000028533936,2|2,0:0|0:0,0:0:0:0:
380,203,15674,2,0,L|360:305,1,93.5000028533936,2|2,0:0|0:0,0:0:0:0:
44,205,16612,5,2,3:2:0:0:
350,306,16768,1,0,3:2:0:0:
155,343,16924,2,0,L|149:321,1,23.3750007133484,8|0,0:0|0:0,0:0:0:0:
285,109,17237,5,2,0:0:0:0:
258,189,17393,1,0,0:0:0:0:
235,274,17549,1,0,0:0:0:0:
122,221,17705,6,0,L|176:211,1,46.7500014266968,2|0,0:0|0:0,0:0:0:0:
39,201,18018,2,0,L|70:155,1,46.7500014266968,2|0,0:0|0:0,0:0:0:0:
130,266,18330,2,0,L|120:211,1,46.7500014266968,2|0,0:0|0:0,0:0:0:0:
139,373,18643,2,0,L|52:338,1,93.5000028533936,2|0,0:0|0:0,0:0:0:0:
367,359,19112,5,2,3:2:0:0:
130,266,19268,1,0,3:2:0:0:
324,228,19424,2,0,L|330:250,1,23.3750007133484,10|0,0:0|0:0,0:0:0:0:
354,145,19737,2,0,L|341:251,1,93.5000028533936,2|2,0:0|0:0,0:0:0:0:
232,271,20205,1,2,0:0:0:0:
248,70,20362,6,0,L|255:130,1,46.7500014266968,2|0,0:0|0:0,0:0:0:0:
439,37,20674,2,0,L|433:83,1,46.7500014266968,2|0,0:0|0:0,0:0:0:0:
267,89,20987,2,0,L|274:149,1,46.7500014266968,2|0,0:0|0:0,0:0:0:0:
419,49,21299,2,0,L|413:95,1,46.7500014266968,2|0,0:0|0:0,0:0:0:0:
154,75,21612,5,0,3:2:0:0:
413,188,21768,1,0,3:2:0:0:
272,285,21924,2,0,L|261:241,1,23.3750007133484,8|0,0:0|0:0,0:0:0:0:
242,191,22080,2,0,L|217:295,1,93.5000028533936,2|0,0:0|0:0,0:0:0:0:
150,383,22549,1,2,0:0:0:0:
21,215,22705,6,0,P|1:180|-1:128,1,93.5000028533936,2|0,0:0|0:0,0:0:0:0:
65,53,23174,1,2,0:0:0:0:
118,194,23330,2,0,L|143:298,1,93.5000028533936,2|0,0:0|0:0,0:0:0:0:
231,338,23799,1,2,0:0:0:0:
231,338,23955,1,2,0:0:0:0:
396,157,24112,5,0,3:2:0:0:
347,383,24268,1,0,3:2:0:0:
253,222,24424,2,0,L|297:231,1,23.3750007133484,10|0,0:0|0:0,0:0:0:0:
408,321,24737,2,0,P|350:292|305:294,1,93.5000028533936,2|2,0:0|0:0,0:0:0:0:
179,379,25205,6,0,P|82:312|135:207,1,257.125007846832,2|0,0:0|0:0,0:0:0:0:
170,292,26143,1,0,3:2:0:0:
113,297,26221,1,0,3:2:0:0:
64,271,26299,1,8,0:0:0:0:
38,221,26377,1,8,0:0:0:0:
44,165,26455,1,8,0:0:0:0:
83,124,26533,1,8,0:0:0:0:
140,113,26612,6,0,L|133:205,1,63.7500024318696,6|0,3:2|3:2,0:0:0:0:
97,35,26924,1,8,0:0:0:0:
221,150,27080,2,0,P|263:157|340:116,1,127.500004863739,2|0,0:0|3:2,0:0:0:0:
394,15,27549,1,2,0:3:0:0:
511,221,27705,6,0,P|464:174|380:187,1,127.500004863739,10|0,0:0|3:2,0:0:0:0:
323,281,28174,1,10,0:0:0:0:
433,258,28330,2,0,L|446:387,1,127.500004863739,2|0,0:0|3:2,0:0:0:0:
219,294,28799,1,2,0:3:0:0:
221,278,28877,1,2,0:3:0:0:
224,262,28955,1,2,0:3:0:0:
227,246,29033,1,2,0:3:0:0:
230,231,29111,5,2,3:2:0:0:
333,307,29268,1,0,3:2:0:0:
236,384,29424,1,10,0:0:0:0:
111,287,29580,2,0,P|62:247|-1:245,1,127.500004863739,2|0,0:0|3:2,0:0:0:0:
30,331,30049,1,2,0:3:0:0:
85,204,30205,6,0,P|97:170|91:114,1,63.7500024318696,2|2,3:2|0:3,0:0:0:0:
60,53,30518,1,0,3:2:0:0:
171,87,30674,2,0,L|242:81,1,63.7500024318696,8|0,0:0|0:0,0:0:0:0:
353,17,30987,2,0,L|282:11,1,63.7500024318696,0|0,3:2|3:2,0:0:0:0:
199,175,31299,1,8,0:0:0:0:
200,206,31377,1,8,0:0:0:0:
212,235,31455,1,8,0:0:0:0:
234,259,31533,1,8,0:0:0:0:
262,274,31612,6,0,B|309:247|364:256|364:256|356:304,1,127.500004863739,2|8,3:2|0:0,0:0:0:0:
507,363,32080,2,0,B|460:335|440:283|440:283|485:266,1,127.500004863739,2|0,0:0|3:2,0:0:0:0:
462,106,32549,1,2,0:3:0:0:
462,106,32705,2,0,B|461:160|426:203|426:203|389:172,1,127.500004863739,10|0,0:0|3:2,0:0:0:0:
311,106,33174,1,10,0:0:0:0:
177,234,33330,2,0,B|178:288|213:331|213:331|250:300,1,127.500004863739,2|0,0:0|3:2,0:0:0:0:
238,162,33799,1,2,0:3:0:0:
224,153,33877,1,2,0:3:0:0:
209,147,33955,1,2,0:3:0:0:
194,144,34033,1,2,0:3:0:0:
179,141,34112,6,0,L|85:132,1,63.7500024318696,2|0,3:2|3:2,0:0:0:0:
241,48,34424,1,10,0:0:0:0:
241,48,34580,2,0,L|147:57,1,63.7500024318696,0|2,0:0|3:2,0:0:0:0:
311,106,34893,1,0,3:2:0:0:
330,20,35049,1,2,0:3:0:0:
385,161,35205,2,0,P|384:218|328:284,1,127.500004863739,2|0,3:2|3:2,0:0:0:0:
399,347,35674,2,0,P|367:352|337:363,1,63.7500024318696,10|2,0:0|0:3,0:0:0:0:
197,295,35987,2,0,P|228:300|258:311,1,63.7500024318696,0|2,3:2|3:2,0:0:0:0:
128,365,36299,1,10,0:0:0:0:
104,334,36377,1,8,0:0:0:0:
95,298,36455,1,10,0:0:0:0:
101,260,36533,1,8,0:0:0:0:
121,228,36612,6,0,L|129:137,1,76.4999976654053,2|2,3:2|3:2,0:0:0:0:
197,295,36924,1,10,0:0:0:0:
31,197,37080,1,2,0:0:0:0:
200,317,37237,1,2,3:2:0:0:
240,140,37393,1,2,3:2:0:0:
121,228,37549,1,10,0:0:0:0:
309,327,37705,6,0,L|301:235,1,76.4999976654053,2|0,3:2|0:3,0:0:0:0:
274,55,38018,1,2,3:2:0:0:
390,175,38174,1,10,0:0:0:0:
233,216,38330,2,0,L|241:124,1,76.4999976654053,2|0,0:0|3:2,0:0:0:0:
302,250,38643,1,0,3:2:0:0:
151,212,38799,1,10,0:0:0:0:
210,307,38955,1,2,0:0:0:0:
140,113,39112,5,2,3:2:0:0:
83,322,39268,1,2,3:2:0:0:
233,216,39424,1,10,0:0:0:0:
14,130,39580,1,0,0:0:0:0:
151,212,39737,1,2,3:2:0:0:
275,61,39893,1,2,3:2:0:0:
140,113,40049,1,10,0:0:0:0:
354,139,40205,1,2,3:2:0:0:
186,23,40362,5,2,0:3:0:0:
262,262,40518,1,2,3:2:0:0:
223,149,40674,1,10,0:0:0:0:
167,308,40830,2,0,L|176:387,1,76.4999976654053,2|0,0:0|3:2,0:0:0:0:
350,287,41143,1,2,3:2:0:0:
177,228,41299,1,10,0:0:0:0:
380,280,41455,1,2,3:2:0:0:
325,112,41612,6,0,L|320:197,1,76.4999976654053,2|2,3:2|3:2,0:0:0:0:
413,49,41924,1,10,0:0:0:0:
223,149,42080,1,0,0:0:0:0:
435,229,42237,1,2,3:2:0:0:
316,94,42393,1,2,3:2:0:0:
292,292,42549,1,10,0:0:0:0:
339,198,42705,1,2,3:2:0:0:
371,383,42862,6,0,L|378:303,1,76.4999976654053,2|0,0:0|3:2,0:0:0:0:
304,84,43174,1,10,0:0:0:0:
448,244,43330,2,0,L|441:164,1,76.4999976654053,2|0,0:2|3:2,0:0:0:0:
424,31,43643,1,0,3:2:0:0:
339,198,43799,1,10,0:0:0:0:
183,89,43955,1,2,0:0:0:0:
419,132,44112,6,0,P|467:117|493:101,1,76.4999976654053,2|0,3:2|3:2,0:0:0:0:
304,84,44424,1,10,0:0:0:0:
251,275,44580,2,0,P|203:260|177:244,1,76.4999976654053,2|2,0:0|3:2,0:0:0:0:
339,198,44893,1,8,0:0:0:0:
387,290,45049,2,0,L|377:378,1,76.4999976654053,2|0,3:2|0:0,0:0:0:0:
208,169,45362,5,2,3:2:0:0:
237,360,45518,1,0,3:2:0:0:
128,294,45674,1,8,0:0:0:0:
73,377,45830,1,2,0:0:0:0:
271,256,45987,5,8,0:0:0:0:
55,192,46143,1,0,3:2:0:0:
294,111,46299,1,8,0:0:0:0:
43,209,46455,1,0,3:2:0:0:
128,294,46612,6,0,P|130:316|130:338,3,34,2|2|0|2,0:3|0:0|0:0|0:0,0:0:0:0:
210,384,47237,2,0,P|211:341|219:277,1,102,2|2,0:0|0:0,0:0:0:0:
338,371,47862,2,0,P|335:337|312:227,1,136,2|0,0:0|0:0,0:0:0:0:
210,85,48799,2,0,L|166:74,1,34,2|2,0:0|0:0,0:0:0:0:
216,98,49112,6,0,L|322:83,1,102,2|0,0:0|0:0,0:0:0:0:
370,23,49737,2,0,P|388:43|399:91,1,68
213,272,50362,1,0,0:0:0:0:
140,166,50518,5,0,3:2:0:0:
331,256,50674,1,0,3:2:0:0:
64,327,50830,1,0,3:2:0:0:
313,93,50987,5,8,0:0:0:0:
264,353,51143,1,0,3:2:0:0:
253,373,51612,6,0,P|244:315|225:261,1,101.999996887207,6|0,3:2|3:2,0:0:0:0:
54,180,51924,1,2,0:3:0:0:
152,321,52080,1,0,3:2:0:0:
182,97,52237,2,0,L|165:214,1,101.999996887207,8|0,0:2|3:2,0:0:0:0:
425,206,52549,2,0,B|377:163|307:170|307:170|339:207,1,152.999995330811,2|0,0:2|0:0,0:0:0:0:
395,299,52862,6,0,P|464:296|513:254,1,101.999996887207,2|0,3:2|3:2,0:0:0:0:
233,54,53174,1,2,2:3:0:0:
307,276,53330,1,0,3:2:0:0:
364,14,53487,1,10,0:2:0:0:
200,170,53643,1,0,3:2:0:0:
438,104,53799,2,0,L|422:225,1,101.999996887207,2|0,0:2|0:0,0:0:0:0:
149,377,54112,6,0,P|131:314|145:268,1,101.999996887207,2|0,3:2|3:2,0:0:0:0:
302,138,54424,1,2,0:3:0:0:
420,305,54580,1,0,3:2:0:0:
200,170,54737,2,0,B|159:150|159:150|94:167,1,101.999996887207,8|0,0:2|3:2,0:0:0:0:
230,324,55049,2,0,L|340:310,1,101.999996887207,2|0,0:2|0:0,0:0:0:0:
231,72,55362,5,2,3:2:0:0:
139,279,55518,1,0,3:2:0:0:
356,137,55674,1,2,3:3:0:0:
104,164,55830,1,0,3:2:0:0:
353,284,55987,1,10,0:2:0:0:
361,31,56143,1,0,3:2:0:0:
248,349,56299,2,0,P|232:280|273:196,1,152.999995330811,2|0,3:2|0:0,0:0:0:0:
356,137,56612,5,6,3:2:0:0:
129,320,56768,1,0,3:2:0:0:
353,284,56924,1,2,3:3:0:0:
85,185,57080,1,0,3:2:0:0:
367,154,57237,2,0,L|266:166,1,101.999996887207,8|0,0:2|3:0,0:0:0:0:
191,377,57549,2,0,P|241:354|271:313,1,101.999996887207,2|0,0:0|0:0,0:0:0:0:
147,82,57862,5,2,3:2:0:0:
175,278,58018,1,0,3:2:0:0:
0,217,58174,1,2,3:3:0:0:
249,176,58330,1,0,3:2:0:0:
67,350,58487,1,10,0:2:0:0:
133,166,58643,1,0,3:2:0:0:
333,283,58799,2,0,L|449:264,1,101.999996887207,2|0,0:3|0:0,0:0:0:0:
289,78,59112,5,6,3:2:0:0:
226,261,59268,1,0,3:2:0:0:
185,60,59424,1,2,3:3:0:0:
333,283,59580,1,0,3:2:0:0:
418,120,59737,2,0,P|435:57|424:6,1,101.999996887207,8|0,0:2|3:2,0:0:0:0:
242,168,60049,2,0,B|281:186|281:186|355:166,1,101.999996887207,2|0,0:3|0:0,0:0:0:0:
73,37,60362,5,10,0:2:0:0:
145,270,60518,1,2,3:2:0:0:
289,78,60674,1,2,3:2:0:0:
13,283,60830,5,2,3:2:0:0:
169,109,60987,1,10,0:2:0:0:
242,341,61143,1,2,3:2:0:0:
52,153,61299,2,0,P|102:215|207:224,1,152.999995330811,10|0,0:3|0:0,0:0:0:0:
278,131,61612,6,0,L|261:249,1,101.999996887207,6|0,3:2|3:2,0:0:0:0:
368,355,61924,1,0,0:0:0:0:
458,142,62080,1,0,3:2:0:0:
501,260,62237,2,0,P|451:267|397:244,1,101.999996887207,8|0,0:2|3:2,0:0:0:0:
247,37,62549,2,0,B|284:28|284:28|362:60,1,101.999996887207,2|0,0:2|0:0,0:0:0:0:
272,329,62862,6,0,L|243:190,1,101.999996887207,2|0,3:2|3:2,0:0:0:0:
368,355,63174,1,2,2:3:0:0:
145,184,63330,1,0,3:2:0:0:
380,146,63487,2,0,L|351:285,1,101.999996887207,10|0,0:2|3:2,0:0:0:0:
248,107,63799,1,2,0:2:0:0:
492,222,63955,1,0,3:0:0:0:
196,294,64112,6,0,B|132:310|61:265|61:265|73:310|98:336,1,203.999993774414,2|2,3:2|0:3,0:0:0:0:
307,323,64580,1,0,3:2:0:0:
127,83,64737,2,0,L|149:209,1,101.999996887207,8|0,0:2|3:2,0:0:0:0:
384,378,65049,2,0,P|404:319|387:272,1,101.999996887207,2|0,0:2|0:0,0:0:0:0:
235,197,65362,6,0,B|279:225|279:225|350:216,1,101.999996887207,2|0,3:2|3:2,0:0:0:0:
185,34,65674,1,10,0:0:0:0:
245,306,65830,1,0,3:2:0:0:
444,81,65987,1,10,0:2:0:0:
144,183,66143,1,0,3:2:0:0:
377,341,66299,2,0,P|427:342|489:244,1,152.999995330811,10|0,0:2|0:0,0:0:0:0:
379,147,66612,6,0,L|399:280,1,101.999996887207,6|0,3:2|3:2,0:0:0:0:
444,81,66924,1,2,0:3:0:0:
299,221,67080,1,0,3:2:0:0:
241,54,67237,2,0,L|221:187,1,101.999996887207,8|0,0:2|3:0,0:0:0:0:
151,384,67549,2,0,P|111:322|116:289,1,101.999996887207,2|0,0:0|0:0,0:0:0:0:
347,307,67862,6,0,B|319:322|319:322|224:307,1,101.999996887207,2|0,3:2|3:2,0:0:0:0:
441,200,68174,1,2,0:3:0:0:
456,365,68330,1,0,3:2:0:0:
289,219,68487,2,0,L|272:113,1,101.999996887207,10|0,0:2|3:2,0:0:0:0:
500,131,68799,1,2,0:3:0:0:
429,284,68955,1,0,0:0:0:0:
348,60,69112,6,0,P|291:35|237:40,1,101.999996887207,6|0,3:2|3:2,0:0:0:0:
84,206,69424,2,0,L|211:183,1,101.999996887207,2|0,0:3|3:2,0:0:0:0:
337,352,69737,1,8,0:2:0:0:
410,186,69893,1,0,3:2:0:0:
221,288,70049,1,2,0:3:0:0:
161,109,70205,1,0,3:0:0:0:
397,280,70362,5,14,0:2:0:0:
82,303,70518,1,2,3:2:0:0:
369,85,70674,1,2,3:2:0:0:
337,352,70830,1,10,0:2:0:0:
161,109,70987,1,6,3:2:0:0:
485,229,71143,1,2,3:2:0:0:
194,309,71299,1,10,0:2:0:0:
377,180,71455,2,0,L|320:167,1,50.9999984436036,8|8,0:0|0:0,0:0:0:0:
74,54,71612,6,0,P|55:104|61:149,1,85,6|0,3:2|3:2,0:0:0:0:
170,193,71924,2,0,L|159:94,1,85,8|0,0:2|0:0,0:0:0:0:
71,242,72237,2,0,P|154:239|227:282,1,170,2|10,0:2|0:2,0:0:0:0:
119,359,72705,2,0,P|191:316|274:319,1,170,2|2,0:2|0:2,0:0:0:0:
370,371,73174,1,8,0:2:0:0:
474,262,73330,6,0,P|430:273|315:201,1,170,2|0,1:2|1:2,0:0:0:0:
449,104,73799,2,0,P|437:145|416:182,1,85,10|2,0:2|0:2,0:0:0:0:
243,132,74112,5,0,3:2:0:0:
337,99,74268,1,0,3:2:0:0:
228,150,74424,2,0,L|118:135,1,85,10|0,0:2|0:0,0:0:0:0:
76,249,74737,2,0,L|186:234,1,85,2|2,0:2|0:2,0:0:0:0:
11,180,75049,1,10,0:2:0:0:
1,381,75205,6,0,P|39:352|166:350,1,170,2|0,0:2|1:2,0:0:0:0:
254,340,75674,2,0,P|244:299|256:241,1,85,8|2,0:2|0:2,0:0:0:0:
383,372,75987,2,0,P|393:331|381:273,1,85,0|0,1:2|1:2,0:0:0:0:
351,202,76299,2,0,L|448:211,1,85,10|2,0:2|0:2,0:0:0:0:
288,123,76612,5,0,3:2:0:0:
456,227,76768,1,0,3:2:0:0:
387,289,76924,1,10,0:2:0:0:
371,119,77080,2,0,L|388:301,1,170,2|0,1:2|1:2,0:0:0:0:
286,212,77549,1,10,0:2:0:0:
464,358,77705,6,0,P|405:324|285:333,1,170,2|0,0:2|1:2,0:0:0:0:
218,377,78174,1,10,0:2:0:0:
210,272,78330,2,0,P|135:310|51:305,1,170,2|0,1:2|1:2,0:0:0:0:
97,134,78799,2,0,P|117:191|114:220,1,85,10|0,0:2|0:0,0:0:0:0:
34,56,79112,5,0,3:2:0:0:
182,86,79268,1,0,3:2:0:0:
12,197,79424,2,0,L|35:305,1,85,10|0,0:2|0:0,0:0:0:0:
192,355,79737,2,0,L|215:247,1,85
153,178,80049,1,10,0:2:0:0:
301,335,80205,6,0,P|384:343|450:259,1,170,2|0,0:2|1:0,0:0:0:0:
349,171,80674,2,0,P|342:237|359:273,1,85,10|0,0:2|0:0,0:0:0:0:
434,120,80987,2,0,L|419:27,1,85,0|0,1:0|1:0,0:0:0:0:
257,141,81299,1,10,0:2:0:0:
349,171,81455,1,0,3:0:0:0:
127,223,81612,5,6,3:2:0:0:
329,86,81768,1,2,3:2:0:0:
74,50,81924,1,10,0:0:0:0:
257,141,82080,1,2,0:0:0:0:
197,48,82237,1,2,3:2:0:0:
127,223,82393,1,2,3:2:0:0:
118,123,82549,1,10,0:0:0:0:
223,228,82705,1,2,3:2:0:0:
97,347,82862,5,0,0:3:0:0:
127,223,83018,1,2,3:2:0:0:
203,327,83174,1,10,0:0:0:0:
34,199,83330,2,0,P|30:256|56:300,1,85,2|0,0:0|3:2,0:0:0:0:
223,129,83643,1,0,3:2:0:0:
118,123,83799,1,10,0:0:0:0:
223,228,83955,1,2,0:0:0:0:
285,47,84112,5,2,3:2:0:0:
127,223,84268,1,2,3:2:0:0:
278,302,84424,2,0,L|377:282,1,85,10|0,0:0|0:0,0:0:0:0:
512,214,84737,2,0,L|413:194,1,85,2|2,3:2|3:2,0:0:0:0:
301,205,85049,1,10,0:0:0:0:
414,359,85205,6,0,P|451:313|456:274,1,85,2|2,3:2|0:3,0:0:0:0:
379,119,85518,1,2,3:2:0:0:
361,285,85674,1,10,0:0:0:0:
253,116,85830,2,0,P|216:162|211:201,1,85,2|0,0:0|3:2,0:0:0:0:
320,44,86143,1,2,3:2:0:0:
215,31,86299,1,10,0:0:0:0:
379,119,86455,1,2,3:2:0:0:
126,197,86612,6,0,L|229:183,1,85,2|2,3:2|3:2,0:0:0:0:
124,363,86924,2,0,L|21:349,1,85,10|0,0:0|0:0,0:0:0:0:
221,267,87237,1,2,3:2:0:0:
239,381,87393,1,2,3:2:0:0:
128,278,87549,1,10,0:0:0:0:
227,162,87705,1,2,3:2:0:0:
87,48,87862,5,2,0:0:0:0:
134,177,88018,1,0,3:2:0:0:
196,64,88174,1,10,0:0:0:0:
38,152,88330,2,0,L|27:258,1,85,2|0,0:2|3:2,0:0:0:0:
17,353,88643,1,0,3:2:0:0:
221,267,88799,2,0,P|268:248|323:248,1,85,10|2,0:0|0:0,0:0:0:0:
383,369,89112,6,0,L|279:353,1,85,2|0,3:2|3:2,0:0:0:0:
221,267,89424,1,10,0:0:0:0:
311,147,89580,2,0,P|388:208|381:289,1,170,2|0,0:0|1:0,0:0:0:0:
212,167,90049,1,10,0:2:0:0:
264,52,90205,6,0,P|314:41|369:47,1,85,0|0,1:0|1:0,0:0:0:0:
166,103,90518,1,10,0:3:0:0:
83,45,90674,1,8,0:3:0:0:
14,203,90830,1,10,0:3:0:0:
93,156,90987,1,10,0:3:0:0:
167,304,91143,1,10,0:3:0:0:
86,249,91299,2,0,L|68:332,1,85,8|0,0:0|1:0,0:0:0:0:
332,178,91612,6,0,P|347:243|311:353,1,170,2|0,3:2|0:0,0:0:0:0:
387,106,92080,2,0,P|418:164|429:276,1,170,2|0,3:2|0:0,0:0:0:0:
440,39,92549,2,0,P|486:107|516:220,1,170,2|2,3:2|0:0,0:0:0:0:
319,340,93174,5,0,3:0:0:0:
253,136,93487,1,8,0:0:0:0:
332,178,93643,1,0,3:0:0:0:
23,37,94112,6,0,P|16:112|40:239,1,170,2|0,3:2|0:0,0:0:0:0:
109,73,94580,2,0,P|109:168|137:239,1,170,2|0,3:2|0:0,0:0:0:0:
190,117,95049,2,0,P|201:170|251:245,1,127.5,2|0,3:2|0:0,0:0:0:0:
302,293,95362,5,0,3:0:0:0:
331,137,95518,1,0,3:0:0:0:
185,300,95674,1,0,3:0:0:0:
395,251,95830,1,0,3:0:0:0:
104,135,95987,5,8,0:0:0:0:
243,363,96143,1,8,0:0:0:0:
356,56,96299,1,8,0:0:0:0:
302,293,96455,1,8,0:0:0:0:
172,62,96612,6,0,P|127:37|77:32,1,101.999996887207,6|0,3:2|3:2,0:0:0:0:
234,153,96924,1,2,0:3:0:0:
0,16,97080,1,0,3:2:0:0:
56,247,97237,2,0,L|177:227,1,101.999996887207,8|0,0:2|3:2,0:0:0:0:
413,370,97549,2,0,L|292:350,1,101.999996887207,2|0,0:2|0:0,0:0:0:0:
512,235,97862,6,0,B|524:290|524:290|360:261,1,203.999993774414,2|2,3:2|2:3,0:0:0:0:
271,139,98330,1,0,3:2:0:0:
204,327,98487,2,0,P|262:277|277:239,1,101.999996887207,10|0,0:2|3:2,0:0:0:0:
67,51,98799,2,0,L|86:157,1,101.999996887207,2|0,0:2|0:0,0:0:0:0:
396,256,99112,1,2,3:2:0:0:
166,233,99268,1,0,3:2:0:0:
408,148,99424,1,2,0:3:0:0:
143,247,99580,1,0,3:2:0:0:
472,318,99737,2,0,B|494:284|494:284|480:194,1,101.999996887207,8|0,0:2|3:2,0:0:0:0:
324,89,100049,2,0,P|305:166|321:202,1,101.999996887207,2|0,0:2|0:0,0:0:0:0:
498,100,100362,6,0,L|475:-20,1,101.999996887207,2|0,3:2|3:2,0:0:0:0:
178,37,100674,2,0,L|158:137,1,101.999996887207,2|0,0:3|3:2,0:0:0:0:
122,357,100987,1,10,0:2:0:0:
34,117,101143,1,0,3:2:0:0:
248,287,101299,1,2,3:2:0:0:
73,236,101455,1,0,3:0:0:0:
367,229,101612,6,0,L|391:351,1,101.999996887207,6|0,3:2|3:2,0:0:0:0:
275,185,101924,1,2,0:3:0:0:
478,233,102080,1,0,3:2:0:0:
422,32,102237,2,0,L|403:133,1,101.999996887207,8|0,0:2|3:0,0:0:0:0:
248,287,102549,2,0,P|202:262|176:216,1,101.999996887207,2|0,0:0|0:0,0:0:0:0:
213,77,102862,6,0,P|168:120|8:101,1,203.999993774414,2|2,3:2|0:3,0:0:0:0:
270,0,103330,1,0,3:2:0:0:
367,229,103487,2,0,P|430:242|470:228,1,101.999996887207,10|0,0:2|3:2,0:0:0:0:
256,185,103799,2,0,L|246:300,1,101.999996887207,2|0,0:3|0:0,0:0:0:0:
416,141,104112,5,6,3:2:0:0:
213,77,104268,1,0,3:2:0:0:
409,27,104424,2,0,P|457:10|531:14,1,101.999996887207,2|0,0:3|3:2,0:0:0:0:
333,137,104737,2,0,L|315:27,1,101.999996887207,8|0,0:2|3:2,0:0:0:0:
510,184,105049,2,0,L|500:348,1,152.999995330811,2|0,0:3|0:0,0:0:0:0:
496,365,105362,5,10,0:2:0:0:
354,212,105518,1,2,3:2:0:0:
246,371,105674,1,2,3:2:0:0:
214,154,105830,5,2,3:2:0:0:
373,314,105987,1,10,0:2:0:0:
405,84,106143,1,2,3:2:0:0:
207,267,106299,2,0,B|173:291|173:291|48:275,1,152.999995330811,10|0,0:3|0:0,0:0:0:0:
18,200,106612,5,6,3:2:0:0:
308,222,106768,2,0,P|319:258|283:344,1,101.999996887207,0|0,3:2|0:0,0:0:0:0:
214,154,107080,1,0,3:2:0:0:
412,207,107237,2,0,L|531:186,1,101.999996887207,8|0,0:2|3:2,0:0:0:0:
292,30,107549,2,0,P|288:82|322:134,1,101.999996887207,2|0,0:2|0:0,0:0:0:0:
501,301,107862,6,0,P|431:259|291:268,1,203.999993774414,2|2,3:2|2:3,0:0:0:0:
171,369,108330,1,0,3:2:0:0:
30,268,108487,2,0,P|1:208|16:137,1,101.999996887207,10|0,0:2|3:2,0:0:0:0:
206,108,108799,2,0,L|191:223,1,101.999996887207,2|0,0:2|0:0,0:0:0:0:
49,40,109112,6,0,B|97:68|149:27|149:27|200:-11|264:22,1,203.999993774414,2|2,3:2|0:3,0:0:0:0:
419,122,109580,1,0,3:2:0:0:
336,193,109737,2,0,P|314:142|319:77,1,101.999996887207,8|0,0:2|3:2,0:0:0:0:
431,263,110049,2,0,L|413:371,1,101.999996887207,2|0,0:2|0:0,0:0:0:0:
218,211,110362,5,2,3:2:0:0:
419,122,110518,1,0,3:2:0:0:
168,70,110674,1,10,0:0:0:0:
350,213,110830,1,0,3:2:0:0:
71,244,110987,5,10,0:2:0:0:
269,116,111143,1,0,3:2:0:0:
244,343,111299,2,0,L|219:199,1,101.999996887207,10|0,0:2|0:0,0:0:0:0:
350,28,111612,5,6,3:2:0:0:
447,208,111768,2,0,P|381:222|327:197,1,101.999996887207,0|2,3:2|0:3,0:0:0:0:
512,128,112080,1,0,3:2:0:0:
269,116,112237,2,0,L|246:215,1,101.999996887207,8|0,0:2|3:0,0:0:0:0:
54,340,112549,2,0,P|76:294|116:264,1,101.999996887207,2|0,0:0|0:0,0:0:0:0:
305,346,112862,5,2,3:2:0:0:
85,143,113018,2,0,L|77:11,1,101.999996887207,0|2,3:2|0:3,0:0:0:0:
319,193,113330,1,0,3:2:0:0:
216,272,113487,2,0,B|170:279|170:279|103:259,1,101.999996887207,10|0,0:2|3:2,0:0:0:0:
389,105,113799,2,0,P|421:165|405:275,1,152.999995330811,2|0,0:3|0:0,0:0:0:0:
373,319,114111,5,6,3:2:0:0:
172,165,114268,2,0,P|231:143|286:140,1,101.999996887207,0|2,3:2|0:3,0:0:0:0:
484,269,114580,1,0,3:2:0:0:
248,245,114737,1,8,0:2:0:0:
384,179,114893,1,0,3:2:0:0:
264,351,115049,1,2,0:3:0:0:
172,165,115205,1,0,3:0:0:0:
378,302,115362,5,14,0:2:0:0:
453,93,115518,2,0,P|376:68|336:81,1,101.999996887207,2|2,3:2|3:2,0:0:0:0:
130,240,115830,1,2,3:2:0:0:
384,179,115987,1,14,0:2:0:0:
140,89,116143,1,2,3:2:0:0:
198,322,116299,1,10,0:2:0:0:
332,52,116455,1,8,0:0:0:0:
299,361,116612,5,6,3:2:0:0:
256,192,116690,12,0,126299,0:0:0:0:
107,77,126612,6,0,L|117:152,1,76.4999976654053,2|0,3:2|0:0,0:0:0:0:
187,33,127080,2,0,L|197:108,1,76.4999976654053,2|0,0:2|0:0,0:0:0:0:
191,200,127549,1,2,0:2:0:0:
52,281,127862,6,0,P|91:253|135:248,1,76.4999976654053,2|0,3:2|0:0,0:0:0:0:
198,326,128330,2,0,P|159:354|115:359,1,76.4999976654053,2|0,0:2|0:0,0:0:0:0:
39,371,128799,1,2,0:2:0:0:
393,247,129112,6,0,P|430:257|460:281,1,76.4999976654053,2|0,3:2|0:0,0:0:0:0:
380,359,129580,2,0,P|343:349|314:326,1,76.4999976654053,2|0,0:2|0:0,0:0:0:0:
303,233,130049,1,2,0:2:0:0:
405,77,130362,6,0,L|394:152,1,76.4999976654053,2|0,3:2|0:0,0:0:0:0:
325,33,130830,2,0,L|314:108,1,76.4999976654053,2|0,0:2|0:0,0:0:0:0:
321,200,131299,1,2,0:2:0:0:
89,134,131612,6,0,P|87:79|75:51,1,76.4999976654053,2|0,3:2|0:0,0:0:0:0:
172,209,132080,2,0,P|174:154|186:126,1,76.4999976654053,2|0,0:2|0:0,0:0:0:0:
85,234,132549,1,2,0:2:0:0:
85,234,132705,1,2,0:0:0:0:
282,372,132862,6,0,P|328:372|369:353,1,76.4999976654053,2|0,3:2|0:0,0:0:0:0:
401,245,133330,2,0,P|447:245|488:264,1,76.4999976654053,2|0,0:2|0:0,0:0:0:0:
311,280,133799,1,2,0:2:0:0:
311,280,133955,1,2,0:0:0:0:
405,81,134112,6,0,L|413:166,1,76.4999976654053,2|0,3:2|0:0,0:0:0:0:
269,99,134580,2,0,L|276:22,1,76.4999976654053,2|0,0:2|0:0,0:0:0:0:
327,172,135049,1,2,0:2:0:0:
327,172,135205,1,2,0:0:0:0:
76,217,135362,6,0,L|68:302,1,76.4999976654053,2|0,3:2|0:0,0:0:0:0:
212,235,135830,2,0,L|204:158,1,76.4999976654053,2|0,0:2|0:0,0:0:0:0:
154,308,136299,1,2,0:2:0:0:
154,308,136455,1,2,0:0:0:0:
408,347,136612,6,0,L|471:338,1,55.2499974708558,2|0,3:2|3:0,0:0:0:0:
333,277,136924,2,0,L|450:260,1,110.499994941712,8|0,0:0|3:0,0:0:0:0:
298,362,137393,2,0,L|415:345,1,110.499994941712,8|0,0:0|3:0,0:0:0:0:
182,115,137862,5,10,0:0:0:0:
104,201,138018,1,0,3:0:0:0:
272,179,138174,1,0,3:0:0:0:
199,254,138330,2,0,L|191:200,2,55.2499974708558,8|0|0,0:0|3:0|3:0,0:0:0:0:
219,355,138799,1,8,0:0:0:0:
124,318,138955,1,8,0:0:0:0:
124,318,139033,1,8,0:0:0:0:
124,318,139112,6,0,P|77:305|13:308,1,110.499994941712,2|8,3:2|0:0,0:0:0:0:
199,254,139580,1,0,3:0:0:0:
117,223,139737,1,0,3:0:0:0:
188,160,139893,2,0,L|251:143,2,55.2499974708558,8|0|0,0:0|3:0|3:0,0:0:0:0:
77,19,140362,6,0,L|186:66,1,110.499994941712,10|0,0:0|3:0,0:0:0:0:
435,19,140830,2,0,L|326:66,1,110.499994941712,8|0,0:0|3:0,0:0:0:0:
256,147,141299,2,0,L|256:187,3,27.6249987354279,8|8|8|8,0:0|0:0|0:0|0:0,0:0:0:0:
254,257,141612,5,2,3:2:0:0:
158,158,141768,1,0,3:0:0:0:
100,261,141924,2,0,L|169:252,2,55.2499974708558,8|0|0,0:0|3:0|3:0,0:0:0:0:
263,362,142393,2,0,L|194:353,2,55.2499974708558,8|0|0,0:0|3:0|3:0,0:0:0:0:
421,335,142862,5,10,0:0:0:0:
400,252,143018,1,0,3:0:0:0:
333,304,143174,1,0,3:0:0:0:
485,275,143330,5,8,0:0:0:0:
321,219,143487,1,0,3:0:0:0:
352,384,143643,1,0,3:0:0:0:
421,335,143799,5,8,0:0:0:0:
427,322,143877,1,8,0:0:0:0:
430,309,143955,1,8,0:0:0:0:
431,295,144033,1,8,0:0:0:0:
429,280,144112,6,0,L|421:208,1,55.2499974708558,2|0,3:2|3:0,0:0:0:0:
406,133,144424,1,8,0:0:0:0:
479,165,144580,1,0,3:0:0:0:
321,219,144737,1,0,3:0:0:0:
321,219,144893,2,0,L|329:147,1,55.2499974708558,8|0,0:0|3:0,0:0:0:0:
256,94,145205,1,0,3:0:0:0:
93,234,145362,6,0,P|138:236|169:226,1,55.2499974708558,10|0,0:0|3:0,0:0:0:0:
50,163,145674,1,0,3:0:0:0:
232,216,145830,2,0,P|211:176|187:154,1,55.2499974708558,8|0,0:0|3:0,0:0:0:0:
201,299,146143,1,0,3:0:0:0:
147,105,146299,1,8,0:0:0:0:
138,115,146377,1,8,0:0:0:0:
130,126,146455,1,8,0:0:0:0:
124,139,146533,1,8,0:0:0:0:
118,152,146612,6,0,L|124:209,1,55.2499974708558,2|0,3:2|3:0,0:0:0:0:
311,166,146924,1,8,0:0:0:0:
256,94,147080,1,0,3:0:0:0:
232,216,147237,1,0,3:0:0:0:
366,238,147393,1,8,0:0:0:0:
390,113,147549,1,0,3:0:0:0:
311,166,147705,1,0,3:0:0:0:
440,188,147862,6,0,L|506:179,1,55.2499974708558,10|0,0:0|3:0,0:0:0:0:
366,238,148174,1,0,3:0:0:0:
390,113,148330,2,0,L|456:104,1,55.2499974708558,8|0,0:0|3:0,0:0:0:0:
311,166,148643,1,0,3:0:0:0:
355,32,148799,1,8,0:0:0:0:
279,83,148955,1,8,0:0:0:0:
279,83,149033,1,8,0:0:0:0:
279,83,149112,6,0,L|209:75,1,55.2499974708558,2|0,3:2|3:0,0:0:0:0:
163,178,149424,2,0,L|233:170,1,55.2499974708558,8|0,0:0|3:0,0:0:0:0:
126,102,149737,1,0,3:0:0:0:
69,178,149893,1,8,0:0:0:0:
117,251,150049,1,0,3:0:0:0:
163,178,150205,1,0,3:0:0:0:
28,261,150362,5,10,0:0:0:0:
170,335,150518,1,0,3:0:0:0:
75,337,150674,1,0,3:0:0:0:
198,255,150830,2,0,L|260:245,1,55.2499974708558,8|0,0:0|3:0,0:0:0:0:
414,266,151143,1,0,3:0:0:0:
366,339,151299,1,8,0:0:0:0:
351,326,151377,1,8,0:0:0:0:
339,311,151455,1,8,0:0:0:0:
332,293,151533,1,8,0:0:0:0:
332,272,151612,6,0,L|341:188,1,63.7500024318696,2|0,3:2|3:0,0:0:0:0:
474,185,151924,2,0,L|465:101,1,63.7500024318696,8|0,0:0|3:0,0:0:0:0:
311,35,152237,1,0,3:0:0:0:
281,132,152393,1,8,0:0:0:0:
375,171,152549,1,0,3:0:0:0:
375,171,152705,1,0,3:0:0:0:
216,50,152862,5,10,0:0:0:0:
185,162,153018,1,0,3:0:0:0:
277,226,153174,1,0,3:0:0:0:
110,105,153330,5,8,0:0:0:0:
99,190,153487,1,0,3:0:0:0:
168,252,153643,1,0,3:0:0:0:
141,340,153799,2,0,L|73:321,1,63.7500024318696,8|8,0:0|0:0,0:0:0:0:
277,226,154112,6,0,P|303:268|309:298,1,63.7500024318696,2|0,3:2|3:0,0:0:0:0:
382,360,154424,2,0,L|393:290,1,63.7500024318696,8|0,0:0|3:0,0:0:0:0:
391,211,154737,1,0,3:0:0:0:
484,288,154893,2,0,L|473:218,1,63.7500024318696,8|0,0:0|3:0,0:0:0:0:
490,141,155205,1,0,3:0:0:0:
409,55,155362,6,0,L|399:117,1,63.7500024318696,10|0,0:0|3:0,0:0:0:0:
318,158,155674,1,0,3:0:0:0:
249,93,155830,2,0,P|218:102|181:99,1,63.7500024318696,8|0,0:0|3:0,0:0:0:0:
116,42,156143,1,0,3:0:0:0:
54,110,156299,1,8,0:0:0:0:
55,125,156377,1,8,0:0:0:0:
57,141,156455,1,8,0:0:0:0:
59,157,156533,1,8,0:0:0:0:
61,177,156612,5,6,3:2:0:0:
83,321,156768,1,0,3:2:0:0:
71,340,157080,5,0,3:2:0:0:
304,240,157237,1,8,0:2:0:0:
314,262,157549,5,6,3:2:0:0:
206,231,157705,1,0,3:2:0:0:
197,247,158018,5,0,3:2:0:0:
438,198,158174,1,8,0:2:0:0:
352,123,158330,1,0,3:2:0:0:
406,351,158487,2,0,P|418:313|421:283,1,63.7500024318696,0|0,3:2|3:2,0:0:0:0:
264,52,158799,1,8,0:2:0:0:
261,83,158877,1,8,0:2:0:0:
258,115,158955,1,8,0:2:0:0:
255,147,159033,1,8,0:2:0:0:
252,178,159111,5,6,3:2:0:0:
57,60,159268,1,0,3:2:0:0:
34,54,159580,5,0,3:2:0:0:
60,247,159737,1,8,0:2:0:0:
60,263,160049,5,6,3:2:0:0:
148,132,160205,1,0,3:2:0:0:
153,152,160518,5,0,3:2:0:0:
163,330,160674,1,8,0:2:0:0:
48,158,160830,1,0,3:2:0:0:
205,241,160987,2,0,P|246:231|271:214,1,63.7500024318696,0|0,3:2|3:2,0:0:0:0:
317,140,161299,1,8,0:2:0:0:
308,342,161455,1,0,3:2:0:0:
153,152,161612,5,6,3:2:0:0:
392,205,161768,1,0,3:2:0:0:
403,222,162080,5,0,3:2:0:0:
248,264,162237,1,8,0:2:0:0:
235,283,162549,5,6,3:2:0:0:
473,314,162705,1,0,3:2:0:0:
472,338,163018,5,0,3:2:0:0:
352,368,163174,1,8,0:2:0:0:
399,215,163330,1,0,3:2:0:0:
399,215,163487,2,0,L|394:284,1,63.7500024318696,0|0,3:2|3:2,0:0:0:0:
91,274,163799,1,8,0:2:0:0:
76,245,163877,1,8,0:2:0:0:
72,214,163955,1,8,0:2:0:0:
80,183,164033,1,8,0:2:0:0:
98,157,164112,6,0,L|196:146,1,72.2500013780594,6|0,3:2|3:2,0:0:0:0:
293,231,164424,2,0,L|195:220,1,72.2500013780594,0|0,0:0|3:2,0:0:0:0:
223,41,164737,2,0,P|245:85|246:118,1,72.2500013780594,8|0,0:2|0:0,0:0:0:0:
137,14,165049,1,6,3:2:0:0:
345,146,165205,6,0,L|527:123,1,170,0|0,3:2|3:2,0:0:0:0:
351,319,165674,2,0,P|341:267|351:231,1,85,8|0,0:2|3:2,0:0:0:0:
436,45,165987,1,8,0:2:0:0:
512,280,166143,2,0,L|393:269,1,85,6|8,3:2|0:2,0:0:0:0:
191,145,166455,1,8,0:2:0:0:
191,145,166533,1,8,0:2:0:0:
191,145,166612,6,0,P|248:162|274:187,1,85,6|0,3:2|3:2,0:0:0:0:
272,274,166924,1,4,3:2:0:0:
90,188,167080,1,8,0:2:0:0:
261,62,167237,1,4,3:2:0:0:
164,264,167393,1,0,3:2:0:0:
114,95,167549,2,0,L|97:4,1,85,10|0,0:2|3:2,0:0:0:0:
357,148,167862,5,0,3:2:0:0:
25,112,168018,1,0,3:2:0:0:
279,237,168174,5,0,3:2:0:0:
107,264,168330,1,0,3:2:0:0:
349,365,168487,5,14,0:2:0:0:
301,351,168591,5,14,0:2:0:0:
254,338,168695,5,14,0:2:0:0:
206,324,168799,5,14,0:2:0:0:
159,311,168903,5,14,0:2:0:0:
111,297,169007,5,14,0:2:0:0:
64,284,169112,6,0,P|45:226|52:172,1,106.25,6|0,3:2|3:2,0:0:0:0:
226,41,169424,1,2,0:3:0:0:
184,221,169580,1,0,3:2:0:0:
52,82,169737,2,0,P|108:115|185:109,1,106.25,8|0,0:2|3:2,0:0:0:0:
344,5,170049,2,0,L|337:121,1,106.25,2|0,0:2|0:0,0:0:0:0:
459,282,170362,6,0,P|429:235|282:230,1,212.5,2|2,3:2|2:3,0:0:0:0:
95,340,170830,1,0,3:2:0:0:
262,373,170987,2,0,P|313:357|361:290,1,106.25,10|0,0:2|3:2,0:0:0:0:
169,154,171299,2,0,L|178:286,1,106.25,2|0,0:2|0:0,0:0:0:0:
373,158,171612,5,2,3:2:0:0:
145,56,171768,1,0,3:2:0:0:
378,29,171924,1,2,0:3:0:0:
262,133,172080,1,0,3:2:0:0:
477,174,172237,1,8,0:2:0:0:
230,274,172393,1,0,3:2:0:0:
398,368,172549,2,0,P|419:302|406:258,1,106.25,2|0,0:2|0:0,0:0:0:0:
42,360,172862,6,0,L|167:346,1,106.25,2|0,3:2|3:2,0:0:0:0:
367,144,173174,2,0,L|242:130,1,106.25,2|0,0:3|3:2,0:0:0:0:
114,27,173487,1,10,0:2:0:0:
12,256,173643,1,0,3:2:0:0:
164,124,173799,1,2,3:2:0:0:
233,290,173955,1,0,0:0:0:0:
84,189,174112,5,6,3:2:0:0:
254,35,174268,2,0,P|319:19|377:38,1,106.25,0|2,3:2|0:3,0:0:0:0:
512,184,174580,1,0,3:2:0:0:
317,220,174737,2,0,B|299:182|299:182|311:97,1,106.25,8|0,0:2|3:0,0:0:0:0:
487,298,175049,2,0,P|427:315|360:293,1,106.25,2|0,0:0|0:0,0:0:0:0:
80,51,175362,6,0,P|150:58|205:184,1,212.5,2|2,3:2|0:3,0:0:0:0:
153,341,175830,1,0,3:2:0:0:
102,158,175987,2,0,L|96:275,1,106.25,10|0,0:2|3:2,0:0:0:0:
381,181,176299,2,0,L|375:64,1,106.25,2|0,0:3|0:0,0:0:0:0:
247,223,176612,5,6,3:2:0:0:
474,295,176768,1,0,3:2:0:0:
232,359,176924,1,2,0:3:0:0:
343,286,177080,1,0,3:2:0:0:
127,173,177237,1,8,0:2:0:0:
381,181,177393,1,0,3:2:0:0:
112,302,177549,2,0,L|100:181,1,106.25,2|0,0:3|0:0,0:0:0:0:
343,286,177862,5,10,0:2:0:0:
23,190,178018,1,2,3:2:0:0:
324,88,178174,1,2,3:2:0:0:
86,66,178330,5,2,3:2:0:0:
364,182,178487,1,10,0:2:0:0:
55,292,178643,1,2,3:2:0:0:
228,110,178799,2,0,B|329:88|329:88|305:105|282:131,1,159.375,10|0,0:3|0:0,0:0:0:0:
158,185,179112,6,0,P|125:125|139:64,1,106.25,6|0,3:2|3:2,0:0:0:0:
364,182,179424,1,0,0:0:0:0:
180,304,179580,1,0,3:2:0:0:
375,376,179737,2,0,P|408:316|394:255,1,106.25,8|0,0:2|3:2,0:0:0:0:
241,18,180049,2,0,L|221:156,1,106.25,2|0,0:2|0:0,0:0:0:0:
477,208,180362,6,0,B|409:192|409:192|340:214|340:214|264:197,1,212.5,2|2,3:2|2:3,0:0:0:0:
81,97,180830,1,0,3:2:0:0:
330,79,180987,1,10,0:2:0:0:
134,224,181143,1,0,3:2:0:0:
202,132,181299,1,2,0:2:0:0:
260,327,181455,1,0,0:0:0:0:
62,304,181612,6,0,P|53:237|89:78,1,212.5,2|2,3:2|0:3,0:0:0:0:
275,19,182080,1,0,3:2:0:0:
358,252,182237,2,0,L|374:380,1,106.25,8|0,0:2|3:2,0:0:0:0:
256,229,182549,1,2,0:2:0:0:
435,184,182705,1,0,0:0:0:0:
204,129,182862,5,2,3:2:0:0:
260,327,183018,1,0,3:2:0:0:
380,107,183174,1,10,0:0:0:0:
152,224,183330,1,0,3:2:0:0:
358,252,183487,5,10,0:2:0:0:
299,27,183643,1,0,3:2:0:0:
83,170,183799,1,10,0:2:0:0:
435,184,183955,1,0,3:0:0:0:
194,23,184112,6,0,L|206:157,1,106.25,6|0,3:2|3:2,0:0:0:0:
156,327,184424,1,2,0:3:0:0:
293,183,184580,1,0,3:2:0:0:
374,369,184737,2,0,P|307:364|260:336,1,106.25,8|0,0:2|3:0,0:0:0:0:
435,184,185049,2,0,B|450:230|450:230|438:290,1,106.25,2|0,0:0|0:0,0:0:0:0:
108,193,185362,6,0,L|95:74,1,106.25,2|0,3:2|3:2,0:0:0:0:
235,269,185674,1,2,0:3:0:0:
7,260,185830,1,0,3:2:0:0:
260,162,185987,1,10,0:2:0:0:
213,376,186143,1,0,3:2:0:0:
198,76,186299,2,0,P|261:54|307:63,1,106.25,2|0,0:3|0:0,0:0:0:0:
494,244,186612,5,6,3:2:0:0:
260,162,186768,1,0,3:2:0:0:
494,87,186924,1,2,0:3:0:0:
296,298,187080,1,0,3:2:0:0:
437,164,187237,5,8,0:2:0:0:
198,76,187393,1,0,3:2:0:0:
405,272,187549,1,2,0:3:0:0:
426,10,187705,1,0,3:0:0:0:
426,10,187783,1,0,3:0:0:0:
426,10,187862,5,14,0:2:0:0:
294,223,188018,2,0,P|213:222|177:197,1,106.25,2|0,3:2|0:0,0:0:0:0:
408,139,188330,1,2,3:2:0:0:
367,353,188487,5,14,0:2:0:0:
267,49,188643,1,2,3:2:0:0:
466,238,188799,1,10,0:2:0:0:
119,295,188955,1,8,0:0:0:0:
256,136,189112,6,0,L|269:254,2,85,6|0|0,3:2|3:2|0:0,0:0:0:0:
141,12,189580,1,0,3:2:0:0:
70,189,189737,2,0,P|138:198|169:186,1,85,8|0,0:2|3:2,0:0:0:0:
307,44,190049,2,0,P|239:35|208:47,1,85,0|0,0:0|3:2,0:0:0:0:
359,158,190362,6,0,L|454:146,2,85,0|0|0,3:2|3:2|0:0,0:0:0:0:
482,58,190830,1,0,3:2:0:0:
406,240,190987,2,0,L|377:336,1,85,8|0,0:2|3:2,0:0:0:0:
217,271,191299,2,0,L|314:248,1,85
146,354,191612,6,0,P|114:308|161:188,1,170,6|0,3:2|0:0,0:0:0:0:
287,101,192080,1,0,3:2:0:0:
172,24,192237,2,0,L|187:123,1,85,8|0,0:2|3:2,0:0:0:0:
363,231,192549,2,0,L|378:132,1,85
284,285,192862,5,2,3:2:0:0:
455,235,193018,1,2,3:2:0:0:
278,200,193174,1,0,0:0:0:0:
362,323,193330,1,0,3:2:0:0:
458,152,193487,1,8,0:2:0:0:
368,338,193643,1,0,3:2:0:0:
185,237,193799,2,0,L|212:112,1,127.5,2|0,3:2|0:0,0:0:0:0:
185,107,194112,6,0,L|166:4,1,85,2|0,3:2|3:2,0:0:0:0:
278,200,194424,1,0,0:0:0:0:
96,169,194580,1,0,3:2:0:0:
296,77,194737,2,0,P|356:64|454:130,1,170,8|0,0:2|0:0,0:0:0:0:
483,223,195205,1,0,3:2:0:0:
351,169,195362,6,0,L|341:260,1,85,0|0,3:2|3:2,0:0:0:0:
428,376,195674,2,0,L|418:285,1,85,0|0,0:0|3:2,0:0:0:0:
237,289,195987,1,8,0:2:0:0:
317,341,196143,1,0,3:2:0:0:
178,359,196299,1,0,0:0:0:0:
341,253,196455,1,0,0:0:0:0:
152,185,196612,6,0,P|147:255|154:296,2,85,6|0|0,3:2|3:2|0:0,0:0:0:0:
294,139,197080,1,0,3:2:0:0:
55,138,197237,2,0,P|103:96|224:101,1,170,8|2,0:2|0:0,0:0:0:0:
367,204,197705,1,2,0:0:0:0:
442,131,197862,6,0,P|454:90|449:48,1,85,10|2,0:2|3:2,0:0:0:0:
287,222,198174,1,0,3:2:0:0:
372,355,198330,1,2,3:2:0:0:
460,214,198487,1,8,0:2:0:0:
272,310,198643,1,0,3:2:0:0:
464,334,198799,1,2,3:2:0:0:
247,321,198955,1,0,0:0:0:0:
367,204,199112,6,0,B|375:182|375:182|364:104,2,85,6|2|0,3:2|3:2|0:0,0:0:0:0:
255,138,199580,1,0,3:2:0:0:
377,31,199737,2,0,P|440:68|450:101,1,85,8|0,0:2|3:2,0:0:0:0:
235,134,200049,2,0,L|133:119,1,85,2|0,0:0|3:2,0:0:0:0:
19,291,200362,6,0,L|220:271,1,170,2|0,3:2|0:0,0:0:0:0:
388,251,200830,1,2,3:2:0:0:
307,384,200987,2,0,P|288:340|295:297,1,85,8|0,0:2|3:2,0:0:0:0:
498,221,201299,2,0,L|484:346,1,85,2|0,0:0|0:0,0:0:0:0:
332,160,201612,6,0,P|392:129|444:136,2,85,6|0|0,3:2|3:2|0:0,0:0:0:0:
240,265,202080,1,0,3:2:0:0:
139,160,202237,2,0,L|125:50,1,85,8|0,0:2|3:2,0:0:0:0:
236,283,202549,2,0,L|222:393,1,85
352,238,202862,5,2,3:2:0:0:
124,266,203018,1,2,3:2:0:0:
302,169,203174,1,8,0:2:0:0:
94,108,203330,1,2,3:2:0:0:
371,112,203487,1,0,3:2:0:0:
199,187,203643,1,0,3:2:0:0:
266,0,203799,2,0,P|291:49|293:90,1,85,10|0,0:2|0:0,0:0:0:0:
127,249,204112,5,6,3:2:0:0:
365,343,204268,2,0,L|477:314,1,85,0|0,3:2|0:0,0:0:0:0:
255,188,204580,1,0,3:2:0:0:
147,343,204737,2,0,L|35:314,1,85,8|0,0:2|3:2,0:0:0:0:
137,72,205049,2,0,P|161:129|158:167,1,85,0|0,0:0|3:2,0:0:0:0:
49,21,205362,5,0,3:2:0:0:
263,103,205518,1,0,3:2:0:0:
45,148,205674,1,0,0:0:0:0:
223,9,205830,1,0,3:2:0:0:
171,235,205987,2,0,L|159:138,1,85,8|0,0:2|3:2,0:0:0:0:
347,257,206299,2,0,L|335:354,1,85
281,135,206612,5,6,3:2:0:0:
435,301,206768,1,0,3:2:0:0:
463,102,206924,1,0,0:0:0:0:
255,288,207080,1,0,3:2:0:0:
218,53,207237,2,0,P|269:33|320:39,1,85,8|0,0:2|3:2,0:0:0:0:
404,212,207549,1,2,0:0:0:0:
161,171,207705,1,2,3:2:0:0:
161,171,207783,1,0,3:2:0:0:
161,171,207862,6,0,L|56:156,2,85,10|0|0,0:2|3:2|0:0,0:0:0:0:
342,257,208330,1,0,3:2:0:0:
250,119,208487,1,8,0:2:0:0:
121,332,208643,1,0,3:2:0:0:
243,216,208799,1,2,3:2:0:0:
325,370,208955,1,0,0:0:0:0:
118,213,209112,5,6,0:2:0:0:
256,192,209190,12,0,229737,0:0:0:0:
