osu file format v14

[General]
AudioFilename: audio.mp3
AudioLeadIn: 0
PreviewTime: 144809
Countdown: 0
SampleSet: Soft
StackLeniency: 0.7
Mode: 3
LetterboxInBreaks: 0
SpecialStyle: 0
WidescreenStoryboard: 0

[Editor]
DistanceSpacing: 1.1
BeatDivisor: 4
GridSize: 4
TimelineZoom: 1.9

[Metadata]
Title:C.h.a.o.s.m.y.t.h.
TitleUnicode:C.h.a.o.s.m.y.t.h.
Artist:ONE OK ROCK
ArtistUnicode:ONE OK ROCK
Creator:Ryon_Gaming
Version:Normal
Source:
Tags:ONE OK ROCK, Taka, C.h.a.o.s.m.y.t.h., Zankyō Reference, 残響リファレンス
BeatmapID:1130196
BeatmapSetID:533110

[Difficulty]
HPDrainRate:7
CircleSize:4
OverallDifficulty:7
ApproachRate:5
SliderMultiplier:1.4
SliderTickRate:2

[Events]
//Background and Video events
0,0,"ONE OK ROCK.jpg",0,0
//Break Periods
2,232657,244139
//Storyboard Layer 0 (Background)
//Storyboard Layer 1 (Fail)
//Storyboard Layer 2 (Pass)
//Storyboard Layer 3 (Foreground)
//Storyboard Sound Samples

[TimingPoints]
20882,322.523423263615,4,2,0,30,1,0
62164,-100,4,2,0,30,0,1
103447,-100,4,2,0,30,0,0
144730,-100,4,2,0,30,0,1
186175,-100,4,2,0,30,0,0
247928,-100,4,2,0,30,0,1
289221,-100,4,2,0,30,0,0

[HitObjects]
448,192,20881,5,0,0:0:0:0:
64,192,21204,1,0,0:0:0:0:
192,192,21527,1,0,0:0:0:0:
320,192,21527,1,0,0:0:0:0:
64,192,21849,1,0,0:0:0:0:
448,192,22172,1,0,0:0:0:0:
64,192,22494,1,0,0:0:0:0:
320,192,22817,1,0,0:0:0:0:
448,192,22817,1,0,0:0:0:0:
64,192,23139,1,0,0:0:0:0:
320,192,23462,1,0,0:0:0:0:
192,192,23784,1,0,0:0:0:0:
64,192,24107,1,0,0:0:0:0:
448,192,24107,1,0,0:0:0:0:
192,192,24429,1,0,0:0:0:0:
448,192,24752,1,0,0:0:0:0:
64,192,25074,1,0,0:0:0:0:
192,192,25397,1,0,0:0:0:0:
320,192,25397,1,0,0:0:0:0:
448,192,25679,128,0,25881:0:0:0:0:
64,192,25679,128,0,25881:0:0:0:0:
320,192,26042,1,0,0:0:0:0:
64,192,26364,1,0,0:0:0:0:
192,192,26687,1,0,0:0:0:0:
448,192,26687,1,0,0:0:0:0:
320,192,27009,1,0,0:0:0:0:
64,192,27332,1,0,0:0:0:0:
448,192,27654,1,0,0:0:0:0:
64,192,27977,1,0,0:0:0:0:
320,192,27977,1,0,0:0:0:0:
448,192,28300,1,0,0:0:0:0:
192,192,28622,1,0,0:0:0:0:
448,192,28945,1,0,0:0:0:0:
64,192,29267,1,0,0:0:0:0:
192,192,29267,1,0,0:0:0:0:
320,192,29590,1,0,0:0:0:0:
448,192,29912,1,0,0:0:0:0:
64,192,30235,1,0,0:0:0:0:
320,192,30557,1,0,0:0:0:0:
448,192,30557,1,0,0:0:0:0:
192,192,30839,128,0,31041:0:0:0:0:
320,192,30839,128,0,31041:0:0:0:0:
448,192,31202,1,0,0:0:0:0:
64,192,31525,1,0,0:0:0:0:
320,192,31847,1,0,0:0:0:0:
448,192,31847,1,0,0:0:0:0:
192,192,32170,1,0,0:0:0:0:
64,192,32492,1,0,0:0:0:0:
192,192,32815,1,0,0:0:0:0:
64,192,33137,1,0,0:0:0:0:
320,192,33137,1,0,0:0:0:0:
448,192,33460,1,0,0:0:0:0:
192,192,33782,1,0,0:0:0:0:
64,192,34105,1,0,0:0:0:0:
320,192,34427,1,0,0:0:0:0:
192,192,34427,1,0,0:0:0:0:
64,192,34750,1,0,0:0:0:0:
448,192,35073,1,0,0:0:0:0:
64,192,35395,1,0,0:0:0:0:
320,192,35718,1,0,0:0:0:0:
448,192,35718,1,0,0:0:0:0:
320,192,36000,128,0,36201:0:0:0:0:
64,192,36000,128,0,36201:0:0:0:0:
448,192,36363,1,0,0:0:0:0:
192,192,36685,1,0,0:0:0:0:
64,192,37008,1,0,0:0:0:0:
320,192,37008,1,0,0:0:0:0:
192,192,37330,1,0,0:0:0:0:
448,192,37653,1,0,0:0:0:0:
64,192,37975,1,0,0:0:0:0:
192,192,38298,1,0,0:0:0:0:
448,192,38298,1,0,0:0:0:0:
320,192,38620,1,0,0:0:0:0:
192,192,38943,1,0,0:0:0:0:
448,192,39265,1,0,0:0:0:0:
192,192,39588,1,0,0:0:0:0:
320,192,39588,1,0,0:0:0:0:
64,192,39910,1,0,0:0:0:0:
448,192,40233,1,0,0:0:0:0:
192,192,40555,1,0,0:0:0:0:
192,192,40878,1,0,0:0:0:0:
320,192,40878,1,0,0:0:0:0:
448,192,41160,128,0,41362:0:0:0:0:
192,192,41160,128,0,41362:0:0:0:0:
64,192,41523,1,0,0:0:0:0:
192,192,41846,1,0,0:0:0:0:
320,192,42168,1,0,0:0:0:0:
448,192,42168,1,0,0:0:0:0:
192,192,42491,1,0,0:0:0:0:
64,192,42813,1,0,0:0:0:0:
448,192,43136,1,0,0:0:0:0:
192,192,43458,1,0,0:0:0:0:
320,192,43458,1,0,0:0:0:0:
448,192,43781,1,0,0:0:0:0:
64,192,44103,1,0,0:0:0:0:
320,192,44426,1,0,0:0:0:0:
64,192,44748,1,0,0:0:0:0:
192,192,44748,1,0,0:0:0:0:
320,192,45071,1,0,0:0:0:0:
192,192,45393,1,0,0:0:0:0:
448,192,45716,1,0,0:0:0:0:
64,192,46038,1,0,0:0:0:0:
320,192,46038,1,0,0:0:0:0:
320,192,46321,128,0,46522:0:0:0:0:
64,192,46321,128,0,46522:0:0:0:0:
448,192,46683,1,0,0:0:0:0:
192,192,47006,1,0,0:0:0:0:
448,192,47328,1,0,0:0:0:0:
320,192,47328,1,0,0:0:0:0:
192,192,47651,1,0,0:0:0:0:
64,192,47973,1,0,0:0:0:0:
192,192,48296,1,0,0:0:0:0:
320,192,48619,1,0,0:0:0:0:
448,192,48619,1,0,0:0:0:0:
192,192,48941,1,0,0:0:0:0:
64,192,49264,1,0,0:0:0:0:
448,192,49586,1,0,0:0:0:0:
192,192,49909,1,0,0:0:0:0:
320,192,49909,1,0,0:0:0:0:
64,192,50231,1,0,0:0:0:0:
448,192,50554,1,0,0:0:0:0:
192,192,50876,1,0,0:0:0:0:
64,192,51199,1,0,0:0:0:0:
320,192,51199,1,0,0:0:0:0:
64,192,51481,128,0,51682:0:0:0:0:
448,192,51481,128,0,51682:0:0:0:0:
320,192,51844,1,0,0:0:0:0:
192,192,52166,1,0,0:0:0:0:
64,192,52489,1,0,0:0:0:0:
448,192,52489,1,0,0:0:0:0:
192,192,52811,1,0,0:0:0:0:
320,192,53134,1,0,0:0:0:0:
64,192,53456,1,0,0:0:0:0:
192,192,53779,1,0,0:0:0:0:
320,192,53779,1,0,0:0:0:0:
448,192,54101,1,0,0:0:0:0:
64,192,54424,1,0,0:0:0:0:
448,192,54746,1,0,0:0:0:0:
64,192,55069,1,0,0:0:0:0:
320,192,55069,1,0,0:0:0:0:
192,192,55392,1,0,0:0:0:0:
448,192,55714,1,0,0:0:0:0:
64,192,56037,1,0,0:0:0:0:
192,192,56359,1,0,0:0:0:0:
448,192,56359,1,0,0:0:0:0:
448,192,56641,128,0,56843:0:0:0:0:
64,192,56641,128,0,56843:0:0:0:0:
320,192,57004,1,0,0:0:0:0:
192,192,57004,1,0,0:0:0:0:
64,192,57327,1,0,0:0:0:0:
192,192,57327,1,0,0:0:0:0:
320,192,57649,1,0,0:0:0:0:
448,192,57649,1,0,0:0:0:0:
192,192,57972,1,0,0:0:0:0:
64,192,57972,1,0,0:0:0:0:
448,192,58294,1,0,0:0:0:0:
320,192,58294,1,0,0:0:0:0:
320,192,58617,1,0,0:0:0:0:
192,192,58617,1,0,0:0:0:0:
192,192,58939,1,0,0:0:0:0:
64,192,58939,1,0,0:0:0:0:
448,192,59262,1,0,0:0:0:0:
192,192,59262,1,0,0:0:0:0:
192,192,59584,1,0,0:0:0:0:
320,192,59584,1,0,0:0:0:0:
448,192,59907,1,0,0:0:0:0:
64,192,60068,1,0,0:0:0:0:
320,192,60229,1,0,0:0:0:0:
192,192,60229,1,0,0:0:0:0:
448,192,60391,1,0,0:0:0:0:
64,192,60552,1,0,0:0:0:0:
320,192,60713,1,0,0:0:0:0:
192,192,60713,1,0,0:0:0:0:
448,192,60874,1,0,0:0:0:0:
64,192,61036,128,0,61278:0:0:0:0:
448,192,61076,128,0,61278:0:0:0:0:
448,192,61439,1,0,0:0:0:0:
64,192,61600,1,0,0:0:0:0:
320,192,61761,1,0,0:0:0:0:
64,192,61923,1,0,0:0:0:0:
192,192,61923,1,0,0:0:0:0:
320,192,62164,128,0,62487:0:0:0:0:
64,192,62326,1,0,0:0:0:0:
64,192,62648,1,0,0:0:0:0:
320,192,62810,128,0,63132:0:0:0:0:
64,192,62971,1,0,0:0:0:0:
64,192,63293,1,0,0:0:0:0:
320,192,63455,128,0,63777:0:0:0:0:
64,192,63616,1,0,0:0:0:0:
64,192,63898,1,0,0:0:0:0:
320,192,64100,128,0,64422:0:0:0:0:
64,192,64261,1,0,0:0:0:0:
64,192,64583,1,0,0:0:0:0:
320,192,64745,128,0,65067:0:0:0:0:
64,192,64906,1,0,0:0:0:0:
64,192,65228,1,0,0:0:0:0:
320,192,65390,128,0,65712:0:0:0:0:
64,192,65551,1,0,0:0:0:0:
64,192,65874,1,0,0:0:0:0:
320,192,66035,128,0,66357:0:0:0:0:
64,192,66196,1,0,0:0:0:0:
320,192,66519,1,0,0:0:0:0:
64,192,66680,1,0,0:0:0:0:
448,192,66841,1,0,0:0:0:0:
192,192,67002,1,0,0:0:0:0:
64,192,67002,1,0,0:0:0:0:
448,192,67164,1,0,0:0:0:0:
320,192,67164,1,0,0:0:0:0:
64,192,67325,128,0,67647:0:0:0:0:
448,192,67526,1,0,0:0:0:0:
448,192,67809,1,0,0:0:0:0:
64,192,67970,128,0,68292:0:0:0:0:
448,192,68131,1,0,0:0:0:0:
448,192,68454,1,0,0:0:0:0:
64,192,68615,128,0,68937:0:0:0:0:
448,192,68776,1,0,0:0:0:0:
448,192,69099,1,0,0:0:0:0:
64,192,69260,128,0,69583:0:0:0:0:
448,192,69421,1,0,0:0:0:0:
448,192,69744,1,0,0:0:0:0:
64,192,69905,128,0,70228:0:0:0:0:
448,192,70013,1,0,0:0:0:0:
448,192,70389,1,0,0:0:0:0:
64,192,70550,128,0,70873:0:0:0:0:
448,192,70711,1,0,0:0:0:0:
448,192,71034,1,0,0:0:0:0:
64,192,71195,1,0,0:0:0:0:
320,192,71356,1,0,0:0:0:0:
192,192,71518,1,0,0:0:0:0:
448,192,71679,1,0,0:0:0:0:
64,192,71840,1,0,0:0:0:0:
448,192,72001,1,0,0:0:0:0:
192,192,72324,1,0,0:0:0:0:
320,192,72405,1,0,0:0:0:0:
448,192,72485,1,0,0:0:0:0:
64,192,72647,1,0,0:0:0:0:
448,192,72969,1,0,0:0:0:0:
192,192,73130,1,0,0:0:0:0:
320,192,73130,1,0,0:0:0:0:
448,192,73292,1,0,0:0:0:0:
448,192,73614,1,0,0:0:0:0:
320,192,73775,1,0,0:0:0:0:
192,192,73775,1,0,0:0:0:0:
448,192,73937,1,0,0:0:0:0:
448,192,74259,1,0,0:0:0:0:
320,192,74420,1,0,0:0:0:0:
192,192,74420,1,0,0:0:0:0:
448,192,74582,1,0,0:0:0:0:
448,192,74904,1,0,0:0:0:0:
320,192,75065,1,0,0:0:0:0:
192,192,75065,1,0,0:0:0:0:
448,192,75227,1,0,0:0:0:0:
448,192,75549,1,0,0:0:0:0:
320,192,75710,1,0,0:0:0:0:
192,192,75710,1,0,0:0:0:0:
448,192,75872,1,0,0:0:0:0:
448,192,76194,1,0,0:0:0:0:
320,192,76356,1,0,0:0:0:0:
192,192,76356,1,0,0:0:0:0:
448,192,76517,1,0,0:0:0:0:
448,192,76839,1,0,0:0:0:0:
320,192,77001,1,0,0:0:0:0:
192,192,77001,1,0,0:0:0:0:
448,192,77162,1,0,0:0:0:0:
448,192,77484,1,0,0:0:0:0:
192,192,77646,1,0,0:0:0:0:
320,192,77646,1,0,0:0:0:0:
64,192,77807,1,0,0:0:0:0:
64,192,78129,1,0,0:0:0:0:
192,192,78291,1,0,0:0:0:0:
320,192,78291,1,0,0:0:0:0:
448,192,78452,1,0,0:0:0:0:
448,192,78774,1,0,0:0:0:0:
192,192,78936,1,0,0:0:0:0:
320,192,78936,1,0,0:0:0:0:
64,192,79097,1,0,0:0:0:0:
64,192,79420,1,0,0:0:0:0:
192,192,79581,1,0,0:0:0:0:
320,192,79581,1,0,0:0:0:0:
448,192,79742,1,0,0:0:0:0:
448,192,80065,1,0,0:0:0:0:
192,192,80226,1,0,0:0:0:0:
320,192,80226,1,0,0:0:0:0:
64,192,80387,1,0,0:0:0:0:
64,192,80710,1,0,0:0:0:0:
192,192,80871,1,0,0:0:0:0:
320,192,80871,1,0,0:0:0:0:
448,192,81032,1,0,0:0:0:0:
448,192,81355,1,0,0:0:0:0:
192,192,81516,1,0,0:0:0:0:
320,192,81516,1,0,0:0:0:0:
64,192,81677,1,0,0:0:0:0:
192,192,82000,1,0,0:0:0:0:
64,192,82161,1,0,0:0:0:0:
448,192,82161,1,0,0:0:0:0:
448,192,82483,1,0,0:0:0:0:
320,192,82483,1,0,0:0:0:0:
192,192,82645,1,0,0:0:0:0:
64,192,82645,1,0,0:0:0:0:
320,192,82806,128,0,83129:0:0:0:0:
64,192,82967,1,0,0:0:0:0:
448,192,83290,1,0,0:0:0:0:
320,192,83451,128,0,83774:0:0:0:0:
64,192,83612,1,0,0:0:0:0:
448,192,83935,1,0,0:0:0:0:
320,192,84096,128,0,84419:0:0:0:0:
64,192,84257,1,0,0:0:0:0:
448,192,84580,1,0,0:0:0:0:
320,192,84741,128,0,85064:0:0:0:0:
64,192,84902,1,0,0:0:0:0:
448,192,85225,1,0,0:0:0:0:
320,192,85386,128,0,85709:0:0:0:0:
64,192,85547,1,0,0:0:0:0:
448,192,85870,1,0,0:0:0:0:
320,192,86031,128,0,86354:0:0:0:0:
64,192,86192,1,0,0:0:0:0:
448,192,86515,1,0,0:0:0:0:
320,192,86676,128,0,86999:0:0:0:0:
64,192,86838,1,0,0:0:0:0:
448,192,87160,1,0,0:0:0:0:
320,192,87321,128,0,87644:0:0:0:0:
64,192,87483,1,0,0:0:0:0:
192,192,87805,1,0,0:0:0:0:
320,192,87805,1,0,0:0:0:0:
64,192,87966,128,0,88289:0:0:0:0:
448,192,88128,1,0,0:0:0:0:
192,192,88450,1,0,0:0:0:0:
64,192,88611,128,0,88934:0:0:0:0:
448,192,88773,1,0,0:0:0:0:
192,192,89095,1,0,0:0:0:0:
64,192,89256,128,0,89579:0:0:0:0:
448,192,89418,1,0,0:0:0:0:
192,192,89740,1,0,0:0:0:0:
64,192,89902,128,0,90224:0:0:0:0:
448,192,90063,1,0,0:0:0:0:
192,192,90385,1,0,0:0:0:0:
64,192,90547,128,0,90869:0:0:0:0:
448,192,90708,1,0,0:0:0:0:
192,192,91030,1,0,0:0:0:0:
64,192,91192,128,0,91514:0:0:0:0:
448,192,91353,1,0,0:0:0:0:
192,192,91675,1,0,0:0:0:0:
448,192,91837,1,0,0:0:0:0:
64,192,91998,1,0,0:0:0:0:
448,192,92159,1,0,0:0:0:0:
64,192,92482,1,0,0:0:0:0:
192,192,92482,1,0,0:0:0:0:
448,192,92643,1,0,0:0:0:0:
320,192,92965,1,0,0:0:0:0:
192,192,93046,1,0,0:0:0:0:
64,192,93127,1,0,0:0:0:0:
448,192,93288,1,0,0:0:0:0:
320,192,93611,1,0,0:0:0:0:
64,192,93772,1,0,0:0:0:0:
192,192,93772,1,0,0:0:0:0:
448,192,93933,1,0,0:0:0:0:
320,192,94256,1,0,0:0:0:0:
64,192,94417,1,0,0:0:0:0:
192,192,94417,1,0,0:0:0:0:
448,192,94578,1,0,0:0:0:0:
320,192,94901,1,0,0:0:0:0:
64,192,95062,1,0,0:0:0:0:
192,192,95062,1,0,0:0:0:0:
448,192,95223,1,0,0:0:0:0:
320,192,95546,1,0,0:0:0:0:
64,192,95707,1,0,0:0:0:0:
192,192,95707,1,0,0:0:0:0:
448,192,95868,1,0,0:0:0:0:
320,192,96191,1,0,0:0:0:0:
192,192,96352,1,0,0:0:0:0:
64,192,96352,1,0,0:0:0:0:
448,192,96513,1,0,0:0:0:0:
320,192,96836,1,0,0:0:0:0:
192,192,96997,1,0,0:0:0:0:
64,192,96997,1,0,0:0:0:0:
448,192,97158,1,0,0:0:0:0:
320,192,97481,1,0,0:0:0:0:
64,192,97642,1,0,0:0:0:0:
192,192,97642,1,0,0:0:0:0:
448,192,97803,1,0,0:0:0:0:
320,192,98126,1,0,0:0:0:0:
64,192,98287,1,0,0:0:0:0:
448,192,98287,1,0,0:0:0:0:
192,192,98448,1,0,0:0:0:0:
320,192,98751,1,0,0:0:0:0:
64,192,98932,1,0,0:0:0:0:
448,192,98932,1,0,0:0:0:0:
192,192,99093,1,0,0:0:0:0:
320,192,99396,1,0,0:0:0:0:
64,192,99577,1,0,0:0:0:0:
448,192,99577,1,0,0:0:0:0:
192,192,99738,1,0,0:0:0:0:
320,192,100041,1,0,0:0:0:0:
64,192,100222,1,0,0:0:0:0:
448,192,100222,1,0,0:0:0:0:
192,192,100363,1,0,0:0:0:0:
320,192,100686,1,0,0:0:0:0:
64,192,100867,1,0,0:0:0:0:
448,192,100867,1,0,0:0:0:0:
192,192,101008,1,0,0:0:0:0:
320,192,101331,1,0,0:0:0:0:
64,192,101512,1,0,0:0:0:0:
448,192,101512,1,0,0:0:0:0:
192,192,101653,1,0,0:0:0:0:
320,192,101976,1,0,0:0:0:0:
64,192,102157,1,0,0:0:0:0:
448,192,102157,1,0,0:0:0:0:
192,192,102299,1,0,0:0:0:0:
320,192,102460,1,0,0:0:0:0:
448,192,102460,1,0,0:0:0:0:
64,192,102782,1,0,0:0:0:0:
192,192,102782,1,0,0:0:0:0:
320,192,102944,1,0,0:0:0:0:
448,192,102944,1,0,0:0:0:0:
192,192,103105,1,0,0:0:0:0:
64,192,103105,1,0,0:0:0:0:
448,192,103447,128,0,108608:0:0:0:0:
192,192,103447,1,0,0:0:0:0:
64,192,103770,1,0,0:0:0:0:
320,192,104093,1,0,0:0:0:0:
64,192,104415,1,0,0:0:0:0:
192,192,104738,1,0,0:0:0:0:
64,192,105060,1,0,0:0:0:0:
320,192,105383,1,0,0:0:0:0:
64,192,105705,1,0,0:0:0:0:
192,192,106028,1,0,0:0:0:0:
64,192,106350,1,0,0:0:0:0:
320,192,106673,1,0,0:0:0:0:
64,192,106995,1,0,0:0:0:0:
192,192,107318,1,0,0:0:0:0:
64,192,107640,1,0,0:0:0:0:
320,192,107963,1,0,0:0:0:0:
64,192,108285,1,0,0:0:0:0:
320,192,108608,1,0,0:0:0:0:
192,192,108910,1,0,0:0:0:0:
64,192,109233,1,0,0:0:0:0:
448,192,109233,1,0,0:0:0:0:
320,192,109575,1,0,0:0:0:0:
192,192,109898,1,0,0:0:0:0:
64,192,110059,1,0,0:0:0:0:
320,192,110220,1,0,0:0:0:0:
64,192,110543,1,0,0:0:0:0:
448,192,110543,1,0,0:0:0:0:
320,192,110845,128,0,111168:0:0:0:0:
64,192,111168,1,0,0:0:0:0:
320,192,111490,1,0,0:0:0:0:
64,192,111813,1,0,0:0:0:0:
448,192,111813,1,0,0:0:0:0:
320,192,112458,1,0,0:0:0:0:
448,192,112619,1,0,0:0:0:0:
192,192,112781,1,0,0:0:0:0:
448,192,113103,128,0,113748:0:0:0:0:
64,192,113103,128,0,113748:0:0:0:0:
320,192,113748,1,0,0:0:0:0:
64,192,114071,1,0,0:0:0:0:
320,192,114393,1,0,0:0:0:0:
192,192,114393,1,0,0:0:0:0:
448,192,114736,1,0,0:0:0:0:
64,192,115038,1,0,0:0:0:0:
448,192,115199,1,0,0:0:0:0:
64,192,115361,1,0,0:0:0:0:
192,192,115683,1,0,0:0:0:0:
320,192,115683,1,0,0:0:0:0:
448,192,116006,128,0,116328:0:0:0:0:
64,192,116006,128,0,116328:0:0:0:0:
320,192,116328,1,0,0:0:0:0:
64,192,116651,1,0,0:0:0:0:
192,192,116973,1,0,0:0:0:0:
320,192,116973,1,0,0:0:0:0:
448,192,117316,1,0,0:0:0:0:
64,192,117618,1,0,0:0:0:0:
448,192,117780,1,0,0:0:0:0:
64,192,117941,1,0,0:0:0:0:
320,192,118263,128,0,118908:0:0:0:0:
192,192,118263,128,0,118908:0:0:0:0:
448,192,118908,1,0,0:0:0:0:
64,192,119231,1,0,0:0:0:0:
320,192,119554,1,0,0:0:0:0:
448,192,119554,1,0,0:0:0:0:
64,192,119896,1,0,0:0:0:0:
320,192,120199,1,0,0:0:0:0:
192,192,120360,1,0,0:0:0:0:
320,192,120521,1,0,0:0:0:0:
192,192,120682,1,0,0:0:0:0:
320,192,120844,1,0,0:0:0:0:
448,192,120844,1,0,0:0:0:0:
64,192,121186,1,0,0:0:0:0:
448,192,121489,1,0,0:0:0:0:
64,192,121811,1,0,0:0:0:0:
320,192,122134,1,0,0:0:0:0:
448,192,122134,1,0,0:0:0:0:
192,192,122476,1,0,0:0:0:0:
320,192,122799,1,0,0:0:0:0:
192,192,123041,1,0,0:0:0:0:
320,192,123121,1,0,0:0:0:0:
192,192,123424,128,0,124069:0:0:0:0:
448,192,123424,128,0,124069:0:0:0:0:
64,192,124069,1,0,0:0:0:0:
448,192,124391,1,0,0:0:0:0:
64,192,124714,1,0,0:0:0:0:
320,192,124714,1,0,0:0:0:0:
192,192,125057,1,0,0:0:0:0:
64,192,125359,1,0,0:0:0:0:
448,192,125520,1,0,0:0:0:0:
192,192,125681,1,0,0:0:0:0:
320,192,125843,1,0,0:0:0:0:
64,192,126004,1,0,0:0:0:0:
448,192,126004,1,0,0:0:0:0:
320,192,126347,1,0,0:0:0:0:
64,192,126649,1,0,0:0:0:0:
448,192,126972,1,0,0:0:0:0:
64,192,127294,1,0,0:0:0:0:
320,192,127294,1,0,0:0:0:0:
192,192,127637,1,0,0:0:0:0:
64,192,127939,1,0,0:0:0:0:
448,192,128100,1,0,0:0:0:0:
192,192,128262,1,0,0:0:0:0:
320,192,128423,1,0,0:0:0:0:
448,192,128584,128,0,129229:0:0:0:0:
64,192,128584,128,0,129229:0:0:0:0:
320,192,129229,1,0,0:0:0:0:
64,192,129552,1,0,0:0:0:0:
192,192,129874,1,0,0:0:0:0:
448,192,129874,1,0,0:0:0:0:
64,192,130217,1,4,0:0:0:0:
320,192,130519,1,0,0:0:0:0:
192,192,130681,1,0,0:0:0:0:
448,192,130842,1,0,0:0:0:0:
64,192,131003,1,0,0:0:0:0:
192,192,131164,1,0,0:0:0:0:
320,192,131164,1,0,0:0:0:0:
448,192,131487,128,0,131809:0:0:0:0:
64,192,131487,128,0,131809:0:0:0:0:
320,192,131809,128,0,133745:0:0:0:0:
192,192,131809,128,0,133745:0:0:0:0:
448,192,133745,128,0,134390:0:0:0:0:
64,192,134390,1,0,0:0:0:0:
192,192,134390,1,0,0:0:0:0:
64,192,134712,1,0,0:0:0:0:
192,192,134712,1,0,0:0:0:0:
320,192,135035,1,0,0:0:0:0:
448,192,135035,1,0,0:0:0:0:
64,192,135357,1,0,0:0:0:0:
192,192,135357,1,0,0:0:0:0:
192,192,135680,1,0,0:0:0:0:
64,192,135680,1,0,0:0:0:0:
64,192,136002,1,0,0:0:0:0:
192,192,136002,1,0,0:0:0:0:
320,192,136325,1,0,0:0:0:0:
448,192,136325,1,0,0:0:0:0:
64,192,136647,1,0,0:0:0:0:
192,192,136647,1,0,0:0:0:0:
320,192,136970,1,0,0:0:0:0:
192,192,136970,1,0,0:0:0:0:
192,192,137292,1,0,0:0:0:0:
320,192,137292,1,0,0:0:0:0:
64,192,137615,1,0,0:0:0:0:
448,192,137615,1,0,0:0:0:0:
192,192,137937,1,0,0:0:0:0:
320,192,137937,1,0,0:0:0:0:
192,192,138260,1,0,0:0:0:0:
320,192,138260,1,0,0:0:0:0:
192,192,138582,1,0,0:0:0:0:
320,192,138582,1,0,0:0:0:0:
64,192,138905,1,0,0:0:0:0:
448,192,138905,1,0,0:0:0:0:
192,192,139227,1,0,0:0:0:0:
320,192,139227,1,0,0:0:0:0:
448,192,139550,1,0,0:0:0:0:
64,192,139550,1,0,0:0:0:0:
64,192,139872,1,0,0:0:0:0:
448,192,140195,1,0,0:0:0:0:
320,192,140195,1,0,0:0:0:0:
64,192,140356,1,0,0:0:0:0:
448,192,140518,1,0,0:0:0:0:
64,192,140679,1,0,0:0:0:0:
448,192,140840,1,0,0:0:0:0:
64,192,141001,1,0,0:0:0:0:
448,192,141163,1,0,0:0:0:0:
64,192,141324,1,0,0:0:0:0:
192,192,141324,1,0,0:0:0:0:
448,192,141485,1,0,0:0:0:0:
320,192,141485,1,0,0:0:0:0:
64,192,141646,1,0,0:0:0:0:
192,192,141646,1,0,0:0:0:0:
320,192,141808,1,0,0:0:0:0:
448,192,141808,1,0,0:0:0:0:
192,192,141969,1,0,0:0:0:0:
64,192,141969,1,0,0:0:0:0:
448,192,142130,1,0,0:0:0:0:
320,192,142130,1,0,0:0:0:0:
192,192,142291,1,0,0:0:0:0:
64,192,142291,1,0,0:0:0:0:
448,192,142372,1,0,0:0:0:0:
320,192,142453,1,0,0:0:0:0:
192,192,142533,1,0,0:0:0:0:
64,192,142614,1,0,0:0:0:0:
192,192,142695,1,0,0:0:0:0:
320,192,142775,1,0,0:0:0:0:
448,192,142856,1,0,0:0:0:0:
320,192,142936,1,0,0:0:0:0:
192,192,143017,1,0,0:0:0:0:
64,192,143098,1,0,0:0:0:0:
448,192,143178,1,0,0:0:0:0:
320,192,143259,1,0,0:0:0:0:
192,192,143340,1,0,0:0:0:0:
64,192,143420,1,0,0:0:0:0:
448,192,143501,1,0,0:0:0:0:
320,192,143582,1,0,0:0:0:0:
192,192,143662,1,0,0:0:0:0:
64,192,143743,1,0,0:0:0:0:
192,192,143823,1,0,0:0:0:0:
320,192,143904,1,0,0:0:0:0:
448,192,143985,1,0,0:0:0:0:
320,192,144065,1,0,0:0:0:0:
192,192,144146,1,0,0:0:0:0:
64,192,144227,1,0,0:0:0:0:
448,192,144307,1,0,0:0:0:0:
320,192,144388,1,0,0:0:0:0:
192,192,144468,1,0,0:0:0:0:
64,192,144549,1,0,0:0:0:0:
192,192,144710,1,0,0:0:0:0:
320,192,144710,1,0,0:0:0:0:
448,192,144872,1,0,0:0:0:0:
64,192,144872,1,0,0:0:0:0:
192,192,145194,1,0,0:0:0:0:
448,192,145355,128,0,145678:0:0:0:0:
64,192,145517,1,0,0:0:0:0:
64,192,145839,1,0,0:0:0:0:
448,192,146000,128,0,146323:0:0:0:0:
64,192,146162,1,0,0:0:0:0:
64,192,146484,1,0,0:0:0:0:
448,192,146645,128,0,146968:0:0:0:0:
64,192,146807,1,0,0:0:0:0:
64,192,147129,1,0,0:0:0:0:
448,192,147291,128,0,147613:0:0:0:0:
64,192,147452,1,0,0:0:0:0:
64,192,147774,1,0,0:0:0:0:
448,192,147936,128,0,148258:0:0:0:0:
64,192,148097,1,0,0:0:0:0:
64,192,148419,1,0,0:0:0:0:
448,192,148581,128,0,148903:0:0:0:0:
64,192,148742,1,0,0:0:0:0:
64,192,149064,1,0,0:0:0:0:
448,192,149226,128,0,149548:0:0:0:0:
64,192,149387,1,0,0:0:0:0:
320,192,149709,1,0,0:0:0:0:
192,192,149709,1,0,0:0:0:0:
64,192,149871,1,0,0:0:0:0:
448,192,149871,1,0,0:0:0:0:
192,192,150032,1,0,0:0:0:0:
448,192,150354,1,0,0:0:0:0:
192,192,150516,128,0,150838:0:0:0:0:
448,192,150677,1,0,0:0:0:0:
448,192,151000,1,0,0:0:0:0:
192,192,151161,128,0,151483:0:0:0:0:
448,192,151322,1,0,0:0:0:0:
448,192,151645,1,0,0:0:0:0:
192,192,151806,128,0,152128:0:0:0:0:
448,192,151967,1,0,0:0:0:0:
448,192,152290,1,0,0:0:0:0:
192,192,152451,128,0,152773:0:0:0:0:
448,192,152612,1,0,0:0:0:0:
448,192,152935,1,0,0:0:0:0:
192,192,153096,128,0,153418:0:0:0:0:
448,192,153257,1,0,0:0:0:0:
320,192,153580,1,0,0:0:0:0:
448,192,153741,1,0,0:0:0:0:
320,192,153902,1,0,0:0:0:0:
192,192,154064,1,0,0:0:0:0:
64,192,154386,1,0,0:0:0:0:
192,192,154386,1,0,0:0:0:0:
192,192,154870,1,0,0:0:0:0:
320,192,154950,1,0,0:0:0:0:
448,192,155031,1,0,0:0:0:0:
192,192,155192,1,0,0:0:0:0:
64,192,155192,1,0,0:0:0:0:
320,192,155515,1,0,0:0:0:0:
192,192,155676,1,0,0:0:0:0:
64,192,155676,1,0,0:0:0:0:
448,192,155837,1,0,0:0:0:0:
320,192,156160,1,0,0:0:0:0:
64,192,156321,1,0,0:0:0:0:
192,192,156321,1,0,0:0:0:0:
448,192,156482,1,0,0:0:0:0:
320,192,156805,1,0,0:0:0:0:
64,192,156966,1,0,0:0:0:0:
192,192,156966,1,0,0:0:0:0:
448,192,157127,1,0,0:0:0:0:
320,192,157450,1,0,0:0:0:0:
64,192,157611,1,0,0:0:0:0:
192,192,157611,1,0,0:0:0:0:
448,192,157773,1,0,0:0:0:0:
320,192,158095,1,0,0:0:0:0:
64,192,158256,1,0,0:0:0:0:
192,192,158256,1,0,0:0:0:0:
448,192,158418,1,0,0:0:0:0:
320,192,158740,1,0,0:0:0:0:
192,192,158901,1,0,0:0:0:0:
64,192,158901,1,0,0:0:0:0:
448,192,159063,5,0,0:0:0:0:
320,192,159385,1,0,0:0:0:0:
64,192,159546,1,0,0:0:0:0:
192,192,159546,1,0,0:0:0:0:
448,192,159708,1,0,0:0:0:0:
192,192,160030,1,0,0:0:0:0:
320,192,160191,1,0,0:0:0:0:
448,192,160191,1,0,0:0:0:0:
64,192,160353,1,0,0:0:0:0:
320,192,160675,1,0,0:0:0:0:
192,192,160837,1,0,0:0:0:0:
64,192,160837,1,0,0:0:0:0:
448,192,160998,1,0,0:0:0:0:
192,192,161320,1,0,0:0:0:0:
320,192,161482,1,0,0:0:0:0:
448,192,161482,1,0,0:0:0:0:
64,192,161643,1,0,0:0:0:0:
320,192,161965,1,0,0:0:0:0:
64,192,162127,1,0,0:0:0:0:
192,192,162127,1,0,0:0:0:0:
448,192,162288,1,0,0:0:0:0:
192,192,162610,1,0,0:0:0:0:
320,192,162772,1,0,0:0:0:0:
448,192,162772,1,0,0:0:0:0:
64,192,162933,1,0,0:0:0:0:
320,192,163255,1,0,0:0:0:0:
192,192,163417,1,0,0:0:0:0:
64,192,163417,1,0,0:0:0:0:
448,192,163578,1,0,0:0:0:0:
192,192,163900,1,0,0:0:0:0:
448,192,164062,1,0,0:0:0:0:
320,192,164062,1,0,0:0:0:0:
64,192,164223,1,0,0:0:0:0:
320,192,164546,1,0,0:0:0:0:
192,192,164707,1,0,0:0:0:0:
64,192,164707,1,0,0:0:0:0:
448,192,164868,1,0,0:0:0:0:
64,192,165029,1,0,0:0:0:0:
192,192,165029,1,0,0:0:0:0:
320,192,165191,1,0,0:0:0:0:
448,192,165191,1,0,0:0:0:0:
64,192,165352,1,0,0:0:0:0:
192,192,165352,1,0,0:0:0:0:
448,192,165513,1,0,0:0:0:0:
320,192,165836,1,0,0:0:0:0:
320,192,165997,128,0,166319:0:0:0:0:
64,192,166158,1,0,0:0:0:0:
320,192,166481,1,0,0:0:0:0:
320,192,166642,128,0,166964:0:0:0:0:
64,192,166803,1,0,0:0:0:0:
320,192,167126,1,0,0:0:0:0:
320,192,167287,128,0,167609:0:0:0:0:
64,192,167448,1,0,0:0:0:0:
320,192,167771,1,0,0:0:0:0:
320,192,167932,128,0,168255:0:0:0:0:
64,192,168093,1,0,0:0:0:0:
320,192,168416,1,0,0:0:0:0:
320,192,168577,128,0,168900:0:0:0:0:
64,192,168738,1,0,0:0:0:0:
320,192,169061,1,0,0:0:0:0:
320,192,169222,128,0,169545:0:0:0:0:
64,192,169383,1,0,0:0:0:0:
320,192,169706,1,0,0:0:0:0:
320,192,169867,128,0,170190:0:0:0:0:
64,192,170028,1,0,0:0:0:0:
192,192,170351,1,0,0:0:0:0:
320,192,170351,1,0,0:0:0:0:
448,192,170512,1,0,0:0:0:0:
64,192,170512,1,0,0:0:0:0:
320,192,170673,1,0,0:0:0:0:
320,192,170996,1,0,0:0:0:0:
64,192,171157,128,0,171480:0:0:0:0:
320,192,171319,1,0,0:0:0:0:
320,192,171641,1,0,0:0:0:0:
64,192,171802,128,0,172125:0:0:0:0:
320,192,171964,1,0,0:0:0:0:
320,192,172286,1,0,0:0:0:0:
64,192,172447,128,0,172770:0:0:0:0:
320,192,172609,1,0,0:0:0:0:
320,192,172931,1,0,0:0:0:0:
64,192,173092,128,0,173415:0:0:0:0:
320,192,173254,1,0,0:0:0:0:
320,192,173576,1,0,0:0:0:0:
64,192,173737,128,0,174060:0:0:0:0:
320,192,173899,1,0,0:0:0:0:
320,192,174221,1,0,0:0:0:0:
448,192,174382,1,0,0:0:0:0:
320,192,174544,1,0,0:0:0:0:
192,192,174705,1,0,0:0:0:0:
64,192,175028,1,0,0:0:0:0:
192,192,175028,1,0,0:0:0:0:
320,192,175189,1,0,0:0:0:0:
320,192,175511,1,0,0:0:0:0:
192,192,175592,1,0,0:0:0:0:
64,192,175673,1,0,0:0:0:0:
448,192,175834,1,0,0:0:0:0:
64,192,176156,1,0,0:0:0:0:
320,192,176318,1,0,0:0:0:0:
448,192,176318,1,0,0:0:0:0:
64,192,176479,1,0,0:0:0:0:
64,192,176801,1,0,0:0:0:0:
320,192,176963,1,0,0:0:0:0:
448,192,176963,1,0,0:0:0:0:
64,192,177124,1,0,0:0:0:0:
64,192,177446,1,0,0:0:0:0:
320,192,177608,1,0,0:0:0:0:
448,192,177608,1,0,0:0:0:0:
64,192,177769,1,0,0:0:0:0:
64,192,178092,1,0,0:0:0:0:
320,192,178253,1,0,0:0:0:0:
448,192,178253,1,0,0:0:0:0:
64,192,178414,1,0,0:0:0:0:
64,192,178737,1,0,0:0:0:0:
320,192,178898,1,0,0:0:0:0:
448,192,178898,1,0,0:0:0:0:
64,192,179059,1,0,0:0:0:0:
64,192,179382,1,0,0:0:0:0:
320,192,179543,1,0,0:0:0:0:
448,192,179543,1,0,0:0:0:0:
64,192,179704,1,0,0:0:0:0:
64,192,180027,1,0,0:0:0:0:
320,192,180188,1,0,0:0:0:0:
448,192,180188,1,0,0:0:0:0:
64,192,180349,1,0,0:0:0:0:
448,192,180672,1,0,0:0:0:0:
320,192,180672,1,0,0:0:0:0:
192,192,180833,1,0,0:0:0:0:
64,192,180833,1,0,0:0:0:0:
320,192,180994,1,0,0:0:0:0:
192,192,181317,1,0,0:0:0:0:
320,192,181478,1,0,0:0:0:0:
448,192,181478,1,0,0:0:0:0:
64,192,181639,1,0,0:0:0:0:
192,192,181639,1,0,0:0:0:0:
192,192,181962,1,0,0:0:0:0:
320,192,182123,1,0,0:0:0:0:
448,192,182123,1,0,0:0:0:0:
192,192,182284,1,0,0:0:0:0:
64,192,182284,1,0,0:0:0:0:
192,192,182607,1,0,0:0:0:0:
320,192,182768,1,0,0:0:0:0:
448,192,182768,1,0,0:0:0:0:
64,192,182929,1,0,0:0:0:0:
192,192,182929,1,0,0:0:0:0:
192,192,183252,1,0,0:0:0:0:
320,192,183413,1,0,0:0:0:0:
448,192,183413,1,0,0:0:0:0:
192,192,183574,1,0,0:0:0:0:
64,192,183574,1,0,0:0:0:0:
192,192,183897,1,0,0:0:0:0:
320,192,184058,1,0,0:0:0:0:
448,192,184058,1,0,0:0:0:0:
192,192,184219,1,0,0:0:0:0:
64,192,184219,1,0,0:0:0:0:
192,192,184542,1,0,0:0:0:0:
320,192,184542,1,0,0:0:0:0:
448,192,184703,1,0,0:0:0:0:
64,192,184703,1,0,0:0:0:0:
448,192,185026,1,0,0:0:0:0:
320,192,185187,1,0,0:0:0:0:
192,192,185348,1,0,0:0:0:0:
64,192,185510,1,0,0:0:0:0:
448,192,185671,1,0,0:0:0:0:
320,192,185671,1,0,0:0:0:0:
64,192,185993,128,0,191154:0:0:0:0:
448,192,185993,128,0,191154:0:0:0:0:
192,192,191154,1,0,0:0:0:0:
320,192,191154,1,0,0:0:0:0:
192,192,191476,1,0,0:0:0:0:
448,192,191799,1,0,0:0:0:0:
64,192,192121,1,0,0:0:0:0:
320,192,192444,1,0,0:0:0:0:
64,192,192766,1,0,0:0:0:0:
320,192,193089,1,0,0:0:0:0:
64,192,193411,1,0,0:0:0:0:
448,192,193734,1,0,0:0:0:0:
192,192,194056,1,0,0:0:0:0:
320,192,194379,1,0,0:0:0:0:
64,192,194701,1,0,0:0:0:0:
448,192,195024,1,0,0:0:0:0:
192,192,195340,1,0,0:0:0:0:
320,192,195669,1,0,0:0:0:0:
64,192,195985,1,0,0:0:0:0:
320,192,196314,1,0,0:0:0:0:
448,192,196314,1,0,0:0:0:0:
192,192,196630,1,0,0:0:0:0:
320,192,196959,1,0,0:0:0:0:
64,192,197275,1,0,0:0:0:0:
448,192,197604,1,0,0:0:0:0:
192,192,197920,1,0,0:0:0:0:
64,192,198249,1,0,0:0:0:0:
320,192,198565,1,0,0:0:0:0:
64,192,198894,1,0,0:0:0:0:
448,192,199210,1,0,0:0:0:0:
320,192,199539,1,0,0:0:0:0:
64,192,199855,1,0,0:0:0:0:
320,192,200184,1,0,0:0:0:0:
448,192,200184,1,0,0:0:0:0:
64,192,200500,1,0,0:0:0:0:
320,192,200661,1,0,0:0:0:0:
448,192,200661,1,0,0:0:0:0:
192,192,201145,1,0,0:0:0:0:
320,192,201145,1,0,0:0:0:0:
64,192,201474,1,0,0:0:0:0:
448,192,201474,1,0,0:0:0:0:
192,192,201790,1,0,0:0:0:0:
64,192,202113,1,0,0:0:0:0:
448,192,202435,1,0,0:0:0:0:
192,192,202758,1,0,0:0:0:0:
320,192,203080,1,0,0:0:0:0:
64,192,203403,1,0,0:0:0:0:
448,192,203725,1,0,0:0:0:0:
192,192,204048,1,0,0:0:0:0:
320,192,204370,1,0,0:0:0:0:
64,192,204693,1,0,0:0:0:0:
448,192,205015,1,0,0:0:0:0:
192,192,205338,1,0,0:0:0:0:
320,192,205661,1,0,0:0:0:0:
64,192,205983,1,0,0:0:0:0:
320,192,206332,1,12,0:0:0:0:
448,192,206655,1,0,0:0:0:0:
64,192,206655,1,0,0:0:0:0:
320,192,206951,1,0,0:0:0:0:
64,192,207273,1,0,0:0:0:0:
320,192,207596,1,0,0:0:0:0:
64,192,207918,1,0,0:0:0:0:
448,192,208241,1,0,0:0:0:0:
192,192,208563,1,0,0:0:0:0:
320,192,208886,1,0,0:0:0:0:
64,192,209208,1,0,0:0:0:0:
448,192,209370,1,0,0:0:0:0:
64,192,209531,1,0,0:0:0:0:
448,192,209692,1,0,0:0:0:0:
192,192,209853,1,0,0:0:0:0:
320,192,210015,1,0,0:0:0:0:
192,192,210176,1,0,0:0:0:0:
320,192,210337,1,0,0:0:0:0:
64,192,210498,1,0,0:0:0:0:
448,192,210660,1,0,0:0:0:0:
192,192,210821,1,0,0:0:0:0:
448,192,210982,1,0,0:0:0:0:
320,192,211143,1,0,0:0:0:0:
192,192,211224,1,0,0:0:0:0:
64,192,211305,1,0,0:0:0:0:
192,192,211385,1,0,0:0:0:0:
320,192,211466,1,0,0:0:0:0:
448,192,211547,1,0,0:0:0:0:
320,192,211627,1,0,0:0:0:0:
192,192,211788,1,0,0:0:0:0:
64,192,211788,1,0,0:0:0:0:
320,192,211977,1,0,0:0:0:0:
448,192,212272,1,0,0:0:0:0:
64,192,212434,1,0,0:0:0:0:
192,192,212434,1,0,0:0:0:0:
448,192,212595,1,0,0:0:0:0:
448,192,212917,1,0,0:0:0:0:
64,192,213079,1,0,0:0:0:0:
192,192,213079,1,0,0:0:0:0:
448,192,213240,1,0,0:0:0:0:
448,192,213562,1,0,0:0:0:0:
64,192,213724,1,0,0:0:0:0:
192,192,213724,1,0,0:0:0:0:
448,192,213885,1,0,0:0:0:0:
448,192,214207,1,0,0:0:0:0:
64,192,214369,1,0,0:0:0:0:
192,192,214369,1,0,0:0:0:0:
448,192,214530,1,0,0:0:0:0:
448,192,214852,1,0,0:0:0:0:
64,192,215014,1,0,0:0:0:0:
192,192,215014,1,0,0:0:0:0:
448,192,215175,1,0,0:0:0:0:
448,192,215498,1,0,0:0:0:0:
64,192,215659,1,0,0:0:0:0:
192,192,215659,1,0,0:0:0:0:
448,192,215820,1,0,0:0:0:0:
448,192,216143,1,0,0:0:0:0:
64,192,216304,1,0,0:0:0:0:
192,192,216304,1,0,0:0:0:0:
448,192,216465,1,0,0:0:0:0:
192,192,216788,1,0,0:0:0:0:
320,192,216788,1,0,0:0:0:0:
448,192,216949,1,0,0:0:0:0:
64,192,216949,1,0,0:0:0:0:
320,192,217110,1,0,0:0:0:0:
64,192,217433,1,0,0:0:0:0:
320,192,217594,1,0,0:0:0:0:
448,192,217594,1,0,0:0:0:0:
64,192,217755,1,0,0:0:0:0:
64,192,218078,1,0,0:0:0:0:
320,192,218239,1,0,0:0:0:0:
448,192,218239,1,0,0:0:0:0:
64,192,218400,1,0,0:0:0:0:
64,192,218723,1,0,0:0:0:0:
320,192,218884,1,0,0:0:0:0:
448,192,218884,1,0,0:0:0:0:
64,192,219045,1,0,0:0:0:0:
64,192,219368,1,0,0:0:0:0:
320,192,219529,1,0,0:0:0:0:
448,192,219529,1,0,0:0:0:0:
64,192,219690,1,0,0:0:0:0:
64,192,220013,1,0,0:0:0:0:
320,192,220174,1,0,0:0:0:0:
448,192,220174,1,0,0:0:0:0:
64,192,220335,1,0,0:0:0:0:
64,192,220658,1,0,0:0:0:0:
320,192,220819,1,0,0:0:0:0:
448,192,220819,1,0,0:0:0:0:
64,192,220980,1,0,0:0:0:0:
192,192,220980,1,0,0:0:0:0:
320,192,221142,1,0,0:0:0:0:
448,192,221142,1,0,0:0:0:0:
192,192,221464,128,0,222109:0:0:0:0:
320,192,221464,128,0,222109:0:0:0:0:
448,192,222109,1,0,0:0:0:0:
64,192,222109,1,0,0:0:0:0:
320,192,222271,1,0,0:0:0:0:
64,192,222438,1,0,0:0:0:0:
448,192,222761,1,0,0:0:0:0:
64,192,223003,1,0,0:0:0:0:
448,192,223245,1,0,0:0:0:0:
192,192,223245,1,0,0:0:0:0:
64,192,223587,1,0,0:0:0:0:
320,192,223729,1,0,0:0:0:0:
192,192,224071,1,0,0:0:0:0:
320,192,224212,1,0,0:0:0:0:
64,192,224374,1,0,0:0:0:0:
320,192,224696,1,0,0:0:0:0:
64,192,224857,1,0,0:0:0:0:
448,192,225019,1,0,0:0:0:0:
192,192,225341,1,0,0:0:0:0:
448,192,225583,1,0,0:0:0:0:
64,192,225825,1,0,0:0:0:0:
320,192,225825,1,0,0:0:0:0:
448,192,226168,1,0,0:0:0:0:
192,192,226309,1,0,0:0:0:0:
320,192,226651,1,0,0:0:0:0:
448,192,226793,1,0,0:0:0:0:
64,192,226954,1,0,0:0:0:0:
320,192,227276,1,0,0:0:0:0:
64,192,227438,1,0,0:0:0:0:
448,192,227599,1,0,0:0:0:0:
64,192,227921,1,0,0:0:0:0:
448,192,228163,1,0,0:0:0:0:
64,192,228405,1,0,0:0:0:0:
320,192,228405,1,0,0:0:0:0:
448,192,228748,1,0,0:0:0:0:
192,192,228889,1,0,0:0:0:0:
64,192,229232,1,0,0:0:0:0:
320,192,229373,1,0,0:0:0:0:
64,192,229534,1,0,0:0:0:0:
448,192,229850,1,0,0:0:0:0:
64,192,230018,1,0,0:0:0:0:
192,192,230179,1,0,0:0:0:0:
448,192,230502,1,0,0:0:0:0:
320,192,230683,1,0,0:0:0:0:
64,192,230683,1,0,0:0:0:0:
192,192,230985,1,0,0:0:0:0:
448,192,231147,1,0,0:0:0:0:
64,192,231167,1,0,0:0:0:0:
320,192,231469,1,0,0:0:0:0:
64,192,231630,1,0,0:0:0:0:
448,192,231792,1,0,0:0:0:0:
192,192,231953,1,0,0:0:0:0:
320,192,232114,1,0,0:0:0:0:
448,192,232437,1,0,0:0:0:0:
64,192,232437,1,0,0:0:0:0:
320,192,245358,5,0,0:0:0:0:
192,192,245358,1,0,0:0:0:0:
192,192,245680,1,0,0:0:0:0:
320,192,245680,1,0,0:0:0:0:
64,192,245842,1,0,0:0:0:0:
448,192,245842,1,0,0:0:0:0:
192,192,246164,1,0,0:0:0:0:
320,192,246164,1,0,0:0:0:0:
64,192,246325,1,0,0:0:0:0:
448,192,246325,1,0,0:0:0:0:
192,192,246648,128,0,247938:0:0:0:0:
320,192,246648,128,0,247938:0:0:0:0:
64,192,247132,1,0,0:0:0:0:
448,192,247293,1,0,0:0:0:0:
448,192,247938,1,0,0:0:0:0:
64,192,247938,1,0,0:0:0:0:
320,192,248099,1,0,0:0:0:0:
192,192,248099,1,0,0:0:0:0:
448,192,248422,1,0,0:0:0:0:
64,192,248583,1,0,0:0:0:0:
192,192,248583,1,0,0:0:0:0:
448,192,248744,1,0,0:0:0:0:
448,192,249067,1,0,0:0:0:0:
64,192,249228,1,0,0:0:0:0:
192,192,249228,1,0,0:0:0:0:
448,192,249389,1,0,0:0:0:0:
448,192,249712,1,0,0:0:0:0:
192,192,249873,1,0,0:0:0:0:
64,192,249873,1,0,0:0:0:0:
448,192,250034,1,0,0:0:0:0:
448,192,250357,1,0,0:0:0:0:
64,192,250518,1,0,0:0:0:0:
192,192,250518,1,0,0:0:0:0:
448,192,250679,1,0,0:0:0:0:
448,192,251002,1,0,0:0:0:0:
64,192,251163,1,0,0:0:0:0:
192,192,251163,1,0,0:0:0:0:
448,192,251324,1,0,0:0:0:0:
448,192,251647,1,0,0:0:0:0:
64,192,251808,1,0,0:0:0:0:
192,192,251808,1,0,0:0:0:0:
448,192,251970,1,0,0:0:0:0:
448,192,252292,1,0,0:0:0:0:
64,192,252453,1,0,0:0:0:0:
192,192,252453,1,0,0:0:0:0:
448,192,252615,1,0,0:0:0:0:
192,192,252937,1,0,0:0:0:0:
320,192,252937,1,0,0:0:0:0:
64,192,253098,1,0,0:0:0:0:
448,192,253098,1,0,0:0:0:0:
192,192,253260,1,0,0:0:0:0:
320,192,253260,1,0,0:0:0:0:
64,192,253582,1,0,0:0:0:0:
320,192,253743,1,0,0:0:0:0:
448,192,253743,1,0,0:0:0:0:
64,192,253905,1,0,0:0:0:0:
64,192,254227,1,0,0:0:0:0:
320,192,254388,1,0,0:0:0:0:
448,192,254388,1,0,0:0:0:0:
64,192,254550,1,0,0:0:0:0:
64,192,254872,1,0,0:0:0:0:
320,192,255034,1,0,0:0:0:0:
448,192,255034,1,0,0:0:0:0:
64,192,255195,1,0,0:0:0:0:
64,192,255517,1,0,0:0:0:0:
320,192,255679,1,0,0:0:0:0:
448,192,255679,1,0,0:0:0:0:
64,192,255840,1,0,0:0:0:0:
64,192,256162,1,0,0:0:0:0:
320,192,256324,1,0,0:0:0:0:
448,192,256324,1,0,0:0:0:0:
64,192,256485,1,0,0:0:0:0:
64,192,256807,1,0,0:0:0:0:
320,192,256969,1,0,0:0:0:0:
448,192,256969,1,0,0:0:0:0:
64,192,257130,1,0,0:0:0:0:
192,192,257130,1,0,0:0:0:0:
320,192,257291,1,0,0:0:0:0:
448,192,257291,1,0,0:0:0:0:
192,192,257614,1,0,0:0:0:0:
320,192,257614,1,0,0:0:0:0:
320,192,258097,1,0,0:0:0:0:
192,192,258178,1,0,0:0:0:0:
64,192,258259,1,0,0:0:0:0:
320,192,258420,1,0,0:0:0:0:
448,192,258420,1,0,0:0:0:0:
64,192,258743,1,0,0:0:0:0:
192,192,258743,1,0,0:0:0:0:
448,192,258904,1,0,0:0:0:0:
64,192,259065,1,0,0:0:0:0:
192,192,259065,1,0,0:0:0:0:
64,192,259388,1,0,0:0:0:0:
192,192,259388,1,0,0:0:0:0:
448,192,259549,1,0,0:0:0:0:
64,192,259710,1,0,0:0:0:0:
192,192,259710,1,0,0:0:0:0:
64,192,260033,1,0,0:0:0:0:
192,192,260033,1,0,0:0:0:0:
448,192,260194,1,0,0:0:0:0:
64,192,260355,1,0,0:0:0:0:
192,192,260355,1,0,0:0:0:0:
64,192,260678,1,0,0:0:0:0:
192,192,260678,1,0,0:0:0:0:
448,192,260839,1,0,0:0:0:0:
64,192,261000,1,0,0:0:0:0:
192,192,261000,1,0,0:0:0:0:
64,192,261323,1,0,0:0:0:0:
192,192,261323,1,0,0:0:0:0:
448,192,261484,1,0,0:0:0:0:
64,192,261645,1,0,0:0:0:0:
192,192,261645,1,0,0:0:0:0:
64,192,261968,1,0,0:0:0:0:
192,192,261968,1,0,0:0:0:0:
448,192,262129,1,0,0:0:0:0:
64,192,262290,1,0,0:0:0:0:
192,192,262290,1,0,0:0:0:0:
64,192,262613,1,0,0:0:0:0:
192,192,262613,1,0,0:0:0:0:
448,192,262774,1,0,0:0:0:0:
64,192,262935,1,0,0:0:0:0:
192,192,262935,1,0,0:0:0:0:
192,192,263258,1,0,0:0:0:0:
320,192,263258,1,0,0:0:0:0:
64,192,263419,1,0,0:0:0:0:
448,192,263419,1,0,0:0:0:0:
320,192,263580,1,0,0:0:0:0:
192,192,263903,1,0,0:0:0:0:
448,192,264064,1,0,0:0:0:0:
64,192,264225,1,0,0:0:0:0:
192,192,264225,1,0,0:0:0:0:
192,192,264548,1,0,0:0:0:0:
448,192,264709,1,0,0:0:0:0:
64,192,264870,1,0,0:0:0:0:
192,192,264870,1,0,0:0:0:0:
192,192,265193,1,0,0:0:0:0:
448,192,265354,1,0,0:0:0:0:
64,192,265516,1,0,0:0:0:0:
192,192,265516,1,0,0:0:0:0:
192,192,265838,1,0,0:0:0:0:
448,192,265999,1,0,0:0:0:0:
64,192,266161,1,0,0:0:0:0:
192,192,266161,1,0,0:0:0:0:
192,192,266483,1,0,0:0:0:0:
448,192,266644,1,0,0:0:0:0:
64,192,266806,1,0,0:0:0:0:
192,192,266806,1,0,0:0:0:0:
192,192,267128,1,0,0:0:0:0:
448,192,267289,1,0,0:0:0:0:
64,192,267451,1,0,0:0:0:0:
192,192,267451,1,0,0:0:0:0:
192,192,267773,1,0,0:0:0:0:
448,192,267934,1,0,0:0:0:0:
64,192,268096,1,0,0:0:0:0:
192,192,268096,1,0,0:0:0:0:
448,192,268257,1,0,0:0:0:0:
320,192,268257,1,0,0:0:0:0:
192,192,268418,1,0,0:0:0:0:
64,192,268418,1,0,0:0:0:0:
64,192,268579,1,0,0:0:0:0:
448,192,268579,1,0,0:0:0:0:
320,192,268741,1,0,0:0:0:0:
64,192,269063,1,0,0:0:0:0:
448,192,269204,1,0,0:0:0:0:
320,192,269204,1,0,0:0:0:0:
64,192,269386,1,0,0:0:0:0:
448,192,269708,1,0,0:0:0:0:
64,192,269870,1,0,0:0:0:0:
192,192,269870,1,0,0:0:0:0:
448,192,270031,1,0,0:0:0:0:
64,192,270353,1,0,0:0:0:0:
448,192,270515,1,0,0:0:0:0:
320,192,270515,1,0,0:0:0:0:
64,192,270676,1,0,0:0:0:0:
448,192,270998,1,0,0:0:0:0:
64,192,271160,1,0,0:0:0:0:
192,192,271160,1,0,0:0:0:0:
448,192,271321,1,0,0:0:0:0:
64,192,271643,1,0,0:0:0:0:
320,192,271805,1,0,0:0:0:0:
448,192,271805,1,0,0:0:0:0:
64,192,271966,1,0,0:0:0:0:
448,192,272289,1,0,0:0:0:0:
64,192,272450,1,0,0:0:0:0:
192,192,272450,1,0,0:0:0:0:
448,192,272611,1,0,0:0:0:0:
64,192,272934,1,0,0:0:0:0:
320,192,273095,1,0,0:0:0:0:
448,192,273095,1,0,0:0:0:0:
64,192,273256,1,0,0:0:0:0:
192,192,273579,1,0,0:0:0:0:
320,192,273579,1,0,0:0:0:0:
64,192,273740,1,0,0:0:0:0:
448,192,273740,1,0,0:0:0:0:
192,192,273901,1,0,0:0:0:0:
320,192,273901,1,0,0:0:0:0:
448,192,274224,1,0,0:0:0:0:
192,192,274385,1,0,0:0:0:0:
448,192,274546,1,0,0:0:0:0:
64,192,274869,1,0,0:0:0:0:
320,192,275030,1,0,0:0:0:0:
64,192,275191,1,0,0:0:0:0:
448,192,275514,1,0,0:0:0:0:
192,192,275675,1,0,0:0:0:0:
448,192,275836,1,0,0:0:0:0:
64,192,276159,1,0,0:0:0:0:
320,192,276320,1,0,0:0:0:0:
64,192,276481,1,0,0:0:0:0:
448,192,276804,1,0,0:0:0:0:
192,192,276965,1,0,0:0:0:0:
448,192,277126,1,0,0:0:0:0:
64,192,277449,1,0,0:0:0:0:
320,192,277610,1,0,0:0:0:0:
64,192,277691,1,0,0:0:0:0:
192,192,277771,1,0,0:0:0:0:
320,192,277852,1,0,0:0:0:0:
448,192,277933,1,0,0:0:0:0:
320,192,278013,1,0,0:0:0:0:
192,192,278094,1,0,0:0:0:0:
64,192,278175,1,0,0:0:0:0:
448,192,278255,1,0,0:0:0:0:
320,192,278336,1,0,0:0:0:0:
192,192,278416,1,0,0:0:0:0:
64,192,278497,1,0,0:0:0:0:
448,192,278578,1,0,0:0:0:0:
320,192,278658,1,0,0:0:0:0:
192,192,278739,1,0,0:0:0:0:
64,192,278820,1,0,0:0:0:0:
448,192,278900,1,0,0:0:0:0:
192,192,279223,1,0,0:0:0:0:
448,192,279545,1,0,0:0:0:0:
64,192,279868,1,0,0:0:0:0:
448,192,280190,1,0,0:0:0:0:
320,192,280190,1,0,0:0:0:0:
192,192,280513,1,0,0:0:0:0:
320,192,280835,1,0,0:0:0:0:
64,192,281158,1,0,0:0:0:0:
448,192,281480,1,0,0:0:0:0:
320,192,281480,1,0,0:0:0:0:
192,192,281803,1,0,0:0:0:0:
320,192,282125,1,0,0:0:0:0:
64,192,282448,1,0,0:0:0:0:
448,192,282771,1,0,0:0:0:0:
320,192,282771,1,0,0:0:0:0:
192,192,283093,1,0,0:0:0:0:
448,192,283416,1,0,0:0:0:0:
64,192,283738,1,0,0:0:0:0:
192,192,284061,1,0,0:0:0:0:
320,192,284061,1,0,0:0:0:0:
64,192,284383,1,0,0:0:0:0:
448,192,284706,1,0,0:0:0:0:
64,192,285028,1,0,0:0:0:0:
320,192,285351,1,0,0:0:0:0:
192,192,285351,1,0,0:0:0:0:
64,192,285673,1,0,0:0:0:0:
320,192,285996,1,0,0:0:0:0:
64,192,286318,1,0,0:0:0:0:
192,192,286641,1,0,0:0:0:0:
320,192,286641,1,0,0:0:0:0:
448,192,286963,1,0,0:0:0:0:
64,192,287286,1,0,0:0:0:0:
448,192,287608,1,0,0:0:0:0:
192,192,287931,1,0,0:0:0:0:
448,192,288253,1,0,0:0:0:0:
64,192,288576,1,0,0:0:0:0:
320,192,288898,1,0,0:0:0:0:
448,192,289302,128,0,296962:0:0:0:0:
64,192,289302,128,0,296962:0:0:0:0:
192,192,299542,1,0,0:0:0:0:
320,192,299542,1,0,0:0:0:0:
320,192,300832,1,0,0:0:0:0:
192,192,300832,1,0,0:0:0:0:
192,192,302122,1,0,0:0:0:0:
320,192,302122,1,0,0:0:0:0:
192,192,303412,1,0,0:0:0:0:
320,192,303412,1,0,0:0:0:0:
192,192,304702,128,0,305267:0:0:0:0:
320,192,305267,128,0,305750:0:0:0:0:
448,192,305750,128,0,307363:0:0:0:0:
320,192,307363,128,0,307847:0:0:0:0:
192,192,307847,128,0,308331:0:0:0:0:
64,192,308331,128,0,309862:0:0:0:0:
192,192,310104,1,0,0:0:0:0:
320,192,310185,1,0,0:0:0:0:
448,192,310266,128,0,316313:0:0:0:0:
