osu file format v14

[General]
AudioFilename: audio.mp3
AudioLeadIn: 0
PreviewTime: 144809
Countdown: 0
SampleSet: Soft
StackLeniency: 0.7
Mode: 3
LetterboxInBreaks: 0
SpecialStyle: 0
WidescreenStoryboard: 0

[Editor]
DistanceSpacing: 1.1
BeatDivisor: 4
GridSize: 4
TimelineZoom: 1.9

[Metadata]
Title:C.h.a.o.s.m.y.t.h.
TitleUnicode:C.h.a.o.s.m.y.t.h.
Artist:ONE OK ROCK
ArtistUnicode:ONE OK ROCK
Creator:Ryon_Gaming
Version:Hard
Source:
Tags:ONE OK ROCK, Taka, C.h.a.o.s.m.y.t.h., Zankyō Reference, 残響リファレンス
BeatmapID:1157787
BeatmapSetID:533110

[Difficulty]
HPDrainRate:8
CircleSize:4
OverallDifficulty:8
ApproachRate:5
SliderMultiplier:1.4
SliderTickRate:2

[Events]
//Background and Video events
0,0,"ONE OK ROCK.jpg",0,0
//Break Periods
//Storyboard Layer 0 (Background)
//Storyboard Layer 1 (Fail)
//Storyboard Layer 2 (Pass)
//Storyboard Layer 3 (Foreground)
//Storyboard Sound Samples

[TimingPoints]
20882,322.58064516129,4,2,0,30,1,0
62164,-100,4,2,0,30,0,1
103447,-100,4,2,0,30,0,0
144730,-100,4,2,0,30,0,1
186012,-100,4,2,0,30,0,0
247938,-100,4,2,0,30,0,1
289221,-100,4,2,0,30,0,0

[HitObjects]
448,192,20881,128,0,21204:0:0:0:0:
64,192,20881,128,0,21204:0:0:0:0:
192,192,21204,5,0,0:0:0:0:
320,192,21365,5,0,0:0:0:0:
448,192,21527,5,0,0:0:0:0:
192,192,21527,5,0,0:0:0:0:
320,192,21688,5,0,0:0:0:0:
192,192,21849,5,0,0:0:0:0:
448,192,22011,128,0,22333:0:0:0:0:
320,192,22011,128,0,22333:0:0:0:0:
64,192,22333,1,0,0:0:0:0:
320,192,22494,5,0,0:0:0:0:
192,192,22656,1,0,0:0:0:0:
320,192,22817,5,0,0:0:0:0:
448,192,22817,128,0,22978:0:0:0:0:
64,192,22978,128,0,22978:0:0:0:0:
448,192,23140,5,0,0:0:0:0:
64,192,23301,1,0,0:0:0:0:
192,192,23462,128,0,23785:0:0:0:0:
448,192,23462,128,0,23785:0:0:0:0:
64,192,23785,5,0,0:0:0:0:
192,192,23946,5,0,0:0:0:0:
64,192,24107,5,0,0:0:0:0:
320,192,24107,5,0,0:0:0:0:
192,192,24269,5,0,0:0:0:0:
64,192,24430,5,0,0:0:0:0:
192,192,24591,128,0,24914:0:0:0:0:
448,192,24591,128,0,24914:0:0:0:0:
320,192,24914,5,0,0:0:0:0:
64,192,25075,1,0,0:0:0:0:
448,192,25236,1,0,0:0:0:0:
320,192,25398,5,0,0:0:0:0:
192,192,25398,128,0,25559:0:0:0:0:
64,192,25559,5,0,0:0:0:0:
320,192,25720,5,0,0:0:0:0:
64,192,25881,5,0,0:0:0:0:
320,192,26043,128,0,26365:0:0:0:0:
192,192,26043,128,0,26365:0:0:0:0:
448,192,26365,5,0,0:0:0:0:
320,192,26527,5,0,0:0:0:0:
448,192,26688,5,0,0:0:0:0:
64,192,26688,5,0,0:0:0:0:
320,192,26849,5,0,0:0:0:0:
64,192,27011,5,0,0:0:0:0:
448,192,27172,128,0,27494:0:0:0:0:
320,192,27172,128,0,27494:0:0:0:0:
64,192,27494,5,0,0:0:0:0:
320,192,27656,5,0,0:0:0:0:
192,192,27817,1,0,0:0:0:0:
320,192,27978,5,0,0:0:0:0:
448,192,27978,128,0,28140:0:0:0:0:
192,192,28140,1,0,0:0:0:0:
64,192,28301,5,0,0:0:0:0:
320,192,28462,5,0,0:0:0:0:
64,192,28623,128,0,28946:0:0:0:0:
320,192,28623,128,0,28946:0:0:0:0:
448,192,28946,5,0,0:0:0:0:
192,192,29107,5,0,0:0:0:0:
448,192,29269,5,0,0:0:0:0:
64,192,29269,5,0,0:0:0:0:
192,192,29430,5,0,0:0:0:0:
64,192,29591,5,0,0:0:0:0:
448,192,29752,128,0,30075:0:0:0:0:
320,192,29752,128,0,30075:0:0:0:0:
192,192,30075,5,0,0:0:0:0:
64,192,30236,5,0,0:0:0:0:
320,192,30398,1,0,0:0:0:0:
192,192,30559,5,0,0:0:0:0:
64,192,30559,128,0,30720:0:0:0:0:
448,192,30720,5,0,0:0:0:0:
192,192,30881,5,0,0:0:0:0:
448,192,31043,5,0,0:0:0:0:
192,192,31204,128,0,31527:0:0:0:0:
64,192,31204,128,0,31527:0:0:0:0:
448,192,31527,5,0,0:0:0:0:
320,192,31688,5,0,0:0:0:0:
448,192,31849,128,0,32011:0:0:0:0:
192,192,31849,128,0,32011:0:0:0:0:
320,192,32172,5,0,0:0:0:0:
64,192,32333,1,0,0:0:0:0:
320,192,32494,5,0,0:0:0:0:
448,192,32656,128,0,32817:0:0:0:0:
320,192,32978,128,0,33220:0:0:0:0:
64,192,32978,128,0,33220:0:0:0:0:
448,192,33301,5,0,0:0:0:0:
192,192,33462,5,0,0:0:0:0:
448,192,33623,5,0,0:0:0:0:
192,192,33785,5,0,0:0:0:0:
448,192,33946,5,0,0:0:0:0:
192,192,34107,128,0,34269:0:0:0:0:
448,192,34430,128,0,34672:0:0:0:0:
64,192,34430,128,0,34672:0:0:0:0:
192,192,34752,5,0,0:0:0:0:
64,192,34914,5,0,0:0:0:0:
192,192,35075,5,0,0:0:0:0:
320,192,35236,128,0,35398:0:0:0:0:
192,192,35559,128,0,35801:0:0:0:0:
64,192,35559,128,0,35801:0:0:0:0:
448,192,35881,5,0,0:0:0:0:
192,192,36043,5,0,0:0:0:0:
448,192,36204,5,0,0:0:0:0:
64,192,36365,128,0,38946:0:0:0:0:
448,192,36365,128,0,36849:0:0:0:0:
192,192,36849,128,0,37333:0:0:0:0:
320,192,37333,5,0,0:0:0:0:
448,192,37333,128,0,38946:0:0:0:0:
192,192,37656,5,0,0:0:0:0:
320,192,37978,5,0,0:0:0:0:
192,192,38301,5,0,0:0:0:0:
320,192,38301,5,0,0:0:0:0:
320,192,38623,5,0,0:0:0:0:
320,192,38946,128,0,41527:0:0:0:0:
192,192,38946,128,0,39430:0:0:0:0:
64,192,39430,128,0,39914:0:0:0:0:
448,192,39914,128,0,41527:0:0:0:0:
192,192,40236,5,0,0:0:0:0:
64,192,40559,5,0,0:0:0:0:
192,192,40881,5,0,0:0:0:0:
64,192,40881,5,0,0:0:0:0:
64,192,41204,128,0,41527:0:0:0:0:
192,192,41527,5,0,0:0:0:0:
192,192,41849,1,0,0:0:0:0:
448,192,41849,1,0,0:0:0:0:
192,192,42172,5,0,0:0:0:0:
320,192,42172,1,0,0:0:0:0:
64,192,42172,1,0,0:0:0:0:
192,192,42494,128,0,42656:0:0:0:0:
320,192,42494,128,0,42656:0:0:0:0:
64,192,42817,128,0,42978:0:0:0:0:
448,192,42817,128,0,42978:0:0:0:0:
192,192,43140,128,0,43301:0:0:0:0:
448,192,43140,128,0,43301:0:0:0:0:
448,192,43462,5,0,0:0:0:0:
320,192,43462,128,0,43623:0:0:0:0:
64,192,43462,128,0,43623:0:0:0:0:
192,192,43785,1,0,0:0:0:0:
448,192,43785,1,0,0:0:0:0:
320,192,44107,1,0,0:0:0:0:
448,192,44107,1,0,0:0:0:0:
64,192,44430,1,0,0:0:0:0:
192,192,44430,1,0,0:0:0:0:
448,192,44752,5,0,0:0:0:0:
320,192,44752,1,0,0:0:0:0:
64,192,44752,1,0,0:0:0:0:
448,192,45075,128,0,45236:0:0:0:0:
192,192,45075,128,0,45236:0:0:0:0:
320,192,45398,128,0,45559:0:0:0:0:
64,192,45398,128,0,45559:0:0:0:0:
448,192,45720,128,0,45881:0:0:0:0:
64,192,45720,128,0,45881:0:0:0:0:
64,192,46043,5,0,0:0:0:0:
320,192,46043,128,0,46204:0:0:0:0:
192,192,46043,128,0,46204:0:0:0:0:
64,192,46365,128,0,46688:0:0:0:0:
448,192,46365,128,0,46688:0:0:0:0:
192,192,46688,5,0,0:0:0:0:
192,192,47011,1,0,0:0:0:0:
448,192,47011,1,0,0:0:0:0:
64,192,47333,5,0,0:0:0:0:
320,192,47333,1,0,0:0:0:0:
448,192,47333,1,0,0:0:0:0:
64,192,47656,128,0,47817:0:0:0:0:
320,192,47656,128,0,47817:0:0:0:0:
192,192,47978,128,0,48140:0:0:0:0:
64,192,47978,128,0,48140:0:0:0:0:
320,192,48301,128,0,48462:0:0:0:0:
64,192,48301,128,0,48462:0:0:0:0:
64,192,48623,5,0,0:0:0:0:
448,192,48623,128,0,48785:0:0:0:0:
192,192,48623,128,0,48785:0:0:0:0:
192,192,48946,1,0,0:0:0:0:
320,192,48946,1,0,0:0:0:0:
192,192,49269,1,0,0:0:0:0:
448,192,49269,1,0,0:0:0:0:
64,192,49591,1,0,0:0:0:0:
448,192,49591,1,0,0:0:0:0:
448,192,49914,5,0,0:0:0:0:
192,192,49914,1,0,0:0:0:0:
320,192,49914,1,0,0:0:0:0:
320,192,50236,128,0,50398:0:0:0:0:
64,192,50236,128,0,50398:0:0:0:0:
448,192,50559,128,0,50720:0:0:0:0:
192,192,50559,128,0,50720:0:0:0:0:
320,192,50881,128,0,51043:0:0:0:0:
448,192,50881,128,0,51043:0:0:0:0:
448,192,51204,5,0,0:0:0:0:
192,192,51204,128,0,51365:0:0:0:0:
320,192,51204,128,0,51365:0:0:0:0:
64,192,51527,128,0,51849:0:0:0:0:
320,192,51527,128,0,51849:0:0:0:0:
448,192,51849,5,0,0:0:0:0:
448,192,52172,128,0,52333:0:0:0:0:
320,192,52172,128,0,52333:0:0:0:0:
64,192,52494,5,0,0:0:0:0:
192,192,52494,5,0,0:0:0:0:
320,192,52817,128,0,52978:0:0:0:0:
448,192,52817,128,0,52978:0:0:0:0:
64,192,53140,128,0,53301:0:0:0:0:
192,192,53140,128,0,53301:0:0:0:0:
320,192,53462,128,0,53623:0:0:0:0:
448,192,53462,128,0,53623:0:0:0:0:
64,192,53785,5,0,0:0:0:0:
192,192,53785,5,0,0:0:0:0:
64,192,54107,128,0,54430:0:0:0:0:
320,192,54107,128,0,54430:0:0:0:0:
448,192,54430,5,0,0:0:0:0:
192,192,54752,128,0,54914:0:0:0:0:
448,192,54752,128,0,54914:0:0:0:0:
64,192,55075,5,0,0:0:0:0:
320,192,55075,5,0,0:0:0:0:
192,192,55398,128,0,55559:0:0:0:0:
448,192,55398,128,0,55559:0:0:0:0:
320,192,55720,128,0,55881:0:0:0:0:
64,192,55720,128,0,55881:0:0:0:0:
448,192,56043,128,0,56204:0:0:0:0:
192,192,56043,128,0,56204:0:0:0:0:
64,192,56365,5,0,0:0:0:0:
320,192,56365,5,0,0:0:0:0:
192,192,56688,5,0,0:0:0:0:
448,192,57011,5,0,0:0:0:0:
64,192,57011,128,0,59591:0:0:0:0:
192,192,57333,5,0,0:0:0:0:
320,192,57333,5,0,0:0:0:0:
448,192,57656,5,0,0:0:0:0:
192,192,57656,5,0,0:0:0:0:
320,192,57978,5,0,0:0:0:0:
448,192,57978,5,0,0:0:0:0:
192,192,58301,5,0,0:0:0:0:
320,192,58301,5,0,0:0:0:0:
448,192,58623,5,0,0:0:0:0:
192,192,58623,5,0,0:0:0:0:
320,192,58946,5,0,0:0:0:0:
448,192,58946,5,0,0:0:0:0:
192,192,59269,5,0,0:0:0:0:
320,192,59269,5,0,0:0:0:0:
448,192,59591,1,0,0:0:0:0:
320,192,59752,1,0,0:0:0:0:
448,192,59914,1,0,0:0:0:0:
64,192,59914,1,0,0:0:0:0:
64,192,60075,1,0,0:0:0:0:
448,192,60075,1,0,0:0:0:0:
192,192,60236,1,0,0:0:0:0:
64,192,60398,1,0,0:0:0:0:
448,192,60398,1,0,0:0:0:0:
64,192,60559,1,0,0:0:0:0:
448,192,60559,1,0,0:0:0:0:
192,192,60720,1,0,0:0:0:0:
448,192,60881,1,0,0:0:0:0:
64,192,60881,1,0,0:0:0:0:
448,192,61043,128,0,61365:0:0:0:0:
64,192,61043,128,0,61365:0:0:0:0:
448,192,61527,1,0,0:0:0:0:
192,192,61527,1,0,0:0:0:0:
192,192,61688,1,0,0:0:0:0:
448,192,61688,1,0,0:0:0:0:
320,192,61849,1,0,0:0:0:0:
64,192,61849,1,0,0:0:0:0:
64,192,62011,1,0,0:0:0:0:
320,192,62011,1,0,0:0:0:0:
192,192,62172,5,0,0:0:0:0:
320,192,62172,5,0,0:0:0:0:
448,192,62494,128,0,62656:0:0:0:0:
64,192,62656,128,0,62817:0:0:0:0:
448,192,62817,128,0,62978:0:0:0:0:
64,192,62978,128,0,63301:0:0:0:0:
192,192,62978,128,0,63301:0:0:0:0:
448,192,63301,128,0,63462:0:0:0:0:
320,192,63301,128,0,63462:0:0:0:0:
448,192,63623,128,0,63785:0:0:0:0:
320,192,63623,128,0,63785:0:0:0:0:
64,192,63865,128,0,64107:0:0:0:0:
192,192,63865,128,0,64107:0:0:0:0:
320,192,64107,5,0,0:0:0:0:
448,192,64107,5,0,0:0:0:0:
192,192,64269,5,0,0:0:0:0:
320,192,64269,5,0,0:0:0:0:
64,192,64591,128,0,64752:0:0:0:0:
192,192,64591,128,0,64752:0:0:0:0:
64,192,64914,128,0,65075:0:0:0:0:
192,192,64914,128,0,65075:0:0:0:0:
320,192,65236,128,0,65398:0:0:0:0:
448,192,65236,128,0,65398:0:0:0:0:
192,192,65398,5,0,0:0:0:0:
64,192,65398,5,0,0:0:0:0:
192,192,65559,5,0,0:0:0:0:
320,192,65559,5,0,0:0:0:0:
64,192,65881,128,0,66043:0:0:0:0:
320,192,65881,128,0,66043:0:0:0:0:
192,192,66204,128,0,66365:0:0:0:0:
448,192,66204,128,0,66365:0:0:0:0:
64,192,66527,5,0,0:0:0:0:
320,192,66607,5,0,0:0:0:0:
192,192,66769,5,0,0:0:0:0:
448,192,66930,5,0,0:0:0:0:
64,192,66930,5,0,0:0:0:0:
448,192,67091,5,0,0:0:0:0:
64,192,67091,5,0,0:0:0:0:
192,192,67252,128,0,67414:0:0:0:0:
320,192,67252,128,0,67414:0:0:0:0:
64,192,67656,128,0,67817:0:0:0:0:
448,192,67817,128,0,67978:0:0:0:0:
64,192,67978,128,0,68140:0:0:0:0:
320,192,68140,128,0,68462:0:0:0:0:
448,192,68140,128,0,68462:0:0:0:0:
192,192,68462,128,0,68623:0:0:0:0:
64,192,68462,128,0,68623:0:0:0:0:
192,192,68785,128,0,68946:0:0:0:0:
64,192,68785,128,0,68946:0:0:0:0:
320,192,69027,128,0,69269:0:0:0:0:
448,192,69027,128,0,69269:0:0:0:0:
64,192,69269,5,0,0:0:0:0:
192,192,69269,5,0,0:0:0:0:
192,192,69430,5,0,0:0:0:0:
320,192,69430,5,0,0:0:0:0:
64,192,69752,128,0,69914:0:0:0:0:
192,192,69752,128,0,69914:0:0:0:0:
64,192,70075,128,0,70236:0:0:0:0:
192,192,70075,128,0,70236:0:0:0:0:
320,192,70398,128,0,70559:0:0:0:0:
448,192,70398,128,0,70559:0:0:0:0:
192,192,70559,5,0,0:0:0:0:
64,192,70559,5,0,0:0:0:0:
192,192,70720,5,0,0:0:0:0:
320,192,70720,5,0,0:0:0:0:
64,192,71043,128,0,71204:0:0:0:0:
320,192,71043,128,0,71204:0:0:0:0:
448,192,71204,5,0,0:0:0:0:
192,192,71204,5,0,0:0:0:0:
64,192,71365,5,0,0:0:0:0:
320,192,71365,5,0,0:0:0:0:
448,192,71527,5,0,0:0:0:0:
192,192,71527,5,0,0:0:0:0:
64,192,71688,5,0,0:0:0:0:
192,192,71769,5,0,0:0:0:0:
320,192,71849,5,0,0:0:0:0:
448,192,71849,5,0,0:0:0:0:
448,192,72333,5,0,0:0:0:0:
320,192,72414,5,0,0:0:0:0:
64,192,72494,128,0,72817:0:0:0:0:
192,192,72494,128,0,72817:0:0:0:0:
448,192,72656,5,0,0:0:0:0:
320,192,72656,5,0,0:0:0:0:
448,192,72978,5,0,0:0:0:0:
320,192,72978,5,0,0:0:0:0:
64,192,73140,128,0,73462:0:0:0:0:
192,192,73140,128,0,73462:0:0:0:0:
448,192,73301,5,0,0:0:0:0:
320,192,73301,5,0,0:0:0:0:
448,192,73623,5,0,0:0:0:0:
320,192,73623,5,0,0:0:0:0:
192,192,73785,128,0,74107:0:0:0:0:
64,192,73785,128,0,74107:0:0:0:0:
320,192,73946,5,0,0:0:0:0:
448,192,73946,5,0,0:0:0:0:
320,192,74269,5,0,0:0:0:0:
448,192,74269,5,0,0:0:0:0:
192,192,74430,128,0,74752:0:0:0:0:
64,192,74430,128,0,74752:0:0:0:0:
320,192,74591,5,0,0:0:0:0:
448,192,74591,5,0,0:0:0:0:
192,192,74914,5,0,0:0:0:0:
320,192,74914,5,0,0:0:0:0:
320,192,75075,128,0,75398:0:0:0:0:
448,192,75075,128,0,75398:0:0:0:0:
192,192,75236,5,0,0:0:0:0:
64,192,75236,5,0,0:0:0:0:
192,192,75559,5,0,0:0:0:0:
64,192,75559,5,0,0:0:0:0:
320,192,75720,128,0,76043:0:0:0:0:
448,192,75720,128,0,76043:0:0:0:0:
192,192,75881,5,0,0:0:0:0:
64,192,75881,5,0,0:0:0:0:
192,192,76204,5,0,0:0:0:0:
64,192,76204,5,0,0:0:0:0:
320,192,76365,128,0,76688:0:0:0:0:
448,192,76365,128,0,76688:0:0:0:0:
192,192,76527,5,0,0:0:0:0:
64,192,76527,5,0,0:0:0:0:
64,192,76849,5,0,0:0:0:0:
192,192,76849,5,0,0:0:0:0:
320,192,77011,128,0,77333:0:0:0:0:
448,192,77011,128,0,77333:0:0:0:0:
192,192,77172,5,0,0:0:0:0:
64,192,77172,5,0,0:0:0:0:
320,192,77494,5,0,0:0:0:0:
192,192,77494,5,0,0:0:0:0:
448,192,77656,128,0,78946:0:0:0:0:
64,192,77656,128,0,77978:0:0:0:0:
320,192,77817,5,0,0:0:0:0:
192,192,78140,5,0,0:0:0:0:
64,192,78301,128,0,78623:0:0:0:0:
320,192,78462,5,0,0:0:0:0:
192,192,78785,5,0,0:0:0:0:
64,192,78946,128,0,80236:0:0:0:0:
320,192,78946,128,0,79269:0:0:0:0:
448,192,79107,5,0,0:0:0:0:
192,192,79430,5,0,0:0:0:0:
320,192,79591,128,0,79914:0:0:0:0:
448,192,79752,5,0,0:0:0:0:
192,192,80075,5,0,0:0:0:0:
192,192,80236,128,0,80881:0:0:0:0:
320,192,80398,5,0,0:0:0:0:
64,192,80720,5,0,0:0:0:0:
448,192,80881,5,0,0:0:0:0:
320,192,80881,128,0,81527:0:0:0:0:
192,192,81043,5,0,0:0:0:0:
64,192,81365,5,0,0:0:0:0:
192,192,81527,5,0,0:0:0:0:
448,192,81527,128,0,82172:0:0:0:0:
320,192,81688,5,0,0:0:0:0:
64,192,82011,5,0,0:0:0:0:
192,192,82172,5,0,0:0:0:0:
320,192,82172,128,0,82817:0:0:0:0:
64,192,82333,5,0,0:0:0:0:
448,192,82494,5,0,0:0:0:0:
192,192,82656,5,0,0:0:0:0:
192,192,82817,5,0,0:0:0:0:
448,192,82817,5,0,0:0:0:0:
64,192,82817,128,0,86688:0:0:0:0:
320,192,82978,5,0,0:0:0:0:
320,192,83301,5,0,0:0:0:0:
192,192,83381,5,0,0:0:0:0:
448,192,83462,5,0,0:0:0:0:
320,192,83462,5,0,0:0:0:0:
192,192,83623,5,0,0:0:0:0:
320,192,83946,5,0,0:0:0:0:
192,192,84107,5,0,0:0:0:0:
448,192,84107,5,0,0:0:0:0:
320,192,84269,5,0,0:0:0:0:
192,192,84591,5,0,0:0:0:0:
320,192,84672,5,0,0:0:0:0:
448,192,84752,5,0,0:0:0:0:
192,192,84752,5,0,0:0:0:0:
320,192,84914,5,0,0:0:0:0:
448,192,85236,5,0,0:0:0:0:
192,192,85398,5,0,0:0:0:0:
320,192,85398,5,0,0:0:0:0:
320,192,85559,5,0,0:0:0:0:
320,192,85881,5,0,0:0:0:0:
192,192,85962,5,0,0:0:0:0:
448,192,86043,5,0,0:0:0:0:
320,192,86043,5,0,0:0:0:0:
192,192,86204,5,0,0:0:0:0:
448,192,86527,5,0,0:0:0:0:
320,192,86688,5,0,0:0:0:0:
192,192,86688,128,0,87333:0:0:0:0:
448,192,86849,5,0,0:0:0:0:
64,192,87172,5,0,0:0:0:0:
448,192,87333,5,0,0:0:0:0:
320,192,87333,128,0,87978:0:0:0:0:
64,192,87494,5,0,0:0:0:0:
192,192,87817,5,0,0:0:0:0:
64,192,87978,5,0,0:0:0:0:
448,192,87978,128,0,91849:0:0:0:0:
192,192,88140,5,0,0:0:0:0:
192,192,88462,5,0,0:0:0:0:
320,192,88543,5,0,0:0:0:0:
64,192,88623,5,0,0:0:0:0:
192,192,88623,5,0,0:0:0:0:
320,192,88785,5,0,0:0:0:0:
192,192,89107,5,0,0:0:0:0:
64,192,89269,5,0,0:0:0:0:
320,192,89269,5,0,0:0:0:0:
192,192,89430,5,0,0:0:0:0:
320,192,89752,5,0,0:0:0:0:
64,192,89833,5,0,0:0:0:0:
192,192,89914,5,0,0:0:0:0:
320,192,89914,5,0,0:0:0:0:
64,192,90075,5,0,0:0:0:0:
192,192,90398,5,0,0:0:0:0:
320,192,90559,5,0,0:0:0:0:
64,192,90559,5,0,0:0:0:0:
192,192,90720,5,0,0:0:0:0:
192,192,91043,5,0,0:0:0:0:
64,192,91123,5,0,0:0:0:0:
192,192,91204,5,0,0:0:0:0:
320,192,91204,5,0,0:0:0:0:
64,192,91365,5,0,0:0:0:0:
320,192,91688,5,0,0:0:0:0:
64,192,91849,5,0,0:0:0:0:
192,192,91849,5,0,0:0:0:0:
320,192,92011,5,0,0:0:0:0:
448,192,92011,5,0,0:0:0:0:
64,192,92172,5,0,0:0:0:0:
192,192,92172,5,0,0:0:0:0:
320,192,92333,5,0,0:0:0:0:
192,192,92414,5,0,0:0:0:0:
64,192,92494,5,0,0:0:0:0:
448,192,92494,5,0,0:0:0:0:
192,192,92656,5,0,0:0:0:0:
320,192,92656,5,0,0:0:0:0:
320,192,92978,5,0,0:0:0:0:
192,192,93059,5,0,0:0:0:0:
320,192,93140,5,0,0:0:0:0:
448,192,93140,5,0,0:0:0:0:
64,192,93301,128,0,93946:0:0:0:0:
192,192,93623,5,0,0:0:0:0:
448,192,93785,5,0,0:0:0:0:
320,192,93785,5,0,0:0:0:0:
192,192,93946,5,0,0:0:0:0:
320,192,93946,128,0,94591:0:0:0:0:
448,192,94269,5,0,0:0:0:0:
64,192,94430,5,0,0:0:0:0:
192,192,94430,5,0,0:0:0:0:
192,192,94591,5,0,0:0:0:0:
448,192,94591,128,0,95236:0:0:0:0:
192,192,94914,5,0,0:0:0:0:
64,192,95075,5,0,0:0:0:0:
320,192,95075,5,0,0:0:0:0:
320,192,95236,5,0,0:0:0:0:
192,192,95236,128,0,95881:0:0:0:0:
64,192,95559,5,0,0:0:0:0:
320,192,95720,5,0,0:0:0:0:
448,192,95720,5,0,0:0:0:0:
64,192,95881,5,0,0:0:0:0:
320,192,95881,128,0,96527:0:0:0:0:
192,192,96204,5,0,0:0:0:0:
448,192,96365,5,0,0:0:0:0:
64,192,96365,5,0,0:0:0:0:
448,192,96527,5,0,0:0:0:0:
192,192,96527,128,0,97172:0:0:0:0:
64,192,96849,5,0,0:0:0:0:
320,192,97011,5,0,0:0:0:0:
448,192,97011,5,0,0:0:0:0:
320,192,97172,5,0,0:0:0:0:
64,192,97172,128,0,97817:0:0:0:0:
320,192,97494,5,0,0:0:0:0:
448,192,97656,5,0,0:0:0:0:
192,192,97656,5,0,0:0:0:0:
192,192,97817,5,0,0:0:0:0:
320,192,97817,128,0,98301:0:0:0:0:
448,192,98140,5,0,0:0:0:0:
192,192,98301,5,0,0:0:0:0:
64,192,98301,128,0,99591:0:0:0:0:
320,192,98462,5,0,0:0:0:0:
448,192,98462,5,0,0:0:0:0:
448,192,98785,5,0,0:0:0:0:
192,192,98865,5,0,0:0:0:0:
320,192,98946,5,0,0:0:0:0:
448,192,98946,5,0,0:0:0:0:
192,192,99107,5,0,0:0:0:0:
320,192,99430,5,0,0:0:0:0:
192,192,99591,5,0,0:0:0:0:
448,192,99591,128,0,100881:0:0:0:0:
192,192,99752,5,0,0:0:0:0:
64,192,99752,5,0,0:0:0:0:
192,192,100075,5,0,0:0:0:0:
320,192,100156,5,0,0:0:0:0:
64,192,100236,5,0,0:0:0:0:
192,192,100236,5,0,0:0:0:0:
320,192,100398,5,0,0:0:0:0:
192,192,100720,5,0,0:0:0:0:
320,192,100881,5,0,0:0:0:0:
64,192,100881,128,0,101527:0:0:0:0:
192,192,101043,5,0,0:0:0:0:
320,192,101365,5,0,0:0:0:0:
320,192,101527,5,0,0:0:0:0:
448,192,101527,5,0,0:0:0:0:
192,192,101527,128,0,102172:0:0:0:0:
320,192,101688,5,0,0:0:0:0:
448,192,102011,5,0,0:0:0:0:
64,192,102172,5,0,0:0:0:0:
448,192,102172,5,0,0:0:0:0:
320,192,102172,128,0,102817:0:0:0:0:
64,192,102494,5,0,0:0:0:0:
192,192,102656,5,0,0:0:0:0:
64,192,102817,5,0,0:0:0:0:
448,192,102817,128,0,103462:0:0:0:0:
192,192,102978,5,0,0:0:0:0:
320,192,103140,5,0,0:0:0:0:
192,192,103462,5,0,0:0:0:0:
64,192,103462,5,0,0:0:0:0:
448,192,103785,5,0,0:0:0:0:
320,192,103785,128,0,104107:0:0:0:0:
64,192,104107,5,0,0:0:0:0:
192,192,104107,128,0,104430:0:0:0:0:
448,192,104430,5,0,0:0:0:0:
320,192,104430,128,0,104752:0:0:0:0:
192,192,104752,5,0,0:0:0:0:
64,192,104752,128,0,105075:0:0:0:0:
320,192,105075,5,0,0:0:0:0:
448,192,105075,128,0,105398:0:0:0:0:
192,192,105398,5,0,0:0:0:0:
64,192,105398,128,0,105720:0:0:0:0:
320,192,105720,5,0,0:0:0:0:
448,192,105720,128,0,106043:0:0:0:0:
64,192,106043,5,0,0:0:0:0:
192,192,106043,128,0,106365:0:0:0:0:
448,192,106365,5,0,0:0:0:0:
320,192,106365,128,0,106688:0:0:0:0:
64,192,106688,5,0,0:0:0:0:
192,192,106688,128,0,107011:0:0:0:0:
448,192,107011,5,0,0:0:0:0:
320,192,107011,128,0,107333:0:0:0:0:
192,192,107333,5,0,0:0:0:0:
64,192,107333,128,0,107656:0:0:0:0:
320,192,107656,5,0,0:0:0:0:
448,192,107656,128,0,107978:0:0:0:0:
192,192,107978,5,0,0:0:0:0:
64,192,107978,128,0,108301:0:0:0:0:
320,192,108301,5,0,0:0:0:0:
448,192,108301,128,0,108623:0:0:0:0:
320,192,108623,5,0,0:0:0:0:
64,192,108623,128,0,108946:0:0:0:0:
448,192,108946,5,0,0:0:0:0:
192,192,108946,128,0,109269:0:0:0:0:
320,192,109269,5,0,0:0:0:0:
448,192,109269,5,0,0:0:0:0:
64,192,109269,128,0,109591:0:0:0:0:
192,192,109591,128,0,109914:0:0:0:0:
320,192,109914,5,0,0:0:0:0:
64,192,109914,128,0,110236:0:0:0:0:
448,192,110075,5,0,0:0:0:0:
320,192,110236,5,0,0:0:0:0:
192,192,110236,128,0,110559:0:0:0:0:
448,192,110398,5,0,0:0:0:0:
320,192,110559,5,0,0:0:0:0:
448,192,110559,5,0,0:0:0:0:
64,192,110559,128,0,110881:0:0:0:0:
192,192,110881,128,0,111204:0:0:0:0:
320,192,111204,5,0,0:0:0:0:
448,192,111204,128,0,111527:0:0:0:0:
64,192,111527,5,0,0:0:0:0:
320,192,111527,128,0,111849:0:0:0:0:
64,192,111849,5,0,0:0:0:0:
192,192,111849,5,0,0:0:0:0:
448,192,111849,128,0,112172:0:0:0:0:
320,192,112172,128,0,112494:0:0:0:0:
192,192,112494,5,0,0:0:0:0:
448,192,112494,128,0,112817:0:0:0:0:
64,192,112656,5,0,0:0:0:0:
192,192,112817,5,0,0:0:0:0:
320,192,112817,128,0,113140:0:0:0:0:
64,192,112978,5,0,0:0:0:0:
64,192,113140,5,0,0:0:0:0:
192,192,113220,5,0,0:0:0:0:
320,192,113301,5,0,0:0:0:0:
448,192,113381,5,0,0:0:0:0:
64,192,113462,5,0,0:0:0:0:
192,192,113543,5,0,0:0:0:0:
320,192,113623,5,0,0:0:0:0:
448,192,113704,5,0,0:0:0:0:
192,192,113785,5,0,0:0:0:0:
320,192,113785,5,0,0:0:0:0:
64,192,113785,128,0,114107:0:0:0:0:
448,192,114107,5,0,0:0:0:0:
192,192,114107,128,0,114430:0:0:0:0:
320,192,114430,5,0,0:0:0:0:
448,192,114430,5,0,0:0:0:0:
64,192,114430,128,0,114752:0:0:0:0:
192,192,114752,128,0,115075:0:0:0:0:
448,192,115075,5,0,0:0:0:0:
64,192,115075,128,0,115398:0:0:0:0:
320,192,115236,5,0,0:0:0:0:
448,192,115398,5,0,0:0:0:0:
192,192,115398,128,0,115720:0:0:0:0:
320,192,115559,5,0,0:0:0:0:
320,192,115720,5,0,0:0:0:0:
448,192,115720,5,0,0:0:0:0:
64,192,115720,128,0,116043:0:0:0:0:
192,192,116043,128,0,116365:0:0:0:0:
320,192,116365,5,0,0:0:0:0:
448,192,116365,128,0,116688:0:0:0:0:
64,192,116688,5,0,0:0:0:0:
320,192,116688,128,0,117011:0:0:0:0:
64,192,117011,5,0,0:0:0:0:
192,192,117011,5,0,0:0:0:0:
448,192,117011,128,0,117333:0:0:0:0:
320,192,117333,128,0,117656:0:0:0:0:
192,192,117656,5,0,0:0:0:0:
448,192,117656,128,0,117978:0:0:0:0:
64,192,117817,5,0,0:0:0:0:
192,192,117978,5,0,0:0:0:0:
320,192,117978,128,0,118301:0:0:0:0:
64,192,118140,5,0,0:0:0:0:
448,192,118301,5,0,0:0:0:0:
320,192,118381,5,0,0:0:0:0:
192,192,118462,5,0,0:0:0:0:
64,192,118543,5,0,0:0:0:0:
448,192,118623,5,0,0:0:0:0:
320,192,118704,5,0,0:0:0:0:
192,192,118785,5,0,0:0:0:0:
448,192,118865,5,0,0:0:0:0:
192,192,118946,5,0,0:0:0:0:
320,192,118946,5,0,0:0:0:0:
64,192,118946,128,0,119269:0:0:0:0:
448,192,119269,5,0,0:0:0:0:
192,192,119269,128,0,119591:0:0:0:0:
320,192,119591,5,0,0:0:0:0:
448,192,119591,5,0,0:0:0:0:
64,192,119591,128,0,119914:0:0:0:0:
192,192,119914,128,0,120236:0:0:0:0:
448,192,120236,5,0,0:0:0:0:
64,192,120236,128,0,120559:0:0:0:0:
320,192,120398,5,0,0:0:0:0:
448,192,120559,5,0,0:0:0:0:
192,192,120559,128,0,120881:0:0:0:0:
320,192,120720,5,0,0:0:0:0:
320,192,120881,5,0,0:0:0:0:
448,192,120881,5,0,0:0:0:0:
64,192,120881,128,0,121204:0:0:0:0:
192,192,121204,128,0,121527:0:0:0:0:
320,192,121527,5,0,0:0:0:0:
448,192,121527,128,0,121849:0:0:0:0:
64,192,121849,5,0,0:0:0:0:
320,192,121849,128,0,122172:0:0:0:0:
64,192,122172,5,0,0:0:0:0:
192,192,122172,5,0,0:0:0:0:
448,192,122172,128,0,122494:0:0:0:0:
320,192,122494,128,0,122817:0:0:0:0:
192,192,122817,5,0,0:0:0:0:
448,192,122817,128,0,123140:0:0:0:0:
64,192,122978,5,0,0:0:0:0:
192,192,123140,5,0,0:0:0:0:
320,192,123140,128,0,123462:0:0:0:0:
64,192,123301,5,0,0:0:0:0:
64,192,123462,5,0,0:0:0:0:
192,192,123543,5,0,0:0:0:0:
320,192,123623,5,0,0:0:0:0:
448,192,123704,5,0,0:0:0:0:
64,192,123785,5,0,0:0:0:0:
192,192,123865,5,0,0:0:0:0:
320,192,123946,5,0,0:0:0:0:
448,192,124027,5,0,0:0:0:0:
64,192,124107,128,0,124430:0:0:0:0:
192,192,124107,128,0,124430:0:0:0:0:
320,192,124430,5,0,0:0:0:0:
448,192,124430,5,0,0:0:0:0:
192,192,124752,1,0,0:0:0:0:
448,192,124752,1,0,0:0:0:0:
320,192,125075,1,0,0:0:0:0:
448,192,125075,1,0,0:0:0:0:
64,192,125075,1,0,0:0:0:0:
192,192,125398,1,0,0:0:0:0:
64,192,125559,1,0,0:0:0:0:
320,192,125559,1,0,0:0:0:0:
192,192,125720,1,0,0:0:0:0:
448,192,125881,1,0,0:0:0:0:
64,192,126043,128,0,126365:0:0:0:0:
192,192,126043,128,0,126365:0:0:0:0:
320,192,126365,1,0,0:0:0:0:
448,192,126365,1,0,0:0:0:0:
192,192,126688,1,0,0:0:0:0:
320,192,126688,1,0,0:0:0:0:
64,192,127011,1,0,0:0:0:0:
448,192,127011,1,0,0:0:0:0:
192,192,127333,1,0,0:0:0:0:
320,192,127333,1,0,0:0:0:0:
448,192,127333,1,0,0:0:0:0:
192,192,127656,1,0,0:0:0:0:
448,192,127656,1,0,0:0:0:0:
320,192,127978,1,0,0:0:0:0:
192,192,128140,1,0,0:0:0:0:
64,192,128140,1,0,0:0:0:0:
320,192,128301,1,0,0:0:0:0:
192,192,128462,1,0,0:0:0:0:
64,192,128623,5,0,0:0:0:0:
192,192,128704,5,0,0:0:0:0:
320,192,128785,5,0,0:0:0:0:
448,192,128865,5,0,0:0:0:0:
64,192,128946,5,0,0:0:0:0:
192,192,129027,5,0,0:0:0:0:
320,192,129107,5,0,0:0:0:0:
448,192,129188,5,0,0:0:0:0:
64,192,129269,1,0,0:0:0:0:
192,192,129269,1,0,0:0:0:0:
320,192,129591,5,0,0:0:0:0:
448,192,129591,5,0,0:0:0:0:
448,192,129914,1,0,0:0:0:0:
192,192,129914,1,0,0:0:0:0:
64,192,129914,1,0,0:0:0:0:
192,192,130236,1,0,0:0:0:0:
320,192,130236,1,0,0:0:0:0:
64,192,130398,1,0,0:0:0:0:
448,192,130559,1,0,0:0:0:0:
192,192,130559,1,0,0:0:0:0:
320,192,130720,1,0,0:0:0:0:
64,192,130881,1,0,0:0:0:0:
192,192,131043,1,0,0:0:0:0:
64,192,131204,128,0,131527:0:0:0:0:
320,192,131204,128,0,131527:0:0:0:0:
192,192,131527,5,0,0:0:0:0:
448,192,131527,5,0,0:0:0:0:
192,192,131849,128,0,133623:0:0:0:0:
64,192,131849,128,0,133140:0:0:0:0:
320,192,133140,128,0,134430:0:0:0:0:
448,192,133623,128,0,134430:0:0:0:0:
64,192,134107,128,0,134430:0:0:0:0:
192,192,134430,5,0,0:0:0:0:
192,192,134752,5,0,0:0:0:0:
448,192,134752,5,0,0:0:0:0:
320,192,135075,5,0,0:0:0:0:
64,192,135075,5,0,0:0:0:0:
192,192,135398,5,0,0:0:0:0:
320,192,135398,5,0,0:0:0:0:
64,192,135720,5,0,0:0:0:0:
320,192,135720,5,0,0:0:0:0:
448,192,135720,5,0,0:0:0:0:
192,192,136043,5,0,0:0:0:0:
448,192,136043,5,0,0:0:0:0:
448,192,136365,5,0,0:0:0:0:
320,192,136365,5,0,0:0:0:0:
192,192,136688,5,0,0:0:0:0:
320,192,136688,5,0,0:0:0:0:
320,192,137011,5,0,0:0:0:0:
64,192,137011,5,0,0:0:0:0:
448,192,137011,5,0,0:0:0:0:
192,192,137333,5,0,0:0:0:0:
448,192,137333,5,0,0:0:0:0:
320,192,137656,5,0,0:0:0:0:
192,192,137656,5,0,0:0:0:0:
448,192,137978,5,0,0:0:0:0:
64,192,137978,5,0,0:0:0:0:
192,192,138301,5,0,0:0:0:0:
448,192,138301,5,0,0:0:0:0:
64,192,138301,5,0,0:0:0:0:
192,192,138623,5,0,0:0:0:0:
320,192,138623,5,0,0:0:0:0:
64,192,138946,5,0,0:0:0:0:
320,192,138946,5,0,0:0:0:0:
448,192,139269,5,0,0:0:0:0:
320,192,139269,5,0,0:0:0:0:
64,192,139591,5,0,0:0:0:0:
192,192,139591,5,0,0:0:0:0:
448,192,139591,5,0,0:0:0:0:
320,192,139914,5,0,0:0:0:0:
64,192,139914,5,0,0:0:0:0:
192,192,140236,5,0,0:0:0:0:
448,192,140236,5,0,0:0:0:0:
64,192,140398,5,0,0:0:0:0:
192,192,140559,5,0,0:0:0:0:
320,192,140720,5,0,0:0:0:0:
448,192,140881,5,0,0:0:0:0:
64,192,140881,5,0,0:0:0:0:
192,192,141043,5,0,0:0:0:0:
64,192,141204,5,0,0:0:0:0:
448,192,141365,5,0,0:0:0:0:
320,192,141527,5,0,0:0:0:0:
192,192,141688,5,0,0:0:0:0:
64,192,141849,5,0,0:0:0:0:
448,192,141849,5,0,0:0:0:0:
320,192,142011,5,0,0:0:0:0:
448,192,142172,5,0,0:0:0:0:
320,192,142333,5,0,0:0:0:0:
192,192,142414,5,0,0:0:0:0:
64,192,142494,5,0,0:0:0:0:
448,192,142575,5,0,0:0:0:0:
320,192,142656,5,0,0:0:0:0:
192,192,142736,5,0,0:0:0:0:
64,192,142817,5,0,0:0:0:0:
448,192,142898,5,0,0:0:0:0:
320,192,142978,5,0,0:0:0:0:
64,192,143059,5,0,0:0:0:0:
192,192,143140,5,0,0:0:0:0:
320,192,143220,5,0,0:0:0:0:
448,192,143301,5,0,0:0:0:0:
64,192,143381,5,0,0:0:0:0:
192,192,143462,5,0,0:0:0:0:
448,192,143543,5,0,0:0:0:0:
320,192,143623,5,0,0:0:0:0:
192,192,143704,5,0,0:0:0:0:
64,192,143785,5,0,0:0:0:0:
448,192,143865,5,0,0:0:0:0:
320,192,143946,5,0,0:0:0:0:
64,192,144027,5,0,0:0:0:0:
192,192,144107,5,0,0:0:0:0:
320,192,144188,5,0,0:0:0:0:
448,192,144269,5,0,0:0:0:0:
64,192,144349,5,0,0:0:0:0:
192,192,144430,5,0,0:0:0:0:
448,192,144511,5,0,0:0:0:0:
320,192,144591,5,0,0:0:0:0:
192,192,144672,5,0,0:0:0:0:
64,192,144752,5,0,0:0:0:0:
448,192,144752,5,0,0:0:0:0:
448,192,145075,128,0,145236:0:0:0:0:
64,192,145236,128,0,145398:0:0:0:0:
448,192,145398,128,0,145559:0:0:0:0:
64,192,145559,128,0,145881:0:0:0:0:
192,192,145559,128,0,145881:0:0:0:0:
448,192,145881,128,0,146043:0:0:0:0:
320,192,145881,128,0,146043:0:0:0:0:
448,192,146204,128,0,146365:0:0:0:0:
320,192,146204,128,0,146365:0:0:0:0:
64,192,146446,128,0,146688:0:0:0:0:
192,192,146446,128,0,146688:0:0:0:0:
320,192,146688,5,0,0:0:0:0:
448,192,146688,5,0,0:0:0:0:
192,192,146849,5,0,0:0:0:0:
320,192,146849,5,0,0:0:0:0:
64,192,147172,128,0,147333:0:0:0:0:
192,192,147172,128,0,147333:0:0:0:0:
64,192,147494,128,0,147656:0:0:0:0:
192,192,147494,128,0,147656:0:0:0:0:
320,192,147817,128,0,147978:0:0:0:0:
448,192,147817,128,0,147978:0:0:0:0:
192,192,147978,5,0,0:0:0:0:
64,192,147978,5,0,0:0:0:0:
192,192,148140,5,0,0:0:0:0:
320,192,148140,5,0,0:0:0:0:
64,192,148462,128,0,148623:0:0:0:0:
320,192,148462,128,0,148623:0:0:0:0:
192,192,148785,128,0,148946:0:0:0:0:
448,192,148785,128,0,148946:0:0:0:0:
64,192,149107,5,0,0:0:0:0:
320,192,149188,5,0,0:0:0:0:
192,192,149349,5,0,0:0:0:0:
448,192,149511,5,0,0:0:0:0:
64,192,149511,5,0,0:0:0:0:
448,192,149672,5,0,0:0:0:0:
64,192,149672,5,0,0:0:0:0:
192,192,149833,128,0,149994:0:0:0:0:
320,192,149833,128,0,149994:0:0:0:0:
64,192,150236,128,0,150398:0:0:0:0:
448,192,150398,128,0,150559:0:0:0:0:
64,192,150559,128,0,150720:0:0:0:0:
320,192,150720,128,0,151043:0:0:0:0:
448,192,150720,128,0,151043:0:0:0:0:
192,192,151043,128,0,151204:0:0:0:0:
64,192,151043,128,0,151204:0:0:0:0:
192,192,151365,128,0,151527:0:0:0:0:
64,192,151365,128,0,151527:0:0:0:0:
320,192,151607,128,0,151849:0:0:0:0:
448,192,151607,128,0,151849:0:0:0:0:
64,192,151849,5,0,0:0:0:0:
192,192,151849,5,0,0:0:0:0:
192,192,152011,5,0,0:0:0:0:
320,192,152011,5,0,0:0:0:0:
64,192,152333,128,0,152494:0:0:0:0:
192,192,152333,128,0,152494:0:0:0:0:
64,192,152656,128,0,152817:0:0:0:0:
192,192,152656,128,0,152817:0:0:0:0:
320,192,152978,128,0,153140:0:0:0:0:
448,192,152978,128,0,153140:0:0:0:0:
192,192,153140,5,0,0:0:0:0:
64,192,153140,5,0,0:0:0:0:
192,192,153301,5,0,0:0:0:0:
320,192,153301,5,0,0:0:0:0:
64,192,153623,128,0,153785:0:0:0:0:
320,192,153623,128,0,153785:0:0:0:0:
448,192,153785,5,0,0:0:0:0:
192,192,153785,5,0,0:0:0:0:
64,192,153946,5,0,0:0:0:0:
320,192,153946,5,0,0:0:0:0:
448,192,154107,5,0,0:0:0:0:
192,192,154107,5,0,0:0:0:0:
64,192,154269,5,0,0:0:0:0:
192,192,154349,5,0,0:0:0:0:
320,192,154430,5,0,0:0:0:0:
448,192,154430,5,0,0:0:0:0:
448,192,154914,5,0,0:0:0:0:
320,192,154994,5,0,0:0:0:0:
64,192,155075,128,0,155398:0:0:0:0:
192,192,155075,128,0,155398:0:0:0:0:
448,192,155236,5,0,0:0:0:0:
320,192,155236,5,0,0:0:0:0:
448,192,155559,5,0,0:0:0:0:
320,192,155559,5,0,0:0:0:0:
64,192,155720,128,0,156043:0:0:0:0:
192,192,155720,128,0,156043:0:0:0:0:
448,192,155881,5,0,0:0:0:0:
320,192,155881,5,0,0:0:0:0:
448,192,156204,5,0,0:0:0:0:
320,192,156204,5,0,0:0:0:0:
192,192,156365,128,0,156688:0:0:0:0:
64,192,156365,128,0,156688:0:0:0:0:
320,192,156527,5,0,0:0:0:0:
448,192,156527,5,0,0:0:0:0:
320,192,156849,5,0,0:0:0:0:
448,192,156849,5,0,0:0:0:0:
192,192,157011,128,0,157333:0:0:0:0:
64,192,157011,128,0,157333:0:0:0:0:
320,192,157172,5,0,0:0:0:0:
448,192,157172,5,0,0:0:0:0:
192,192,157494,5,0,0:0:0:0:
320,192,157494,5,0,0:0:0:0:
320,192,157656,128,0,157978:0:0:0:0:
448,192,157656,128,0,157978:0:0:0:0:
192,192,157817,5,0,0:0:0:0:
64,192,157817,5,0,0:0:0:0:
192,192,158140,5,0,0:0:0:0:
64,192,158140,5,0,0:0:0:0:
320,192,158301,128,0,158623:0:0:0:0:
448,192,158301,128,0,158623:0:0:0:0:
192,192,158462,5,0,0:0:0:0:
64,192,158462,5,0,0:0:0:0:
192,192,158785,5,0,0:0:0:0:
64,192,158785,5,0,0:0:0:0:
320,192,158946,128,0,159269:0:0:0:0:
448,192,158946,128,0,159269:0:0:0:0:
192,192,159107,5,0,0:0:0:0:
64,192,159107,5,0,0:0:0:0:
64,192,159430,5,0,0:0:0:0:
192,192,159430,5,0,0:0:0:0:
320,192,159591,128,0,159914:0:0:0:0:
448,192,159591,128,0,159914:0:0:0:0:
192,192,159752,5,0,0:0:0:0:
64,192,159752,5,0,0:0:0:0:
320,192,160075,5,0,0:0:0:0:
192,192,160075,5,0,0:0:0:0:
448,192,160236,128,0,161527:0:0:0:0:
64,192,160236,128,0,160559:0:0:0:0:
320,192,160398,5,0,0:0:0:0:
192,192,160720,5,0,0:0:0:0:
64,192,160881,128,0,161204:0:0:0:0:
320,192,161043,5,0,0:0:0:0:
192,192,161365,5,0,0:0:0:0:
64,192,161527,128,0,162817:0:0:0:0:
320,192,161527,128,0,161849:0:0:0:0:
448,192,161688,5,0,0:0:0:0:
192,192,162011,5,0,0:0:0:0:
320,192,162172,128,0,162494:0:0:0:0:
448,192,162333,5,0,0:0:0:0:
192,192,162656,5,0,0:0:0:0:
192,192,162817,128,0,163462:0:0:0:0:
320,192,162978,5,0,0:0:0:0:
64,192,163301,5,0,0:0:0:0:
448,192,163462,5,0,0:0:0:0:
320,192,163462,128,0,164107:0:0:0:0:
192,192,163623,5,0,0:0:0:0:
64,192,163946,5,0,0:0:0:0:
192,192,164107,5,0,0:0:0:0:
448,192,164107,128,0,164752:0:0:0:0:
320,192,164269,5,0,0:0:0:0:
64,192,164591,5,0,0:0:0:0:
192,192,164752,5,0,0:0:0:0:
320,192,164752,128,0,165398:0:0:0:0:
64,192,164914,5,0,0:0:0:0:
448,192,165075,5,0,0:0:0:0:
64,192,165236,5,0,0:0:0:0:
448,192,165398,128,0,169269:0:0:0:0:
64,192,165559,5,0,0:0:0:0:
192,192,165559,5,0,0:0:0:0:
320,192,165881,5,0,0:0:0:0:
192,192,165962,5,0,0:0:0:0:
64,192,166043,5,0,0:0:0:0:
320,192,166043,5,0,0:0:0:0:
192,192,166204,5,0,0:0:0:0:
192,192,166527,5,0,0:0:0:0:
320,192,166688,5,0,0:0:0:0:
64,192,166688,5,0,0:0:0:0:
192,192,166849,5,0,0:0:0:0:
64,192,167172,5,0,0:0:0:0:
192,192,167252,5,0,0:0:0:0:
320,192,167333,5,0,0:0:0:0:
64,192,167333,5,0,0:0:0:0:
192,192,167494,5,0,0:0:0:0:
320,192,167817,5,0,0:0:0:0:
64,192,167978,5,0,0:0:0:0:
192,192,167978,5,0,0:0:0:0:
320,192,168140,5,0,0:0:0:0:
192,192,168462,5,0,0:0:0:0:
64,192,168543,5,0,0:0:0:0:
192,192,168623,5,0,0:0:0:0:
320,192,168623,5,0,0:0:0:0:
64,192,168785,5,0,0:0:0:0:
192,192,169107,5,0,0:0:0:0:
64,192,169269,5,0,0:0:0:0:
320,192,169269,128,0,169914:0:0:0:0:
192,192,169430,5,0,0:0:0:0:
64,192,169752,5,0,0:0:0:0:
448,192,169914,5,0,0:0:0:0:
192,192,169914,128,0,170559:0:0:0:0:
320,192,170075,5,0,0:0:0:0:
448,192,170398,5,0,0:0:0:0:
320,192,170559,5,0,0:0:0:0:
64,192,170559,128,0,174430:0:0:0:0:
448,192,170720,5,0,0:0:0:0:
448,192,171043,5,0,0:0:0:0:
320,192,171123,5,0,0:0:0:0:
192,192,171204,5,0,0:0:0:0:
448,192,171204,5,0,0:0:0:0:
320,192,171365,5,0,0:0:0:0:
192,192,171688,5,0,0:0:0:0:
320,192,171849,5,0,0:0:0:0:
448,192,171849,5,0,0:0:0:0:
192,192,172011,5,0,0:0:0:0:
320,192,172333,5,0,0:0:0:0:
192,192,172414,5,0,0:0:0:0:
320,192,172494,5,0,0:0:0:0:
448,192,172494,5,0,0:0:0:0:
192,192,172656,5,0,0:0:0:0:
320,192,172978,5,0,0:0:0:0:
448,192,173140,5,0,0:0:0:0:
192,192,173140,5,0,0:0:0:0:
320,192,173301,5,0,0:0:0:0:
192,192,173623,5,0,0:0:0:0:
320,192,173704,5,0,0:0:0:0:
448,192,173785,5,0,0:0:0:0:
192,192,173785,5,0,0:0:0:0:
320,192,173946,5,0,0:0:0:0:
320,192,174269,5,0,0:0:0:0:
192,192,174430,5,0,0:0:0:0:
448,192,174430,5,0,0:0:0:0:
192,192,174591,5,0,0:0:0:0:
320,192,174591,5,0,0:0:0:0:
64,192,174752,5,0,0:0:0:0:
448,192,174752,5,0,0:0:0:0:
320,192,174914,5,0,0:0:0:0:
192,192,174994,5,0,0:0:0:0:
64,192,175075,5,0,0:0:0:0:
448,192,175075,5,0,0:0:0:0:
192,192,175236,5,0,0:0:0:0:
320,192,175236,5,0,0:0:0:0:
64,192,175559,5,0,0:0:0:0:
192,192,175640,5,0,0:0:0:0:
320,192,175720,5,0,0:0:0:0:
448,192,175720,128,0,180881:0:0:0:0:
192,192,175881,5,0,0:0:0:0:
320,192,176204,5,0,0:0:0:0:
64,192,176365,5,0,0:0:0:0:
192,192,176365,5,0,0:0:0:0:
320,192,176527,5,0,0:0:0:0:
64,192,176849,5,0,0:0:0:0:
192,192,176930,5,0,0:0:0:0:
320,192,177011,5,0,0:0:0:0:
64,192,177011,5,0,0:0:0:0:
192,192,177172,5,0,0:0:0:0:
64,192,177494,5,0,0:0:0:0:
320,192,177656,5,0,0:0:0:0:
192,192,177656,5,0,0:0:0:0:
64,192,177817,5,0,0:0:0:0:
320,192,178140,5,0,0:0:0:0:
192,192,178220,5,0,0:0:0:0:
64,192,178301,5,0,0:0:0:0:
320,192,178301,5,0,0:0:0:0:
192,192,178462,5,0,0:0:0:0:
64,192,178785,5,0,0:0:0:0:
192,192,178946,5,0,0:0:0:0:
320,192,178946,5,0,0:0:0:0:
64,192,179107,5,0,0:0:0:0:
192,192,179430,5,0,0:0:0:0:
320,192,179511,5,0,0:0:0:0:
192,192,179591,5,0,0:0:0:0:
64,192,179591,5,0,0:0:0:0:
320,192,179752,5,0,0:0:0:0:
320,192,180075,5,0,0:0:0:0:
192,192,180236,5,0,0:0:0:0:
64,192,180236,5,0,0:0:0:0:
320,192,180398,5,0,0:0:0:0:
64,192,180720,5,0,0:0:0:0:
192,192,180881,5,0,0:0:0:0:
320,192,180881,128,0,182172:0:0:0:0:
64,192,181043,5,0,0:0:0:0:
448,192,181365,5,0,0:0:0:0:
64,192,181527,5,0,0:0:0:0:
192,192,181527,5,0,0:0:0:0:
448,192,181688,5,0,0:0:0:0:
64,192,182011,5,0,0:0:0:0:
448,192,182172,5,0,0:0:0:0:
192,192,182172,128,0,183462:0:0:0:0:
320,192,182333,5,0,0:0:0:0:
448,192,182656,5,0,0:0:0:0:
64,192,182817,5,0,0:0:0:0:
320,192,182817,5,0,0:0:0:0:
448,192,182978,5,0,0:0:0:0:
320,192,183301,5,0,0:0:0:0:
448,192,183462,5,0,0:0:0:0:
64,192,183462,128,0,184107:0:0:0:0:
320,192,183623,5,0,0:0:0:0:
448,192,183946,5,0,0:0:0:0:
320,192,184107,5,0,0:0:0:0:
192,192,184107,128,0,184752:0:0:0:0:
448,192,184269,5,0,0:0:0:0:
64,192,184591,5,0,0:0:0:0:
448,192,184752,5,0,0:0:0:0:
320,192,184752,128,0,185398:0:0:0:0:
448,192,185075,5,0,0:0:0:0:
192,192,185236,5,0,0:0:0:0:
64,192,185398,5,0,0:0:0:0:
448,192,185398,128,0,186043:0:0:0:0:
192,192,185559,5,0,0:0:0:0:
64,192,185720,5,0,0:0:0:0:
192,192,186043,5,0,0:0:0:0:
64,192,186043,128,0,191204:0:0:0:0:
320,192,186365,5,0,0:0:0:0:
192,192,186688,5,0,0:0:0:0:
320,192,187011,5,0,0:0:0:0:
448,192,187333,5,0,0:0:0:0:
320,192,187656,5,0,0:0:0:0:
192,192,187978,5,0,0:0:0:0:
320,192,188301,5,0,0:0:0:0:
448,192,188623,5,0,0:0:0:0:
320,192,188946,5,0,0:0:0:0:
192,192,189269,5,0,0:0:0:0:
320,192,189591,5,0,0:0:0:0:
448,192,189914,5,0,0:0:0:0:
320,192,190236,5,0,0:0:0:0:
192,192,190559,5,0,0:0:0:0:
320,192,190881,5,0,0:0:0:0:
448,192,191204,5,0,0:0:0:0:
192,192,191204,5,0,0:0:0:0:
64,192,191527,5,0,0:0:0:0:
320,192,191527,5,0,0:0:0:0:
192,192,191849,5,0,0:0:0:0:
320,192,191849,5,0,0:0:0:0:
448,192,192172,5,0,0:0:0:0:
64,192,192172,5,0,0:0:0:0:
192,192,192494,5,0,0:0:0:0:
448,192,192494,5,0,0:0:0:0:
64,192,192494,5,0,0:0:0:0:
64,192,192817,5,0,0:0:0:0:
320,192,192817,5,0,0:0:0:0:
320,192,193140,5,0,0:0:0:0:
448,192,193140,5,0,0:0:0:0:
64,192,193140,128,0,193785:0:0:0:0:
192,192,193462,5,0,0:0:0:0:
320,192,193462,5,0,0:0:0:0:
320,192,193785,5,0,0:0:0:0:
448,192,193785,128,0,196365:0:0:0:0:
64,192,194107,5,0,0:0:0:0:
320,192,194107,5,0,0:0:0:0:
192,192,194430,5,0,0:0:0:0:
320,192,194430,5,0,0:0:0:0:
64,192,194752,5,0,0:0:0:0:
192,192,194752,5,0,0:0:0:0:
320,192,195075,5,0,0:0:0:0:
64,192,195075,5,0,0:0:0:0:
192,192,195398,5,0,0:0:0:0:
320,192,195398,5,0,0:0:0:0:
64,192,195720,5,0,0:0:0:0:
320,192,195720,5,0,0:0:0:0:
192,192,196043,5,0,0:0:0:0:
320,192,196043,5,0,0:0:0:0:
64,192,196365,5,0,0:0:0:0:
192,192,196365,5,0,0:0:0:0:
448,192,196688,5,0,0:0:0:0:
192,192,196688,5,0,0:0:0:0:
64,192,197011,5,0,0:0:0:0:
320,192,197011,5,0,0:0:0:0:
192,192,197333,5,0,0:0:0:0:
448,192,197333,5,0,0:0:0:0:
192,192,197656,5,0,0:0:0:0:
64,192,197656,5,0,0:0:0:0:
448,192,197656,5,0,0:0:0:0:
320,192,197978,5,0,0:0:0:0:
448,192,197978,5,0,0:0:0:0:
192,192,198301,5,0,0:0:0:0:
320,192,198301,5,0,0:0:0:0:
448,192,198301,128,0,198946:0:0:0:0:
64,192,198623,5,0,0:0:0:0:
320,192,198623,5,0,0:0:0:0:
192,192,198946,5,0,0:0:0:0:
64,192,198946,128,0,201527:0:0:0:0:
320,192,199269,5,0,0:0:0:0:
448,192,199269,5,0,0:0:0:0:
192,192,199591,5,0,0:0:0:0:
320,192,199591,5,0,0:0:0:0:
448,192,199914,5,0,0:0:0:0:
192,192,199914,5,0,0:0:0:0:
320,192,200236,5,0,0:0:0:0:
448,192,200236,5,0,0:0:0:0:
192,192,200559,5,0,0:0:0:0:
448,192,200559,5,0,0:0:0:0:
320,192,200881,5,0,0:0:0:0:
448,192,200881,5,0,0:0:0:0:
192,192,201204,5,0,0:0:0:0:
320,192,201204,5,0,0:0:0:0:
448,192,201527,5,0,0:0:0:0:
192,192,201527,5,0,0:0:0:0:
320,192,201849,5,0,0:0:0:0:
64,192,201849,5,0,0:0:0:0:
192,192,202172,5,0,0:0:0:0:
320,192,202172,5,0,0:0:0:0:
448,192,202494,5,0,0:0:0:0:
64,192,202494,5,0,0:0:0:0:
320,192,202817,5,0,0:0:0:0:
64,192,202817,5,0,0:0:0:0:
192,192,202817,5,0,0:0:0:0:
192,192,203140,5,0,0:0:0:0:
64,192,203140,5,0,0:0:0:0:
192,192,203462,5,0,0:0:0:0:
448,192,203462,5,0,0:0:0:0:
320,192,203785,5,0,0:0:0:0:
64,192,203785,5,0,0:0:0:0:
192,192,204107,5,0,0:0:0:0:
320,192,204107,5,0,0:0:0:0:
448,192,204107,5,0,0:0:0:0:
448,192,204430,5,0,0:0:0:0:
192,192,204430,5,0,0:0:0:0:
320,192,204752,5,0,0:0:0:0:
64,192,204752,5,0,0:0:0:0:
192,192,205075,5,0,0:0:0:0:
320,192,205075,5,0,0:0:0:0:
448,192,205398,5,0,0:0:0:0:
64,192,205398,5,0,0:0:0:0:
192,192,205398,5,0,0:0:0:0:
320,192,205720,5,0,0:0:0:0:
448,192,205720,5,0,0:0:0:0:
192,192,206043,5,0,0:0:0:0:
64,192,206043,5,0,0:0:0:0:
320,192,206365,5,0,0:0:0:0:
64,192,206365,5,0,0:0:0:0:
64,192,206688,5,0,0:0:0:0:
448,192,206688,5,0,0:0:0:0:
320,192,206688,5,0,0:0:0:0:
320,192,207011,5,0,0:0:0:0:
64,192,207011,5,0,0:0:0:0:
192,192,207333,5,0,0:0:0:0:
448,192,207333,5,0,0:0:0:0:
192,192,207656,5,0,0:0:0:0:
64,192,207656,5,0,0:0:0:0:
448,192,207978,5,0,0:0:0:0:
320,192,207978,5,0,0:0:0:0:
64,192,207978,5,0,0:0:0:0:
320,192,208301,5,0,0:0:0:0:
64,192,208301,5,0,0:0:0:0:
192,192,208623,5,0,0:0:0:0:
448,192,208623,5,0,0:0:0:0:
320,192,208946,5,0,0:0:0:0:
448,192,208946,5,0,0:0:0:0:
448,192,209269,5,0,0:0:0:0:
64,192,209269,5,0,0:0:0:0:
320,192,209430,5,0,0:0:0:0:
192,192,209591,5,0,0:0:0:0:
64,192,209752,5,0,0:0:0:0:
64,192,209914,5,0,0:0:0:0:
448,192,209914,5,0,0:0:0:0:
192,192,210075,5,0,0:0:0:0:
320,192,210236,5,0,0:0:0:0:
64,192,210398,5,0,0:0:0:0:
192,192,210559,5,0,0:0:0:0:
320,192,210720,5,0,0:0:0:0:
448,192,210881,5,0,0:0:0:0:
64,192,210881,5,0,0:0:0:0:
320,192,211204,5,0,0:0:0:0:
192,192,211285,5,0,0:0:0:0:
320,192,211365,5,0,0:0:0:0:
64,192,211446,5,0,0:0:0:0:
448,192,211527,5,0,0:0:0:0:
64,192,211607,5,0,0:0:0:0:
448,192,211688,5,0,0:0:0:0:
64,192,211849,128,0,215720:0:0:0:0:
320,192,211849,128,0,212011:0:0:0:0:
192,192,212011,5,0,0:0:0:0:
320,192,212333,128,0,212494:0:0:0:0:
448,192,212494,5,0,0:0:0:0:
192,192,212494,5,0,0:0:0:0:
320,192,212656,5,0,0:0:0:0:
192,192,212978,128,0,213140:0:0:0:0:
448,192,213140,5,0,0:0:0:0:
320,192,213301,5,0,0:0:0:0:
448,192,213623,128,0,213785:0:0:0:0:
192,192,213785,5,0,0:0:0:0:
320,192,213785,5,0,0:0:0:0:
320,192,213946,5,0,0:0:0:0:
192,192,214269,128,0,214430:0:0:0:0:
320,192,214430,5,0,0:0:0:0:
448,192,214591,5,0,0:0:0:0:
448,192,214914,128,0,215075:0:0:0:0:
320,192,215075,5,0,0:0:0:0:
192,192,215075,5,0,0:0:0:0:
320,192,215236,5,0,0:0:0:0:
320,192,215559,128,0,215720:0:0:0:0:
448,192,215720,5,0,0:0:0:0:
192,192,215720,128,0,216365:0:0:0:0:
320,192,215881,5,0,0:0:0:0:
64,192,216204,128,0,216365:0:0:0:0:
448,192,216365,5,0,0:0:0:0:
320,192,216365,128,0,217011:0:0:0:0:
192,192,216527,5,0,0:0:0:0:
192,192,216849,128,0,217011:0:0:0:0:
448,192,217011,128,0,222172:0:0:0:0:
64,192,217172,5,0,0:0:0:0:
192,192,217494,128,0,217656:0:0:0:0:
320,192,217656,5,0,0:0:0:0:
64,192,217656,5,0,0:0:0:0:
64,192,217817,5,0,0:0:0:0:
192,192,218140,128,0,218301:0:0:0:0:
64,192,218301,5,0,0:0:0:0:
320,192,218462,5,0,0:0:0:0:
64,192,218785,128,0,218946:0:0:0:0:
192,192,218946,5,0,0:0:0:0:
320,192,218946,5,0,0:0:0:0:
320,192,219107,5,0,0:0:0:0:
320,192,219430,128,0,219591:0:0:0:0:
192,192,219591,5,0,0:0:0:0:
64,192,219752,5,0,0:0:0:0:
192,192,220075,128,0,220236:0:0:0:0:
320,192,220236,5,0,0:0:0:0:
64,192,220236,5,0,0:0:0:0:
64,192,220398,5,0,0:0:0:0:
192,192,220720,5,0,0:0:0:0:
64,192,220881,5,0,0:0:0:0:
320,192,220881,5,0,0:0:0:0:
192,192,221043,5,0,0:0:0:0:
64,192,221204,5,0,0:0:0:0:
320,192,221204,5,0,0:0:0:0:
64,192,221527,5,0,0:0:0:0:
320,192,221527,5,0,0:0:0:0:
192,192,221688,128,0,222172:0:0:0:0:
320,192,222011,5,0,0:0:0:0:
64,192,222172,5,0,0:0:0:0:
320,192,222333,5,0,0:0:0:0:
192,192,222494,5,0,0:0:0:0:
64,192,222817,5,0,0:0:0:0:
192,192,222817,5,0,0:0:0:0:
320,192,223059,5,0,0:0:0:0:
448,192,223059,5,0,0:0:0:0:
64,192,223301,5,0,0:0:0:0:
192,192,223301,5,0,0:0:0:0:
192,192,223623,5,0,0:0:0:0:
320,192,223785,5,0,0:0:0:0:
448,192,224107,5,0,0:0:0:0:
192,192,224269,5,0,0:0:0:0:
64,192,224430,5,0,0:0:0:0:
320,192,224430,5,0,0:0:0:0:
320,192,224752,5,0,0:0:0:0:
64,192,224914,5,0,0:0:0:0:
448,192,225075,5,0,0:0:0:0:
320,192,225398,5,0,0:0:0:0:
192,192,225398,5,0,0:0:0:0:
64,192,225640,5,0,0:0:0:0:
448,192,225640,5,0,0:0:0:0:
192,192,225881,5,0,0:0:0:0:
320,192,225881,5,0,0:0:0:0:
64,192,226204,5,0,0:0:0:0:
320,192,226365,5,0,0:0:0:0:
192,192,226688,5,0,0:0:0:0:
448,192,226849,5,0,0:0:0:0:
64,192,227011,5,0,0:0:0:0:
320,192,227011,5,0,0:0:0:0:
192,192,227333,5,0,0:0:0:0:
320,192,227494,5,0,0:0:0:0:
64,192,227656,5,0,0:0:0:0:
320,192,227978,5,0,0:0:0:0:
64,192,227978,5,0,0:0:0:0:
192,192,228220,5,0,0:0:0:0:
448,192,228220,5,0,0:0:0:0:
320,192,228462,5,0,0:0:0:0:
448,192,228462,5,0,0:0:0:0:
192,192,228785,5,0,0:0:0:0:
64,192,228946,5,0,0:0:0:0:
192,192,229269,5,0,0:0:0:0:
320,192,229430,5,0,0:0:0:0:
448,192,229591,5,0,0:0:0:0:
192,192,229591,5,0,0:0:0:0:
320,192,229914,5,0,0:0:0:0:
192,192,230075,5,0,0:0:0:0:
448,192,230236,5,0,0:0:0:0:
192,192,230559,128,0,230720:0:0:0:0:
448,192,230720,5,0,0:0:0:0:
64,192,230720,5,0,0:0:0:0:
320,192,231043,128,0,231204:0:0:0:0:
64,192,231204,5,0,0:0:0:0:
448,192,231204,5,0,0:0:0:0:
320,192,231527,5,0,0:0:0:0:
192,192,231688,5,0,0:0:0:0:
320,192,231849,5,0,0:0:0:0:
64,192,232011,5,0,0:0:0:0:
448,192,232172,128,0,232494:0:0:0:0:
320,192,232172,128,0,232494:0:0:0:0:
192,192,232494,5,0,0:0:0:0:
64,192,232494,5,0,0:0:0:0:
64,192,232817,128,0,232978:0:0:0:0:
192,192,232817,1,0,0:0:0:0:
320,192,233140,128,0,233301:0:0:0:0:
448,192,233140,1,0,0:0:0:0:
64,192,233462,128,0,233623:0:0:0:0:
192,192,233462,1,0,0:0:0:0:
320,192,233785,128,0,233946:0:0:0:0:
448,192,233785,1,0,0:0:0:0:
64,192,234107,128,0,234269:0:0:0:0:
192,192,234107,1,0,0:0:0:0:
320,192,234430,128,0,234591:0:0:0:0:
448,192,234430,1,0,0:0:0:0:
64,192,234752,128,0,234914:0:0:0:0:
192,192,234752,1,0,0:0:0:0:
320,192,235075,128,0,235236:0:0:0:0:
448,192,235075,1,0,0:0:0:0:
64,192,235398,128,0,235559:0:0:0:0:
192,192,235398,1,0,0:0:0:0:
320,192,235720,128,0,235881:0:0:0:0:
448,192,235720,1,0,0:0:0:0:
64,192,236043,128,0,236204:0:0:0:0:
192,192,236043,1,0,0:0:0:0:
320,192,236365,128,0,236527:0:0:0:0:
448,192,236365,1,0,0:0:0:0:
64,192,236688,128,0,236849:0:0:0:0:
192,192,236688,1,0,0:0:0:0:
320,192,237011,128,0,237172:0:0:0:0:
448,192,237011,1,0,0:0:0:0:
64,192,237333,128,0,237494:0:0:0:0:
192,192,237333,1,0,0:0:0:0:
448,192,237656,128,0,237817:0:0:0:0:
320,192,237656,1,0,0:0:0:0:
192,192,237978,128,0,238140:0:0:0:0:
64,192,237978,1,0,0:0:0:0:
448,192,238301,128,0,238462:0:0:0:0:
320,192,238301,1,0,0:0:0:0:
192,192,238623,128,0,238785:0:0:0:0:
64,192,238623,1,0,0:0:0:0:
448,192,238946,128,0,239107:0:0:0:0:
320,192,238946,1,0,0:0:0:0:
192,192,239269,128,0,239430:0:0:0:0:
64,192,239269,1,0,0:0:0:0:
448,192,239591,128,0,239752:0:0:0:0:
320,192,239591,1,0,0:0:0:0:
192,192,239914,128,0,240075:0:0:0:0:
64,192,239914,1,0,0:0:0:0:
448,192,240236,128,0,240398:0:0:0:0:
320,192,240236,1,0,0:0:0:0:
192,192,240559,128,0,240720:0:0:0:0:
64,192,240559,1,0,0:0:0:0:
448,192,240881,128,0,241043:0:0:0:0:
320,192,240881,1,0,0:0:0:0:
192,192,241204,128,0,241365:0:0:0:0:
64,192,241204,1,0,0:0:0:0:
448,192,241527,128,0,241688:0:0:0:0:
320,192,241527,1,0,0:0:0:0:
192,192,241849,128,0,242011:0:0:0:0:
64,192,241849,1,0,0:0:0:0:
448,192,242172,128,0,242333:0:0:0:0:
320,192,242172,1,0,0:0:0:0:
192,192,242494,128,0,242656:0:0:0:0:
64,192,242494,1,0,0:0:0:0:
320,192,242817,128,0,242978:0:0:0:0:
448,192,242817,1,0,0:0:0:0:
192,192,243140,128,0,243301:0:0:0:0:
64,192,243140,1,0,0:0:0:0:
320,192,243462,128,0,243623:0:0:0:0:
448,192,243462,1,0,0:0:0:0:
192,192,243785,128,0,243946:0:0:0:0:
64,192,243785,1,0,0:0:0:0:
320,192,244107,128,0,244269:0:0:0:0:
448,192,244107,1,0,0:0:0:0:
192,192,244430,128,0,244591:0:0:0:0:
64,192,244430,1,0,0:0:0:0:
320,192,244752,128,0,244914:0:0:0:0:
448,192,244752,1,0,0:0:0:0:
192,192,245075,128,0,245236:0:0:0:0:
320,192,245236,5,0,0:0:0:0:
192,192,245398,5,0,0:0:0:0:
64,192,245398,5,0,0:0:0:0:
448,192,245398,5,0,0:0:0:0:
320,192,245640,5,0,0:0:0:0:
192,192,245640,5,0,0:0:0:0:
448,192,245881,5,0,0:0:0:0:
320,192,245881,5,0,0:0:0:0:
64,192,245881,5,0,0:0:0:0:
192,192,246123,5,0,0:0:0:0:
64,192,246123,5,0,0:0:0:0:
320,192,246285,5,0,0:0:0:0:
448,192,246285,5,0,0:0:0:0:
192,192,246285,5,0,0:0:0:0:
320,192,246607,5,0,0:0:0:0:
192,192,246607,5,0,0:0:0:0:
64,192,246769,5,0,0:0:0:0:
448,192,246769,5,0,0:0:0:0:
192,192,246769,5,0,0:0:0:0:
320,192,247172,128,0,247333:0:0:0:0:
192,192,247333,5,0,0:0:0:0:
448,192,247333,5,0,0:0:0:0:
64,192,247333,128,0,247978:0:0:0:0:
320,192,247978,5,0,0:0:0:0:
448,192,247978,128,0,251849:0:0:0:0:
64,192,248140,5,0,0:0:0:0:
192,192,248140,5,0,0:0:0:0:
320,192,248462,5,0,0:0:0:0:
192,192,248543,5,0,0:0:0:0:
320,192,248623,5,0,0:0:0:0:
64,192,248623,5,0,0:0:0:0:
192,192,248785,5,0,0:0:0:0:
64,192,249107,5,0,0:0:0:0:
192,192,249269,5,0,0:0:0:0:
320,192,249269,5,0,0:0:0:0:
64,192,249430,5,0,0:0:0:0:
192,192,249752,5,0,0:0:0:0:
320,192,249833,5,0,0:0:0:0:
192,192,249914,5,0,0:0:0:0:
64,192,249914,5,0,0:0:0:0:
320,192,250075,5,0,0:0:0:0:
192,192,250398,5,0,0:0:0:0:
64,192,250559,5,0,0:0:0:0:
320,192,250559,5,0,0:0:0:0:
192,192,250720,5,0,0:0:0:0:
320,192,251043,5,0,0:0:0:0:
192,192,251123,5,0,0:0:0:0:
64,192,251204,5,0,0:0:0:0:
320,192,251204,5,0,0:0:0:0:
192,192,251365,5,0,0:0:0:0:
64,192,251688,5,0,0:0:0:0:
192,192,251849,5,0,0:0:0:0:
320,192,251849,128,0,252494:0:0:0:0:
448,192,252011,5,0,0:0:0:0:
64,192,252333,5,0,0:0:0:0:
448,192,252494,5,0,0:0:0:0:
192,192,252494,128,0,253140:0:0:0:0:
320,192,252656,5,0,0:0:0:0:
320,192,252978,5,0,0:0:0:0:
448,192,253140,5,0,0:0:0:0:
64,192,253140,128,0,257011:0:0:0:0:
320,192,253301,5,0,0:0:0:0:
192,192,253623,5,0,0:0:0:0:
320,192,253704,5,0,0:0:0:0:
448,192,253785,5,0,0:0:0:0:
192,192,253785,5,0,0:0:0:0:
320,192,253946,5,0,0:0:0:0:
448,192,254269,5,0,0:0:0:0:
192,192,254430,5,0,0:0:0:0:
320,192,254430,5,0,0:0:0:0:
448,192,254591,5,0,0:0:0:0:
192,192,254914,5,0,0:0:0:0:
320,192,254994,5,0,0:0:0:0:
448,192,255075,5,0,0:0:0:0:
192,192,255075,5,0,0:0:0:0:
320,192,255236,5,0,0:0:0:0:
192,192,255559,5,0,0:0:0:0:
320,192,255720,5,0,0:0:0:0:
448,192,255720,5,0,0:0:0:0:
192,192,255881,5,0,0:0:0:0:
192,192,256204,5,0,0:0:0:0:
320,192,256285,5,0,0:0:0:0:
192,192,256365,5,0,0:0:0:0:
448,192,256365,5,0,0:0:0:0:
320,192,256527,5,0,0:0:0:0:
192,192,256849,5,0,0:0:0:0:
448,192,257011,5,0,0:0:0:0:
320,192,257011,5,0,0:0:0:0:
64,192,257172,5,0,0:0:0:0:
192,192,257172,5,0,0:0:0:0:
320,192,257333,5,0,0:0:0:0:
448,192,257333,5,0,0:0:0:0:
64,192,257494,5,0,0:0:0:0:
192,192,257575,5,0,0:0:0:0:
320,192,257656,5,0,0:0:0:0:
448,192,257656,5,0,0:0:0:0:
192,192,257817,5,0,0:0:0:0:
64,192,257817,5,0,0:0:0:0:
448,192,258140,5,0,0:0:0:0:
320,192,258220,5,0,0:0:0:0:
192,192,258301,5,0,0:0:0:0:
64,192,258301,128,0,263462:0:0:0:0:
320,192,258462,5,0,0:0:0:0:
448,192,258462,5,0,0:0:0:0:
320,192,258785,5,0,0:0:0:0:
192,192,258946,5,0,0:0:0:0:
448,192,258946,5,0,0:0:0:0:
320,192,259107,5,0,0:0:0:0:
192,192,259430,5,0,0:0:0:0:
320,192,259511,5,0,0:0:0:0:
448,192,259591,5,0,0:0:0:0:
192,192,259591,5,0,0:0:0:0:
320,192,259752,5,0,0:0:0:0:
320,192,260075,5,0,0:0:0:0:
192,192,260236,5,0,0:0:0:0:
448,192,260236,5,0,0:0:0:0:
320,192,260398,5,0,0:0:0:0:
192,192,260720,5,0,0:0:0:0:
320,192,260801,5,0,0:0:0:0:
448,192,260881,5,0,0:0:0:0:
192,192,260881,5,0,0:0:0:0:
320,192,261043,5,0,0:0:0:0:
192,192,261365,5,0,0:0:0:0:
320,192,261527,5,0,0:0:0:0:
448,192,261527,5,0,0:0:0:0:
192,192,261688,5,0,0:0:0:0:
448,192,262011,5,0,0:0:0:0:
320,192,262091,5,0,0:0:0:0:
448,192,262172,5,0,0:0:0:0:
192,192,262172,5,0,0:0:0:0:
320,192,262333,5,0,0:0:0:0:
448,192,262656,5,0,0:0:0:0:
192,192,262817,5,0,0:0:0:0:
320,192,262817,5,0,0:0:0:0:
448,192,262978,5,0,0:0:0:0:
192,192,263301,5,0,0:0:0:0:
320,192,263381,5,0,0:0:0:0:
448,192,263462,5,0,0:0:0:0:
192,192,263462,128,0,264752:0:0:0:0:
320,192,263623,5,0,0:0:0:0:
448,192,263946,5,0,0:0:0:0:
320,192,264107,5,0,0:0:0:0:
64,192,264107,5,0,0:0:0:0:
448,192,264269,5,0,0:0:0:0:
64,192,264591,5,0,0:0:0:0:
448,192,264752,5,0,0:0:0:0:
64,192,264752,5,0,0:0:0:0:
320,192,264752,128,0,266043:0:0:0:0:
192,192,264914,5,0,0:0:0:0:
448,192,265236,5,0,0:0:0:0:
64,192,265398,5,0,0:0:0:0:
192,192,265398,5,0,0:0:0:0:
448,192,265559,5,0,0:0:0:0:
64,192,265881,5,0,0:0:0:0:
192,192,266043,5,0,0:0:0:0:
448,192,266043,128,0,266688:0:0:0:0:
64,192,266204,5,0,0:0:0:0:
320,192,266607,5,0,0:0:0:0:
64,192,266688,5,0,0:0:0:0:
192,192,266688,5,0,0:0:0:0:
320,192,266688,128,0,267333:0:0:0:0:
448,192,266849,5,0,0:0:0:0:
64,192,267172,5,0,0:0:0:0:
448,192,267333,5,0,0:0:0:0:
192,192,267333,128,0,267978:0:0:0:0:
320,192,267494,5,0,0:0:0:0:
448,192,267817,5,0,0:0:0:0:
320,192,267978,5,0,0:0:0:0:
448,192,267978,5,0,0:0:0:0:
64,192,267978,128,0,268623:0:0:0:0:
192,192,268140,5,0,0:0:0:0:
448,192,268301,5,0,0:0:0:0:
192,192,268462,5,0,0:0:0:0:
320,192,268623,5,0,0:0:0:0:
448,192,268623,128,0,272494:0:0:0:0:
192,192,268785,5,0,0:0:0:0:
64,192,269107,5,0,0:0:0:0:
192,192,269188,5,0,0:0:0:0:
320,192,269269,5,0,0:0:0:0:
64,192,269269,5,0,0:0:0:0:
192,192,269430,5,0,0:0:0:0:
320,192,269752,5,0,0:0:0:0:
64,192,269914,5,0,0:0:0:0:
192,192,269914,5,0,0:0:0:0:
320,192,270075,5,0,0:0:0:0:
64,192,270398,5,0,0:0:0:0:
192,192,270478,5,0,0:0:0:0:
320,192,270559,5,0,0:0:0:0:
64,192,270559,5,0,0:0:0:0:
192,192,270720,5,0,0:0:0:0:
64,192,271043,5,0,0:0:0:0:
192,192,271204,5,0,0:0:0:0:
320,192,271204,5,0,0:0:0:0:
64,192,271365,5,0,0:0:0:0:
320,192,271607,5,0,0:0:0:0:
64,192,271688,5,0,0:0:0:0:
192,192,271769,5,0,0:0:0:0:
320,192,271769,5,0,0:0:0:0:
64,192,272011,5,0,0:0:0:0:
192,192,272333,5,0,0:0:0:0:
320,192,272494,5,0,0:0:0:0:
192,192,272494,128,0,273140:0:0:0:0:
64,192,272656,5,0,0:0:0:0:
448,192,272978,5,0,0:0:0:0:
64,192,273140,5,0,0:0:0:0:
320,192,273140,5,0,0:0:0:0:
448,192,273140,128,0,273785:0:0:0:0:
320,192,273301,5,0,0:0:0:0:
192,192,273623,5,0,0:0:0:0:
320,192,273785,5,0,0:0:0:0:
192,192,273785,5,0,0:0:0:0:
64,192,273785,128,0,277656:0:0:0:0:
320,192,273946,5,0,0:0:0:0:
448,192,274269,5,0,0:0:0:0:
320,192,274349,5,0,0:0:0:0:
448,192,274430,5,0,0:0:0:0:
192,192,274430,5,0,0:0:0:0:
320,192,274591,5,0,0:0:0:0:
192,192,274914,5,0,0:0:0:0:
320,192,275075,5,0,0:0:0:0:
448,192,275075,5,0,0:0:0:0:
192,192,275236,5,0,0:0:0:0:
192,192,275559,5,0,0:0:0:0:
448,192,275640,5,0,0:0:0:0:
320,192,275720,5,0,0:0:0:0:
192,192,275720,5,0,0:0:0:0:
448,192,275881,5,0,0:0:0:0:
448,192,276204,5,0,0:0:0:0:
320,192,276365,5,0,0:0:0:0:
192,192,276365,5,0,0:0:0:0:
448,192,276527,5,0,0:0:0:0:
192,192,276849,5,0,0:0:0:0:
448,192,276930,5,0,0:0:0:0:
320,192,277011,5,0,0:0:0:0:
192,192,277011,5,0,0:0:0:0:
448,192,277172,5,0,0:0:0:0:
320,192,277494,5,0,0:0:0:0:
448,192,277656,5,0,0:0:0:0:
320,192,277736,5,0,0:0:0:0:
192,192,277817,5,0,0:0:0:0:
64,192,277898,5,0,0:0:0:0:
448,192,277978,5,0,0:0:0:0:
320,192,278059,5,0,0:0:0:0:
192,192,278140,5,0,0:0:0:0:
64,192,278220,5,0,0:0:0:0:
320,192,278301,5,0,0:0:0:0:
448,192,278381,5,0,0:0:0:0:
64,192,278462,5,0,0:0:0:0:
192,192,278543,5,0,0:0:0:0:
320,192,278623,5,0,0:0:0:0:
448,192,278704,5,0,0:0:0:0:
192,192,278785,5,0,0:0:0:0:
320,192,278865,5,0,0:0:0:0:
448,192,278946,5,0,0:0:0:0:
64,192,278946,5,0,0:0:0:0:
192,192,279269,5,0,0:0:0:0:
448,192,279269,5,0,0:0:0:0:
320,192,279591,5,0,0:0:0:0:
64,192,279591,5,0,0:0:0:0:
192,192,279914,5,0,0:0:0:0:
320,192,279914,5,0,0:0:0:0:
448,192,280236,5,0,0:0:0:0:
64,192,280236,5,0,0:0:0:0:
320,192,280236,5,0,0:0:0:0:
320,192,280559,5,0,0:0:0:0:
64,192,280559,5,0,0:0:0:0:
64,192,280881,5,0,0:0:0:0:
192,192,280881,5,0,0:0:0:0:
320,192,281204,5,0,0:0:0:0:
448,192,281204,5,0,0:0:0:0:
320,192,281527,5,0,0:0:0:0:
64,192,281527,5,0,0:0:0:0:
192,192,281527,5,0,0:0:0:0:
64,192,281849,5,0,0:0:0:0:
192,192,281849,5,0,0:0:0:0:
448,192,282172,5,0,0:0:0:0:
192,192,282172,5,0,0:0:0:0:
64,192,282494,5,0,0:0:0:0:
320,192,282494,5,0,0:0:0:0:
192,192,282817,5,0,0:0:0:0:
64,192,282817,5,0,0:0:0:0:
448,192,282817,5,0,0:0:0:0:
448,192,283140,5,0,0:0:0:0:
64,192,283140,5,0,0:0:0:0:
192,192,283462,5,0,0:0:0:0:
64,192,283462,5,0,0:0:0:0:
320,192,283462,5,0,0:0:0:0:
320,192,283785,5,0,0:0:0:0:
448,192,283785,5,0,0:0:0:0:
64,192,284107,5,0,0:0:0:0:
192,192,284107,5,0,0:0:0:0:
448,192,284107,5,0,0:0:0:0:
448,192,284430,5,0,0:0:0:0:
192,192,284430,5,0,0:0:0:0:
320,192,284752,5,0,0:0:0:0:
64,192,284752,5,0,0:0:0:0:
192,192,285075,5,0,0:0:0:0:
320,192,285075,5,0,0:0:0:0:
64,192,285398,5,0,0:0:0:0:
448,192,285398,5,0,0:0:0:0:
320,192,285398,5,0,0:0:0:0:
448,192,285720,5,0,0:0:0:0:
320,192,285720,5,0,0:0:0:0:
320,192,286043,5,0,0:0:0:0:
64,192,286043,5,0,0:0:0:0:
448,192,286365,5,0,0:0:0:0:
192,192,286365,5,0,0:0:0:0:
64,192,286688,5,0,0:0:0:0:
320,192,286688,5,0,0:0:0:0:
192,192,286688,5,0,0:0:0:0:
192,192,287011,5,0,0:0:0:0:
320,192,287011,5,0,0:0:0:0:
448,192,287333,5,0,0:0:0:0:
320,192,287333,5,0,0:0:0:0:
320,192,287656,5,0,0:0:0:0:
64,192,287656,5,0,0:0:0:0:
64,192,287978,5,0,0:0:0:0:
192,192,287978,5,0,0:0:0:0:
448,192,287978,5,0,0:0:0:0:
448,192,288301,5,0,0:0:0:0:
320,192,288301,5,0,0:0:0:0:
64,192,288623,5,0,0:0:0:0:
320,192,288623,5,0,0:0:0:0:
192,192,288946,5,0,0:0:0:0:
448,192,288946,5,0,0:0:0:0:
320,192,289269,128,0,289591:0:0:0:0:
448,192,289269,128,0,291849:0:0:0:0:
64,192,289591,5,0,0:0:0:0:
192,192,289752,5,0,0:0:0:0:
320,192,289914,5,0,0:0:0:0:
64,192,289914,5,0,0:0:0:0:
192,192,290075,5,0,0:0:0:0:
64,192,290236,5,0,0:0:0:0:
320,192,290398,128,0,290720:0:0:0:0:
192,192,290720,5,0,0:0:0:0:
64,192,290881,5,0,0:0:0:0:
320,192,291043,5,0,0:0:0:0:
192,192,291204,128,0,291365:0:0:0:0:
64,192,291365,5,0,0:0:0:0:
320,192,291527,5,0,0:0:0:0:
192,192,291688,5,0,0:0:0:0:
64,192,291849,128,0,294430:0:0:0:0:
320,192,291849,128,0,292172:0:0:0:0:
192,192,292172,5,0,0:0:0:0:
448,192,292333,5,0,0:0:0:0:
192,192,292494,5,0,0:0:0:0:
320,192,292494,5,0,0:0:0:0:
448,192,292656,5,0,0:0:0:0:
192,192,292817,5,0,0:0:0:0:
320,192,292978,128,0,293301:0:0:0:0:
448,192,293301,5,0,0:0:0:0:
192,192,293462,5,0,0:0:0:0:
320,192,293623,5,0,0:0:0:0:
192,192,293785,128,0,293946:0:0:0:0:
320,192,293946,5,0,0:0:0:0:
448,192,294107,5,0,0:0:0:0:
320,192,294269,5,0,0:0:0:0:
448,192,294430,128,0,297011:0:0:0:0:
192,192,294430,128,0,294752:0:0:0:0:
64,192,294752,5,0,0:0:0:0:
192,192,294914,5,0,0:0:0:0:
64,192,295075,5,0,0:0:0:0:
320,192,295075,5,0,0:0:0:0:
192,192,295236,5,0,0:0:0:0:
64,192,295398,5,0,0:0:0:0:
320,192,295559,128,0,295881:0:0:0:0:
64,192,295881,5,0,0:0:0:0:
192,192,296043,5,0,0:0:0:0:
64,192,296204,5,0,0:0:0:0:
192,192,296365,128,0,296527:0:0:0:0:
320,192,296527,5,0,0:0:0:0:
64,192,296688,5,0,0:0:0:0:
192,192,296849,5,0,0:0:0:0:
64,192,297011,128,0,299591:0:0:0:0:
320,192,297011,128,0,297333:0:0:0:0:
448,192,297333,5,0,0:0:0:0:
192,192,297494,5,0,0:0:0:0:
448,192,297656,5,0,0:0:0:0:
320,192,297656,5,0,0:0:0:0:
192,192,297817,5,0,0:0:0:0:
320,192,297978,5,0,0:0:0:0:
448,192,298140,128,0,298462:0:0:0:0:
192,192,298462,5,0,0:0:0:0:
320,192,298623,5,0,0:0:0:0:
192,192,298785,5,0,0:0:0:0:
448,192,298946,128,0,299107:0:0:0:0:
320,192,299107,5,0,0:0:0:0:
192,192,299269,5,0,0:0:0:0:
320,192,299430,5,0,0:0:0:0:
448,192,299591,128,0,302172:0:0:0:0:
192,192,299591,128,0,299752:0:0:0:0:
320,192,299752,5,0,0:0:0:0:
64,192,299914,128,0,300075:0:0:0:0:
320,192,299914,128,0,300075:0:0:0:0:
192,192,300236,128,0,300559:0:0:0:0:
320,192,300559,5,0,0:0:0:0:
64,192,300720,5,0,0:0:0:0:
320,192,300881,5,0,0:0:0:0:
192,192,301043,128,0,301204:0:0:0:0:
64,192,301043,128,0,301204:0:0:0:0:
320,192,301365,128,0,301688:0:0:0:0:
192,192,301688,5,0,0:0:0:0:
64,192,301849,5,0,0:0:0:0:
320,192,302011,5,0,0:0:0:0:
64,192,302172,128,0,304752:0:0:0:0:
192,192,302172,128,0,302333:0:0:0:0:
320,192,302333,5,0,0:0:0:0:
448,192,302494,128,0,302656:0:0:0:0:
320,192,302494,128,0,302656:0:0:0:0:
192,192,302817,128,0,303140:0:0:0:0:
448,192,303140,5,0,0:0:0:0:
320,192,303301,5,0,0:0:0:0:
192,192,303462,5,0,0:0:0:0:
448,192,303623,128,0,303785:0:0:0:0:
320,192,303623,128,0,303785:0:0:0:0:
192,192,303946,128,0,304269:0:0:0:0:
448,192,304269,5,0,0:0:0:0:
320,192,304430,5,0,0:0:0:0:
448,192,304591,5,0,0:0:0:0:
192,192,304752,5,0,0:0:0:0:
320,192,304752,128,0,305236:0:0:0:0:
448,192,305236,5,0,0:0:0:0:
192,192,305236,128,0,305720:0:0:0:0:
320,192,305720,5,0,0:0:0:0:
64,192,305720,128,0,307333:0:0:0:0:
448,192,305720,128,0,307333:0:0:0:0:
320,192,307333,5,0,0:0:0:0:
192,192,307333,128,0,307817:0:0:0:0:
64,192,307817,5,0,0:0:0:0:
320,192,307817,128,0,308301:0:0:0:0:
192,192,308301,5,0,0:0:0:0:
448,192,308301,128,0,309914:0:0:0:0:
64,192,308301,128,0,309914:0:0:0:0:
192,192,310075,128,0,316365:0:0:0:0:
320,192,310156,128,0,316365:0:0:0:0:
448,192,310236,128,0,316365:0:0:0:0:
