osu file format v14

[General]
AudioFilename: chaosmyth.mp3
AudioLeadIn: 0
PreviewTime: 144074
Countdown: 0
SampleSet: Soft
StackLeniency: 0.7
Mode: 0
LetterboxInBreaks: 1
WidescreenStoryboard: 0

[Editor]
Bookmarks: 20823,56952,103403,144694,191145,232516,241468,247920,289210,299533,313726,316307
DistanceSpacing: 1.5
BeatDivisor: 8
GridSize: 4
TimelineZoom: 2.1

[Metadata]
Title:C.h.a.o.s.m.y.t.h.
TitleUnicode:C.h.a.o.s.m.y.t.h.
Artist:ONE OK ROCK
ArtistUnicode:ONE OK ROCK
Creator:-Lemons
Version:Old
Source:
Tags:Zankyo Reference 残響リファレンス Post Hardcore Alt Rock chaosmyth
BeatmapID:818634
BeatmapSetID:295555

[Difficulty]
HPDrainRate:8
CircleSize:4
OverallDifficulty:8
ApproachRate:9
SliderMultiplier:3.4
SliderTickRate:4

[Events]
//Background and Video events
0,0,"Akio-baka.full.463983.jpg",0,0
//Break Periods
2,191468,192436
2,196629,197597
2,201791,202758
2,232758,240823
//Storyboard Layer 0 (Background)
//Storyboard Layer 1 (Fail)
//Storyboard Layer 2 (Pass)
//Storyboard Layer 3 (Foreground)
//Storyboard Sound Samples

[TimingPoints]
204,645.161290322581,4,2,0,30,1,0
1333,-200,4,2,0,30,0,0
1655,-100,4,2,0,30,0,0
3913,-200,4,2,0,30,0,0
4236,-100,4,2,0,30,0,0
6494,-200,4,2,0,30,0,0
6816,-100,4,2,0,30,0,0
9074,-200,4,2,0,30,0,0
9397,-100,4,2,0,30,0,0
11171,-200,4,2,0,30,0,0
11494,-100,4,2,0,30,0,0
12300,-200,4,2,0,30,0,0
12623,-100,4,2,0,30,0,0
13752,-200,4,2,0,30,0,0
14074,-100,4,2,0,30,0,0
14881,-200,4,2,0,30,0,0
15203,-100,4,2,0,30,0,0
16655,-200,4,2,0,30,0,0
20823,645.161290322581,4,1,1,40,1,0
20823,-100,4,1,1,40,0,0
21952,-153.846153846154,4,1,1,40,0,0
22274,-100,4,1,1,40,0,0
24532,-153.846153846154,4,1,1,40,0,0
24855,-100,4,1,1,40,0,0
27113,-153.846153846154,4,1,1,40,0,0
27436,-100,4,1,1,40,0,0
29694,-153.846153846154,4,1,1,40,0,0
30016,-100,4,1,1,40,0,0
31791,-153.846153846154,4,1,1,40,0,0
32113,-100,4,1,1,40,0,0
32920,-153.846153846154,4,1,1,40,0,0
33242,-100,4,1,1,40,0,0
34371,-153.846153846154,4,1,1,40,0,0
34694,-100,4,1,1,40,0,0
35500,-153.846153846154,4,1,1,40,0,0
35823,-100,4,1,1,40,0,0
39855,-200,4,1,1,40,0,0
41145,-100,4,1,1,40,0,0
42597,-153.846153846154,4,1,1,40,0,0
42920,-100,4,1,1,40,0,0
45178,-153.846153846154,4,1,1,40,0,0
45500,-100,4,1,1,40,0,0
47758,-153.846153846154,4,1,1,40,0,0
48081,-100,4,1,1,40,0,0
50339,-153.846153846154,4,1,1,40,0,0
50662,-100,4,1,1,40,0,0
52436,-153.846153846154,4,1,1,40,0,0
52758,-100,4,1,1,40,0,0
53565,-153.846153846154,4,1,1,40,0,0
53887,-100,4,1,1,40,0,0
55016,-153.846153846154,4,1,1,40,0,0
55339,-100,4,1,1,40,0,0
56145,-153.846153846154,4,1,1,40,0,0
56468,-100,4,1,1,40,0,0
56952,-100,4,1,1,60,0,0
59533,-100,4,1,1,70,0,0
60178,-100,4,1,1,75,0,0
60823,-100,4,1,1,80,0,0
61468,-100,4,1,1,85,0,0
62113,-66.6666666666667,4,1,1,90,0,1
72435,-80,4,1,1,80,0,0
72920,-66.6666666666667,4,1,1,80,0,0
77113,-80,4,1,1,80,0,0
82436,-100,4,1,1,80,0,0
82758,-66.6666666666667,4,1,1,90,0,1
97919,-66.6666666666667,4,1,1,80,0,0
102758,-100,4,1,1,40,0,0
102920,-100,4,1,1,40,0,0
103081,-133.333333333333,4,1,1,40,0,0
103403,-100,4,2,0,50,0,0
108565,-100,4,1,1,50,0,0
131790,-133.333333333333,4,1,1,50,0,0
133081,-133.333333333333,4,2,0,50,0,0
134049,-100,4,1,1,60,0,0
142758,-100,4,1,1,70,0,0
143403,-100,4,1,1,75,0,0
144049,-100,4,1,1,80,0,0
144693,-66.6666666666667,4,1,1,90,0,1
155016,-80,4,1,1,80,0,0
165177,-66.6666666666667,4,1,1,90,0,1
180500,-66.6666666666667,4,1,1,80,0,0
185984,-100,4,1,1,50,0,0
191145,-100,4,2,0,70,0,0
206629,-100,4,1,1,75,0,0
209210,-100,4,1,1,100,0,0
211791,-100,4,1,1,85,0,0
241468,-100,4,2,0,50,0,0
245339,-100,4,1,1,70,0,0
245984,-100,4,1,1,75,0,0
246629,-100,4,1,1,80,0,0
247274,-100,4,1,1,85,0,0
247919,-66.6666666666667,4,1,1,90,0,1
258242,-80,4,1,1,80,0,0
268564,-66.6666666666667,4,1,1,90,0,1
278887,-100,4,1,1,80,0,0
289210,-100,4,2,0,50,0,0
296638,645.161290322581,4,2,0,30,1,0
298089,-153.846153846154,4,2,0,30,0,0
298412,-100,4,2,0,30,0,0
300186,-153.846153846154,4,2,0,30,0,0
300508,-100,4,2,0,30,0,0
301315,-153.846153846154,4,2,0,30,0,0
301638,-100,4,2,0,30,0,0
302767,-153.846153846154,4,2,0,30,0,0
303090,-100,4,2,0,30,0,0
303896,-153.846153846154,4,2,0,30,0,0
304218,-100,4,2,0,30,0,0
305670,-200,4,2,0,30,0,0
307299,645.161290322581,4,2,0,20,1,0
308266,-200,4,2,0,20,0,0
309987,645.161290322581,4,2,0,20,1,0

[Colours]
Combo1 : 73,41,39
Combo2 : 116,217,98
Combo3 : 61,98,135
Combo4 : 254,174,111
Combo5 : 230,215,184

[HitObjects]
84,17,204,6,0,L|164:56,1,85,2|0,0:0|0:0,0:0:0:0:
92,152,526,1,0,0:0:0:0:
166,267,849,5,8,0:0:0:0:
276,342,1010,1,0,0:0:0:0:
307,209,1171,1,0,0:0:0:0:
404,376,1333,2,0,B|448:356|460:304,1,85,2|0,0:0|0:0,0:0:0:0:
404,204,1816,2,0,P|368:232|344:276,1,85,2|0,0:0|0:0,0:0:0:0:
496,188,2139,1,8,0:0:0:0:
356,44,2300,2,0,P|371:84|401:114,1,85
504,92,2623,2,0,P|490:53|460:23,1,85,0|2,0:0|0:0,0:0:0:0:
272,52,2945,5,0,0:0:0:0:
224,236,3107,1,0,0:0:0:0:
84,176,3268,1,0,0:0:0:0:
248,144,3429,2,0,L|348:148,1,85,8|0,0:0|0:0,0:0:0:0:
272,52,3752,1,0,0:0:0:0:
400,12,3913,2,0,B|412:56|384:96,1,85,2|0,0:0|0:0,0:0:0:0:
232,192,4397,1,2,0:0:0:0:
292,304,4558,1,0,0:0:0:0:
372,204,4720,2,0,P|413:211|453:199,1,85,8|0,0:0|0:0,0:0:0:0:
408,118,5042,2,0,P|368:110|316:130,1,85
128,144,5365,6,0,P|80:132|24:144,1,85,2|0,0:0|0:0,0:0:0:0:
276,188,5687,2,0,P|292:236|280:280,1,85
148,352,6010,1,8,0:0:0:0:
196,240,6171,1,0,0:0:0:0:
89,313,6333,1,0,0:0:0:0:
144,192,6494,2,0,B|136:144|180:120,1,85,2|0,0:0|0:0,0:0:0:0:
88,312,6978,1,2,0:0:0:0:
224,184,7139,1,0,0:0:0:0:
368,260,7300,2,0,P|408:284|448:284,1,85,8|0,0:0|0:0,0:0:0:0:
432,192,7623,2,0,P|388:160|344:168,1,85
320,324,7945,6,0,L|244:284,1,85,2|0,0:0|0:0,0:0:0:0:
120,180,8268,1,0,0:0:0:0:
244,284,8429,1,0,0:0:0:0:
100,212,8591,1,8,0:0:0:0:
144,356,8752,1,0,0:0:0:0:
36,296,8913,1,0,0:0:0:0:
0,172,9074,2,0,B|20:132|64:112,1,85,2|0,0:0|0:0,0:0:0:0:
228,124,9558,1,2,0:0:0:0:
232,252,9720,1,0,0:0:0:0:
352,180,9881,1,8,0:0:0:0:
228,124,10042,1,0,0:0:0:0:
292,296,10203,2,0,P|332:328|392:340,1,85
352,204,10526,5,2,0:0:0:0:
168,204,10687,1,0,0:0:0:0:
272,84,10849,1,0,0:0:0:0:
268,328,11010,1,0,0:0:0:0:
152,204,11171,2,0,B|116:200|116:200|72:216|32:188,1,85,8|0,0:0|0:0,0:0:0:0:
248,212,11655,1,2,0:0:0:0:
196,88,11816,5,0,0:0:0:0:
304,212,11978,1,0,0:0:0:0:
212,352,12139,1,0,0:0:0:0:
384,216,12300,2,0,B|386:179|386:179|367:136|393:95,1,85,8|0,0:0|0:0,0:0:0:0:
96,88,12784,2,0,L|228:104,1,85
312,132,13107,1,2,0:0:0:0:
248,260,13268,5,0,0:0:0:0:
120,216,13429,2,0,L|40:248,1,85
200,11,13752,2,0,B|243:-3|284:16,1,85,8|0,0:0|0:0,0:0:0:0:
224,180,14236,1,2,0:0:0:0:
316,66,14397,1,0,0:0:0:0:
308,212,14559,1,0,0:0:0:0:
316,66,14720,1,0,0:0:0:0:
456,152,14881,2,0,B|464:192|464:192|444:240,1,85,8|0,0:0|0:0,0:0:0:0:
312,296,15365,2,0,L|308:196,1,85,2|0,0:0|0:0,0:0:0:0:
328,340,15687,5,0,0:0:0:0:
96,188,16171,1,0,0:0:0:0:
476,124,16655,2,0,P|429:56|348:59,1,170
348,59,18268,5,0,0:0:0:0:
416,188,18752,1,0,0:0:0:0:
88,284,19236,2,0,P|134:352|216:349,1,170
264,280,20823,6,0,B|328:276|328:276|380:300|380:300|452:296,1,170,8|0,0:0|0:0,0:0:0:0:
288,360,21307,1,0,0:0:0:0:
192,208,21468,2,0,L|88:208,1,85,2|0,0:0|0:0,0:0:0:0:
200,64,21790,1,0,0:0:0:0:
268,208,21952,2,0,B|308:212|332:240|332:240|384:212,1,110.499994941712
256,120,22436,1,8,0:0:0:0:
416,132,22597,1,0,0:0:0:0:
192,208,22758,2,0,P|152:232|132:288,1,85,2|0,0:0|0:0,0:0:0:0:
224,296,23081,2,0,P|260:275|281:239,1,85
172,52,23404,5,8,0:0:0:0:
192,208,23565,1,0,0:0:0:0:
336,176,23726,2,0,P|380:192|420:168,1,85
360,60,24048,2,0,P|321:45|281:57,1,85,2|0,0:0|0:0,0:0:0:0:
192,208,24371,1,0,0:0:0:0:
92,40,24532,2,0,B|80:64|80:64|32:92|40:144,1,110.499994941712
112,300,25016,1,8,0:0:0:0:
296,336,25177,1,0,0:0:0:0:
336,184,25339,2,0,P|380:192|420:176,1,85,2|0,0:0|0:0,0:0:0:0:
372,108,25661,2,0,P|332:95|293:110,1,85
68,212,25984,5,8,0:0:0:0:
144,376,26145,1,0,0:0:0:0:
226,203,26307,2,0,P|186:191|144:192,1,85,2|0,0:0|0:0,0:0:0:0:
191,279,26629,2,0,P|231:291|274:291,1,85
196,88,26952,1,0,0:0:0:0:
304,136,27113,2,0,B|348:144|376:120|376:120|408:176,1,110.499994941712
388,368,27597,1,8,0:0:0:0:
292,244,27758,1,0,0:0:0:0:
492,212,27919,2,0,L|503:123,1,85,2|0,0:0|0:0,0:0:0:0:
324,56,28242,1,0,0:0:0:0:
493,212,28403,1,0,0:0:0:0:
336,152,28564,6,0,B|296:112|228:136|228:136|248:136,1,85,8|0,0:0|0:0,0:0:0:0:
196,208,28887,2,0,B|236:240|274:227,1,85
88,268,29210,2,0,P|64:216|80:168,1,85,2|0,0:0|0:0,0:0:0:0:
256,132,29532,1,0,0:0:0:0:
216,304,29694,2,0,B|244:308|268:324|268:324|292:312|328:312,1,110.499994941712
184,204,30177,1,8,0:0:0:0:
272,60,30339,1,0,0:0:0:0:
76,160,30500,2,0,P|64:116|84:72,1,85,2|0,0:0|0:0,0:0:0:0:
169,43,30823,2,0,P|181:87|161:131,1,85
144,312,31145,5,8,0:0:0:0:
272,224,31307,2,0,P|220:216|168:232,1,85
320,92,31629,1,0,0:0:0:0:
404,144,31791,2,0,B|416:168|444:180|444:180|432:212|436:236,1,110.499994941712,2|0,0:0|0:0,0:0:0:0:
228,244,32274,5,0,0:0:0:0:
272,136,32436,1,0,0:0:0:0:
292,312,32597,1,0,0:0:0:0:
124,212,32758,1,10,0:0:0:0:
120,348,32920,2,0,B|164:332|168:296|168:296|204:280,1,110.499994941712
320,336,33403,1,0,0:0:0:0:
296,160,33565,1,0,0:0:0:0:
452,284,33726,6,0,P|407:252|395:213,1,85,8|0,0:0|0:0,0:0:0:0:
360,132,34048,2,0,P|404:124|460:152,1,85
404,24,34371,2,0,B|368:32|328:24|328:24|292:44,1,110.499994941712,2|0,0:0|0:0,0:0:0:0:
232,197,34855,5,0,0:0:0:0:
344,138,35016,1,0,0:0:0:0:
346,256,35177,1,0,0:0:0:0:
246,309,35339,1,8,0:0:0:0:
452,160,35500,2,0,B|432:140|432:140|440:104|408:80|382:93,1,110.499994941712
324,212,35984,1,8,0:0:0:0:
184,204,36145,1,0,0:0:0:0:
284,348,36307,6,0,P|372:344|436:260,1,170,10|0,0:0|0:0,0:0:0:0:
452,160,36790,2,0,P|372:140|284:192,1,170,2|0,0:0|0:0,0:0:0:0:
216,272,37274,2,0,P|132:188|196:84,1,255,2|0,0:0|0:0,0:0:0:0:
232,176,37919,1,8,0:0:0:0:
232,176,38242,1,2,0:0:0:0:
440,100,38887,6,0,P|352:48|248:116,1,170,2|0,0:0|0:0,0:0:0:0:
348,160,39371,2,0,P|256:192|156:128,1,170,2|0,0:0|0:0,0:0:0:0:
136,56,39855,6,0,P|68:160|144:288,1,255,2|0,0:0|0:0,0:0:0:0:
248,336,41145,1,0,0:0:0:0:
252,200,41468,6,0,L|168:192,1,85,8|0,0:0|0:0,0:0:0:0:
400,268,41790,2,0,P|420:232|412:188,1,85
264,64,42113,1,2,0:0:0:0:
336,172,42274,1,0,0:0:0:0:
264,300,42436,1,0,0:0:0:0:
183,175,42597,2,0,B|192:136|227:123|227:123|235:71,1,110.499994941712
376,44,43081,1,8,0:0:0:0:
440,144,43242,1,0,0:0:0:0:
380,316,43403,2,0,P|405:283|406:241,1,85,2|0,0:0|0:0,0:0:0:0:
336,172,43726,2,0,P|310:204|309:246,1,85
444,64,44048,5,8,0:0:0:0:
336,172,44210,1,0,0:0:0:0:
196,152,44371,1,0,0:0:0:0:
293,40,44532,1,0,0:0:0:0:
272,224,44694,2,0,P|284:264|272:328,1,85,2|0,0:0|0:0,0:0:0:0:
188,384,45016,1,0,0:0:0:0:
84,344,45178,2,0,B|88:296|52:272|52:272|64:232,1,110.499994941712
200,244,45661,1,8,0:0:0:0:
240,104,45823,1,0,0:0:0:0:
300,236,45984,2,0,P|280:280|288:316,1,85,2|0,0:0|0:0,0:0:0:0:
372,372,46307,2,0,P|388:324|384:288,1,85
248,144,46629,5,8,0:0:0:0:
392,176,46790,1,0,0:0:0:0:
196,316,46952,2,0,P|188:276|208:236,1,85
292,184,47274,2,0,P|308:232|300:272,1,85,2|0,0:0|0:0,0:0:0:0:
371,370,47597,1,0,0:0:0:0:
504,252,47758,2,0,B|496:220|496:220|504:172|504:172|492:140,1,110.499994941712
392,240,48242,1,8,0:0:0:0:
264,304,48403,1,0,0:0:0:0:
157,195,48565,2,0,P|182:161|184:120,1,85,2|0,0:0|0:0,0:0:0:0:
120,44,48888,2,0,P|92:80|84:120,1,85
284,216,49210,5,8,0:0:0:0:
212,336,49371,1,0,0:0:0:0:
184,116,49532,2,0,P|180:76|212:32,1,85
300,0,49854,2,0,P|304:44|292:88,1,85,2|0,0:0|0:0,0:0:0:0:
140,240,50177,1,0,0:0:0:0:
212,336,50339,2,0,B|240:336|264:348|264:348|288:336|320:332,1,110.499994941712
196,216,50823,1,8,0:0:0:0:
340,124,50984,1,0,0:0:0:0:
176,44,51145,2,0,P|144:40|96:64,1,85,2|0,0:0|0:0,0:0:0:0:
28,140,51468,2,0,P|68:160|112:164,1,85
280,52,51790,5,8,0:0:0:0:
184,200,51952,1,0,0:0:0:0:
144,80,52113,1,0,0:0:0:0:
312,196,52274,1,0,0:0:0:0:
448,96,52436,2,0,B|484:136|484:136|488:204,1,110.499994941712,2|0,0:0|0:0,0:0:0:0:
312,296,52919,5,0,0:0:0:0:
240,144,53081,1,0,0:0:0:0:
88,224,53242,2,0,P|72:184|100:144,1,85,0|8,0:0|0:0,0:0:0:0:
224,8,53565,2,0,B|272:8|292:32|292:32|332:32,1,110.499994941712
240,144,54048,5,0,0:0:0:0:
364,268,54210,2,0,P|388:264|416:208,1,85,0|8,0:0|0:0,0:0:0:0:
208,212,54532,1,0,0:0:0:0:
312,88,54694,1,0,0:0:0:0:
276,348,54855,1,0,0:0:0:0:
104,252,55016,2,0,B|152:216|92:188|140:144,1,110.499994941712,2|0,0:0|0:0,0:0:0:0:
416,88,55500,6,0,L|331:98,1,85
200,132,55823,1,0,0:0:0:0:
256,256,55984,1,8,0:0:0:0:
360,204,56145,2,0,B|396:200|396:200|440:224|484:188,1,110.499994941712
284,52,56629,1,0,0:0:0:0:
200,132,56790,1,0,0:0:0:0:
256,256,56952,5,8,0:0:0:0:
256,256,57274,1,0,0:0:0:0:
256,256,57597,1,8,0:0:0:0:
256,32,57919,5,0,0:0:0:0:
360,320,58242,1,8,0:0:0:0:
108,120,58565,1,0,0:0:0:0:
400,120,58887,1,8,0:0:0:0:
140,320,59210,1,0,0:0:0:0:
356,124,59532,6,0,L|256:128,1,85,8|0,0:0|0:0,0:0:0:0:
100,240,59855,2,0,L|142:243,1,42.5,8|0,0:0|0:0,0:0:0:0:
332,248,60016,2,0,L|272:245,1,42.5
200,128,60177,2,0,L|136:120,1,42.5,8|0,0:0|0:0,0:0:0:0:
272,56,60339,2,0,L|344:48,1,42.5
408,84,60500,2,0,P|436:136|436:208,1,127.5,8|0,0:0|0:0,0:0:0:0:
264,152,60823,6,0,L|276:112,1,42.5,8|0,0:0|0:0,0:0:0:0:
312,240,60984,2,0,L|351:264,1,42.5
400,280,61145,1,8,0:0:0:0:
368,328,61226,1,0,0:0:0:0:
316,352,61307,1,0,0:0:0:0:
268,328,61387,1,0,0:0:0:0:
220,356,61468,5,8,0:0:0:0:
172,328,61548,1,0,0:0:0:0:
116,336,61629,1,0,0:0:0:0:
80,296,61710,1,0,0:0:0:0:
60,244,61790,6,0,B|40:120|40:120|92:156,1,170,8|12,0:0|0:0,0:0:0:0:
272,276,62436,5,0,0:0:0:0:
364,108,62597,1,0,0:0:0:0:
256,152,62758,1,8,0:0:0:0:
396,216,62919,1,0,0:0:0:0:
96,96,63242,6,0,B|124:12|212:12|212:12|272:56,1,191.250007295609
256,72,63565,2,0,B|276:140|352:172,1,127.500004863739
176,272,63887,1,0,0:0:0:0:
172,72,64048,1,8,0:0:0:0:
276,160,64210,1,0,0:0:0:0:
448,144,64371,5,0,0:0:0:0:
448,144,64452,1,0,0:0:0:0:
448,144,64532,2,0,B|368:44|368:44|352:108,1,191.250007295609
320,132,64855,2,0,P|301:158|214:184,1,127.500004863739
160,32,65177,1,0,0:0:0:0:
340,224,65339,1,8,0:0:0:0:
140,140,65500,1,0,0:0:0:0:
296,320,65661,1,0,0:0:0:0:
184,320,65823,6,0,B|116:256|208:244|132:128,1,191.250007295609
104,112,66145,2,0,B|28:64|28:64|56:144,1,127.500004863739
232,84,66468,1,0,0:0:0:0:
36,100,66629,1,2,0:0:0:0:
124,8,66790,1,0,0:0:0:0:
224,188,66952,1,2,0:0:0:0:
308,60,67113,1,0,0:0:0:0:
308,60,67193,1,0,0:0:0:0:
308,60,67274,6,0,P|368:68|436:104,1,127.500004863739
280,176,67597,2,0,P|208:168|164:124,1,127.500004863739
104,268,67919,1,8,0:0:0:0:
104,104,68081,1,0,0:0:0:0:
331,375,68403,6,0,P|424:376|482:303,1,191.250007295609
496,272,68726,2,0,P|437:198|437:157,1,127.500004863739
472,24,69048,1,0,0:0:0:0:
296,92,69210,1,8,0:0:0:0:
384,268,69371,1,0,0:0:0:0:
252,216,69532,1,0,0:0:0:0:
252,216,69613,1,0,0:0:0:0:
252,216,69694,2,0,B|172:116|172:116|120:140|152:204,1,191.250007295609
132,208,70016,2,0,P|140:264|188:312,1,127.500004863739
380,316,70339,5,0,0:0:0:0:
252,216,70500,1,8,0:0:0:0:
368,260,70661,1,0,0:0:0:0:
232,156,70823,1,0,0:0:0:0:
428,168,70984,1,0,0:0:0:0:
428,168,71065,1,0,0:0:0:0:
428,168,71145,6,0,P|395:114|335:94,1,127.500004863739
238,121,71468,2,0,P|270:174|329:195,1,127.500004863739
400,48,71790,1,2,0:0:0:0:
184,80,71952,1,0,0:0:0:0:
300,264,72113,1,2,0:0:0:0:
472,252,72274,5,0,0:0:0:0:
472,252,72355,1,0,0:0:0:0:
472,252,72436,2,0,B|440:332|440:332|344:364,1,159.375,8|0,0:0|0:0,0:0:0:0:
328,344,72758,2,0,B|319:376|319:376|274:318,1,106.25
96,120,73081,1,2,0:0:0:0:
256,84,73242,1,0,0:0:0:0:
192,232,73403,1,0,0:0:0:0:
76,320,73565,5,0,0:0:0:0:
76,320,73645,1,0,0:0:0:0:
76,320,73726,2,0,B|160:356|160:356|128:280,1,127.500004863739,8|0,0:0|0:0,0:0:0:0:
376,292,74048,2,0,P|288:276|260:232,1,127.500004863739
208,144,74290,1,0,0:0:0:0:
208,144,74371,2,0,B|256:68|256:68|296:132,1,127.500004863739,2|0,0:0|0:0,0:0:0:0:
388,44,74694,2,0,B|416:68|412:108|412:108|352:152,1,127.500004863739
200,344,75016,6,0,B|260:316|252:235|252:235|259:178,1,170.000006484986,8|0,0:0|0:0,0:0:0:0:
228,184,75339,2,0,L|101:133,1,127.500004863739
180,28,75661,1,2,0:0:0:0:
272,128,75823,1,0,0:0:0:0:
156,256,75984,1,0,0:0:0:0:
344,184,76145,1,0,0:0:0:0:
344,184,76226,1,0,0:0:0:0:
344,184,76307,6,0,B|380:176|380:176|424:196|468:168,1,127.500004863739,8|0,0:0|0:0,0:0:0:0:
416,100,76629,1,0,0:0:0:0:
240,52,76790,1,0,0:0:0:0:
404,72,76952,1,2,0:0:0:0:
224,84,77113,2,0,L|152:188,1,106.25
264,320,77436,1,0,0:0:0:0:
264,320,77597,2,0,L|336:224,1,106.25,8|0,0:0|0:0,0:0:0:0:
136,72,78081,5,0,0:0:0:0:
300,48,78242,1,2,0:0:0:0:
212,24,78403,1,0,0:0:0:0:
348,124,78565,1,0,0:0:0:0:
316,208,78726,1,0,0:0:0:0:
316,208,78887,2,0,B|352:220|352:220|376:192|376:192|448:268|328:328,1,212.5,8|0,0:0|0:0,0:0:0:0:
200,300,79371,5,0,0:0:0:0:
124,256,79532,1,2,0:0:0:0:
112,168,79694,1,0,0:0:0:0:
172,100,79855,1,0,0:0:0:0:
200,300,80177,6,0,L|236:188,1,106.25,8|0,0:0|0:0,0:0:0:0:
480,108,80500,2,0,L|447:209,1,106.25
328,272,80823,2,0,L|364:160,1,106.25,2|0,0:0|0:0,0:0:0:0:
172,98,81145,2,0,L|140:200,1,106.25
200,300,81387,1,0,0:0:0:0:
200,300,81467,6,0,B|264:292|264:292|276:232,1,106.25,2|0,0:0|0:0,0:0:0:0:
296,136,81790,1,0,0:0:0:0:
320,332,81951,1,0,0:0:0:0:
296,84,82113,1,8,0:0:0:0:
200,300,82274,1,0,0:0:0:0:
116,84,82436,2,0,L|144:48,1,42.5
120,204,82597,2,0,L|84:264,1,42.5
36,140,82758,1,0,0:0:0:0:
156,192,82919,5,0,0:0:0:0:
336,276,83081,1,0,0:0:0:0:
176,276,83242,1,0,0:0:0:0:
256,316,83403,1,8,0:0:0:0:
64,328,83565,1,0,0:0:0:0:
272,0,83887,6,0,B|146:40|146:40|132:108,1,191.250007295609
124,148,84210,2,0,P|132:199|200:238,1,127.500004863739
292,48,84532,1,0,0:0:0:0:
208,248,84694,1,8,0:0:0:0:
132,100,84855,1,0,0:0:0:0:
300,176,85016,1,0,0:0:0:0:
424,324,85178,6,0,L|232:304,1,191.250007295609
324,240,85500,2,0,L|182:225,1,127.500004863739
252,80,85823,1,0,0:0:0:0:
409,239,85984,2,0,B|436:180|436:180|408:124,1,127.500004863739,8|0,0:0|0:0,0:0:0:0:
224,32,86307,1,0,0:0:0:0:
72,144,86468,2,0,B|64:212|132:248|132:248|48:320,1,191.250007295609
220,272,86791,2,0,B|220:268|228:220|200:164|156:168|160:164,1,127.500004863739
356,52,87113,5,0,0:0:0:0:
360,176,87274,1,2,0:0:0:0:
224,76,87436,1,0,0:0:0:0:
252,272,87597,1,2,0:0:0:0:
420,336,87758,1,0,0:0:0:0:
420,336,87839,1,0,0:0:0:0:
420,336,87920,2,0,B|472:296|472:296|472:220,1,127.500004863739
396,100,88242,5,0,0:0:0:0:
264,64,88403,1,0,0:0:0:0:
360,184,88565,1,8,0:0:0:0:
120,136,88726,1,0,0:0:0:0:
136,320,89049,6,0,P|264:352|312:324,1,191.250007295609
276,296,89371,2,0,P|283:231|328:172,1,127.500004863739
424,276,89694,1,0,0:0:0:0:
160,136,89855,1,8,0:0:0:0:
372,164,90016,1,0,0:0:0:0:
246,30,90178,1,0,0:0:0:0:
246,30,90258,1,0,0:0:0:0:
245,30,90339,6,0,P|330:-7|424:32,1,191.250007295609
337,112,90662,1,0,0:0:0:0:
280,256,90823,1,0,0:0:0:0:
336,112,90984,1,0,0:0:0:0:
424,272,91145,2,0,B|440:336|440:336|376:360,1,127.500004863739,8|0,0:0|0:0,0:0:0:0:
216,136,91468,1,0,0:0:0:0:
320,72,91629,1,0,0:0:0:0:
232,276,91791,5,0,0:0:0:0:
108,192,91952,1,0,0:0:0:0:
336,188,92113,1,0,0:0:0:0:
248,280,92274,1,0,0:0:0:0:
248,280,92355,1,0,0:0:0:0:
248,280,92436,2,0,B|192:312|192:312|128:296,1,127.500004863739,2|0,0:0|0:0,0:0:0:0:
104,144,92758,1,2,0:0:0:0:
208,40,92919,1,0,0:0:0:0:
208,40,93000,1,0,0:0:0:0:
208,40,93081,6,0,B|240:24|240:24|268:44|268:44|320:0|392:40,1,191.250007295609,8|0,0:0|0:0,0:0:0:0:
332,120,93403,2,0,P|264:152|204:108,1,127.500004863739
128,36,93726,2,0,P|84:124|108:188,1,127.500004863739,2|0,0:0|0:0,0:0:0:0:
172,288,94049,1,0,0:0:0:0:
304,224,94210,2,0,L|360:264,2,63.7500024318696,0|0|8,0:0|0:0|0:0,0:0:0:0:
148,104,94532,1,0,0:0:0:0:
244,44,94694,5,0,0:0:0:0:
212,168,94855,1,0,0:0:0:0:
372,120,95016,2,0,L|380:248,1,127.500004863739,2|0,0:0|0:0,0:0:0:0:
116,176,95339,1,0,0:0:0:0:
56,320,95500,1,0,0:0:0:0:
176,344,95662,2,0,B|200:320|200:320|224:348|224:348|256:264|348:264,1,191.250007295609,8|0,0:0|0:0,0:0:0:0:
336,248,95984,2,0,P|343:178|300:132,1,127.500004863739
320,356,96307,1,2,0:0:0:0:
456,256,96468,1,0,0:0:0:0:
336,108,96629,1,0,0:0:0:0:
212,48,96791,5,0,0:0:0:0:
212,48,96871,1,0,0:0:0:0:
212,48,96952,1,8,0:0:0:0:
116,140,97113,1,0,0:0:0:0:
244,64,97274,1,0,0:0:0:0:
176,284,97436,1,0,0:0:0:0:
28,152,97597,2,0,P|36:88|96:52,1,127.500004863739,2|0,0:0|0:0,0:0:0:0:
80,328,97920,5,0,0:0:0:0:
144,188,98081,1,0,0:0:0:0:
80,328,98242,2,0,L|208:328,1,127.500004863739,8|0,0:0|0:0,0:0:0:0:
332,188,98726,5,0,0:0:0:0:
112,76,98887,2,0,L|240:108,1,127.500004863739,2|0,0:0|0:0,0:0:0:0:
432,88,99210,1,0,0:0:0:0:
456,216,99371,1,0,0:0:0:0:
432,88,99532,2,0,L|304:108,1,127.500004863739,8|0,0:0|0:0,0:0:0:0:
268,232,100016,5,0,0:0:0:0:
176,272,100178,1,2,0:0:0:0:
360,320,100339,1,0,0:0:0:0:
320,92,100500,2,0,B|284:80|264:60|264:60|244:80|196:92,1,127.500004863739
116,132,100742,1,0,0:0:0:0:
116,132,100823,2,0,L|80:260,1,127.500004863739,8|0,0:0|0:0,0:0:0:0:
184,360,101145,1,0,0:0:0:0:
360,272,101307,1,0,0:0:0:0:
360,272,101387,1,0,0:0:0:0:
360,272,101468,6,0,P|304:216|240:200,1,127.500004863739,2|0,0:0|0:0,0:0:0:0:
400,176,101791,1,0,0:0:0:0:
440,100,101952,1,0,0:0:0:0:
440,100,102032,1,0,0:0:0:0:
440,100,102113,2,0,B|360:76|324:144|324:144|260:160,1,191.250007295609,8|0,0:0|0:0,0:0:0:0:
272,56,102436,2,0,L|136:32,1,127.500004863739
84,188,102758,6,0,L|168:152,1,85,2|0,0:0|0:0,0:0:0:0:
280,264,103081,6,0,L|148:328,1,127.500004863739,0|12,0:0|0:0,0:0:0:0:
288,344,103726,5,0,0:0:0:0:
344,200,103887,1,0,0:0:0:0:
228,156,104049,2,0,B|216:108|240:68,1,85,2|0,0:0|0:0,0:0:0:0:
336,40,104371,2,0,B|348:88|324:128,1,85
160,40,104694,1,0,0:0:0:0:
344,200,104856,1,0,0:0:0:0:
88,164,105017,1,0,0:0:0:0:
236,56,105178,1,0,0:0:0:0:
400,116,105339,6,0,P|448:140|456:192,2,85,2|0|0,0:0|0:0|0:0,0:0:0:0:
144,36,105984,2,0,P|112:32|68:72,1,85
152,124,106307,2,0,P|184:128|228:88,1,85
248,224,106629,1,2,0:0:0:0:
248,224,106710,1,0,0:0:0:0:
248,224,106791,2,0,L|248:316,1,85
344,196,107113,1,0,0:0:0:0:
432,260,107274,6,0,L|444:356,1,85
496,184,107597,2,0,L|512:232,2,42.5
336,80,107920,1,4,0:0:0:0:
420,160,108081,1,0,0:0:0:0:
512,36,108242,1,0,0:0:0:0:
420,160,108403,1,0,0:0:0:0:
392,296,108565,6,0,B|364:328|364:328|300:336,1,85,8|0,0:0|0:0,0:0:0:0:
293,336,108807,1,0,0:0:0:0:
264,337,108887,1,0,0:0:0:0:
192,256,109049,2,0,B|148:228|160:164|160:164|200:184,1,127.5
232,192,109372,2,0,B|309:223|309:223|384:156,1,170
340,52,109855,2,0,L|429:80,1,85
231,11,110177,2,0,L|148:28,1,85,8|0,0:0|0:0,0:0:0:0:
60,128,110500,2,0,B|36:168|36:168|128:184|120:302,1,170,2|0,0:0|0:0,0:0:0:0:
28,256,110984,1,0,0:0:0:0:
180,164,111146,5,8,0:0:0:0:
328,88,111307,1,0,0:0:0:0:
296,240,111468,1,0,0:0:0:0:
220,96,111630,1,0,0:0:0:0:
84,64,111791,2,0,B|84:76|84:76|56:84|56:84|92:140|32:184,1,127.5,2|0,0:0|0:0,0:0:0:0:
136,292,112114,1,0,0:0:0:0:
232,120,112274,1,0,0:0:0:0:
324,256,112436,1,0,0:0:0:0:
128,144,112597,1,0,0:0:0:0:
220,344,112920,5,0,0:0:0:0:
200,80,113081,1,2,0:0:0:0:
232,52,113162,1,0,0:0:0:0:
268,28,113242,1,0,0:0:0:0:
308,8,113323,1,0,0:0:0:0:
344,0,113403,1,2,0:0:0:0:
384,12,113484,1,0,0:0:0:0:
424,32,113564,1,0,0:0:0:0:
399,187,113726,6,0,P|406:228|385:265,1,85,8|0,0:0|0:0,0:0:0:0:
309,137,114049,2,0,P|288:172|295:214,1,85
392,300,114372,1,2,0:0:0:0:
320,104,114533,1,0,0:0:0:0:
232,264,114694,1,0,0:0:0:0:
60,280,114855,6,0,L|36:196,1,85
248,78,115178,2,0,L|272:160,1,85,0|8,0:0|0:0,0:0:0:0:
148,148,115501,2,0,L|124:64,1,85,0|2,0:0|0:0,0:0:0:0:
36,200,115823,1,0,0:0:0:0:
128,32,115984,1,0,0:0:0:0:
184,228,116145,1,0,0:0:0:0:
311,351,116307,6,0,P|269:347|232:328,1,85,8|0,0:0|0:0,0:0:0:0:
416,244,116629,2,0,P|373:247|336:267,1,85
448,340,116952,1,2,0:0:0:0:
475,174,117113,1,0,0:0:0:0:
337,202,117274,1,0,0:0:0:0:
284,82,117436,1,0,0:0:0:0:
252,232,117597,1,8,0:0:0:0:
132,64,117758,6,0,P|107:98|100:139,1,85,0|8,0:0|0:0,0:0:0:0:
228,312,118081,1,0,0:0:0:0:
224,116,118242,1,2,0:0:0:0:
208,76,118323,1,0,0:0:0:0:
224,36,118403,1,0,0:0:0:0:
260,16,118484,1,0,0:0:0:0:
296,36,118564,1,2,0:0:0:0:
336,52,118645,1,0,0:0:0:0:
372,32,118726,1,0,0:0:0:0:
496,76,118887,6,0,B|512:99|512:99|489:119|489:119|543:160|497:234,1,170,8|0,0:0|0:0,0:0:0:0:
333,295,119371,1,0,0:0:0:0:
240,146,119533,2,0,B|246:188|246:188|290:251,1,85,2|0,0:0|0:0,0:0:0:0:
167,93,119855,1,0,0:0:0:0:
325,29,120016,2,0,L|231:33,1,85
392,112,120339,5,0,0:0:0:0:
304,56,120500,2,0,L|192:60,1,85,8|0,0:0|0:0,0:0:0:0:
152,24,120823,1,2,0:0:0:0:
268,96,120984,1,0,0:0:0:0:
380,200,121145,2,0,B|404:241|378:286|378:286|411:300,1,127.5
224,205,121468,2,0,L|304:236,1,85,8|0,0:0|0:0,0:0:0:0:
220,116,121791,2,0,L|324:144,1,85
124,152,122113,1,2,0:0:0:0:
104,248,122274,2,0,L|0:276,1,85
100,344,122597,5,0,0:0:0:0:
220,336,122758,2,0,L|324:352,1,85
408,252,123081,2,0,L|316:232,1,85,8|0,0:0|0:0,0:0:0:0:
172,168,123403,2,0,L|224:176,1,42.5,2|0,0:0|0:0,0:0:0:0:
264,92,123564,2,0,L|204:72,1,42.5
360,24,123726,2,0,P|384:24|432:64,1,85,2|0,0:0|0:0,0:0:0:0:
376,144,124049,6,0,B|376:228|376:228|344:272,1,127.5,8|0,0:0|0:0,0:0:0:0:
308,203,124371,2,0,L|212:183,1,85
104,216,124694,1,2,0:0:0:0:
216,112,124855,1,0,0:0:0:0:
164,320,125016,2,0,P|192:340|248:344,1,85
317,273,125339,2,0,P|281:250|240:248,1,85
104,216,125662,5,8,0:0:0:0:
268,296,125823,1,0,0:0:0:0:
248,48,125984,2,0,P|166:91|152:196,1,170,2|0,0:0|0:0,0:0:0:0:
267,162,126468,1,0,0:0:0:0:
416,56,126629,6,0,B|416:156|416:156|368:208,1,170,8|0,0:0|0:0,0:0:0:0:
512,204,127113,1,0,0:0:0:0:
428,296,127274,2,0,B|379:344|379:344|308:320|248:376,1,170,2|0,0:0|0:0,0:0:0:0:
124,340,127758,1,0,0:0:0:0:
232,192,127919,1,0,0:0:0:0:
256,352,128080,1,0,0:0:0:0:
256,352,128404,5,0,0:0:0:0:
180,144,128565,2,0,L|137:148,1,42.5,2|0,0:0|0:0,0:0:0:0:
284,72,128726,2,0,L|326:65,1,42.5
160,48,128887,2,0,L|228:12,1,42.5,2|0,0:0|0:0,0:0:0:0:
224,160,129049,2,0,L|180:196,1,42.5
260,264,129210,2,0,P|344:304|388:288,1,127.5,8|0,0:0|0:0,0:0:0:0:
340,208,129533,2,0,P|400:200|436:224,1,85
372,296,129855,5,2,0:0:0:0:
304,108,130016,1,0,0:0:0:0:
464,228,130178,1,0,0:0:0:0:
312,140,130339,1,0,0:0:0:0:
168,160,130500,2,0,P|132:180|108:224,1,85
200,252,130823,2,0,P|181:289|144:309,2,85,2|0|8,0:0|0:0|0:0,0:0:0:0:
284,376,131307,5,0,0:0:0:0:
336,208,131468,1,2,0:0:0:0:
400,328,131629,1,0,0:0:0:0:
128,200,131790,2,0,P|128:80|244:40,1,255.000009727478,2|0,0:0|0:0,0:0:0:0:
196,140,133081,6,0,B|252:88|312:184|376:112,1,191.250007295609
472,216,133726,1,2,0:0:0:0:
232,264,134049,1,4,0:0:0:0:
224,56,134371,6,0,P|265:42|323:65,1,85,8|0,0:0|0:0,0:0:0:0:
252,160,134694,2,0,P|210:168|171:155,1,85
196,312,135016,2,0,L|112:256,1,85,8|0,0:0|0:0,0:0:0:0:
356,316,135339,2,0,L|396:216,1,85
300,68,135662,2,0,B|260:88|260:88|268:116|268:116|208:164|155:108,1,170,8|0,0:0|0:0,0:0:0:0:
348,212,136307,2,0,P|268:264|192:264,1,170,8|0,0:0|0:0,0:0:0:0:
156,96,136952,5,8,0:0:0:0:
256,192,137274,1,0,0:0:0:0:
256,192,137435,1,0,0:0:0:0:
256,192,137597,1,8,0:0:0:0:
364,280,137920,1,0,0:0:0:0:
256,52,138242,5,8,0:0:0:0:
104,192,138565,1,0,0:0:0:0:
404,192,138887,1,8,0:0:0:0:
256,340,139210,1,0,0:0:0:0:
364,48,139532,6,0,P|404:60|436:104,1,85,8|0,0:0|0:0,0:0:0:0:
360,160,139855,2,0,P|387:191|427:203,1,85,8|0,0:0|0:0,0:0:0:0:
216,112,140177,2,0,P|188:80|148:68,1,85,8|0,0:0|0:0,0:0:0:0:
56,116,140500,2,0,P|83:147|123:159,1,85,8|0,0:0|0:0,0:0:0:0:
224,244,140823,5,8,0:0:0:0:
296,160,140984,1,0,0:0:0:0:
244,364,141145,1,8,0:0:0:0:
136,228,141306,1,0,0:0:0:0:
316,208,141468,1,8,0:0:0:0:
244,364,141629,1,0,0:0:0:0:
208,228,141790,1,8,0:0:0:0:
288,112,141952,1,0,0:0:0:0:
135,170,142113,6,0,P|155:208|189:233,1,85,8|0,0:0|0:0,0:0:0:0:
318,184,142436,2,0,L|347:215,1,42.5,8|0,0:0|0:0,0:0:0:0:
223,71,142597,2,0,L|195:40,1,42.5
141,167,142758,2,0,L|172:197,1,42.5,8|0,0:0|0:0,0:0:0:0:
275,222,142920,2,0,L|314:283,1,42.5
220,356,143081,2,0,P|282:343|332:304,1,127.5,8|0,0:0|0:0,0:0:0:0:
236,145,143404,6,0,L|248:105,1,42.5,8|0,0:0|0:0,0:0:0:0:
328,168,143565,2,0,L|340:209,1,42.5
408,284,143726,1,8,0:0:0:0:
448,248,143807,1,0,0:0:0:0:
436,192,143888,1,0,0:0:0:0:
448,140,143968,1,0,0:0:0:0:
416,96,144049,5,8,0:0:0:0:
364,112,144129,1,0,0:0:0:0:
308,120,144210,1,0,0:0:0:0:
268,80,144291,1,0,0:0:0:0:
216,64,144371,6,0,B|168:24|132:64|132:64|177:149,1,170,0|12,0:0|0:0,0:0:0:0:
134,328,145016,6,0,P|202:353|256:343,1,127.500004863739
329,278,145339,2,0,P|271:254|209:263,1,127.500004863739,8|0,0:0|0:0,0:0:0:0:
44,320,145662,1,0,0:0:0:0:
109,212,145823,2,0,B|160:152|123:82|123:82|197:72|184:112,1,191.250007295609
55,129,146145,2,0,P|44:58|86:11,1,127.500004863739
256,70,146468,1,0,0:0:0:0:
179,213,146629,1,8,0:0:0:0:
371,221,146791,1,0,0:0:0:0:
256,70,146952,1,0,0:0:0:0:
256,70,147033,1,0,0:0:0:0:
256,70,147113,6,0,P|320:34|431:86,1,191.250007295609
444,176,147436,2,0,P|382:174|335:134,1,127.500004863739
254,296,147758,1,0,0:0:0:0:
448,215,147920,1,8,0:0:0:0:
444,325,148081,1,0,0:0:0:0:
284,200,148242,1,0,0:0:0:0:
138,288,148403,2,0,B|7:262|7:262|58:227,1,191.250007295609
104,208,148726,2,0,B|176:164|156:80,1,127.500004863739
64,96,149049,5,0,0:0:0:0:
240,76,149210,1,2,0:0:0:0:
296,216,149371,1,0,0:0:0:0:
272,56,149533,1,2,0:0:0:0:
424,124,149694,1,0,0:0:0:0:
424,124,149774,1,0,0:0:0:0:
424,124,149855,2,0,B|452:185|452:185|423:259,1,127.500004863739
248,344,150178,5,0,0:0:0:0:
296,156,150339,1,0,0:0:0:0:
132,304,150500,1,8,0:0:0:0:
168,84,150662,1,0,0:0:0:0:
280,44,150984,6,0,P|416:16|460:60,1,191.250007295609
428,72,151307,2,0,B|388:108|408:152|408:152|380:188,1,127.500004863739
220,256,151629,1,0,0:0:0:0:
384,360,151791,1,8,0:0:0:0:
288,188,151952,1,0,0:0:0:0:
440,208,152113,5,0,0:0:0:0:
440,208,152194,1,0,0:0:0:0:
440,208,152274,2,0,B|476:284|424:344|424:344|344:376,1,191.250007295609
336,364,152597,2,0,P|289:345|252:277,1,127.500004863739
340,256,152920,1,0,0:0:0:0:
224,136,153081,1,8,0:0:0:0:
336,188,153242,1,0,0:0:0:0:
180,72,153403,1,0,0:0:0:0:
124,208,153565,1,0,0:0:0:0:
228,336,153726,6,0,P|272:348|348:320,1,127.500004863739
410,201,154049,2,0,P|349:189|292:216,1,127.500004863739
292,216,154291,1,0,0:0:0:0:
292,216,154371,1,2,0:0:0:0:
404,112,154533,1,0,0:0:0:0:
224,168,154694,1,2,0:0:0:0:
132,280,154855,1,0,0:0:0:0:
132,280,154936,1,0,0:0:0:0:
132,280,155016,6,0,B|56:356|56:356|32:284,1,159.375,2|0,0:0|0:0,0:0:0:0:
24,268,155339,2,0,P|12:220|36:160,1,106.25
156,36,155662,1,8,0:0:0:0:
240,204,155823,1,0,0:0:0:0:
116,160,155984,1,0,0:0:0:0:
324,68,156145,1,0,0:0:0:0:
464,28,156307,6,0,P|504:84|472:176,1,159.375,2|0,0:0|0:0,0:0:0:0:
416,104,156629,2,0,P|392:160|400:208,1,106.25
443,305,156952,2,0,P|391:310|344:288,1,106.25,8|0,0:0|0:0,0:0:0:0:
286,179,157274,2,0,P|281:127|304:80,1,106.25
208,36,157597,2,0,P|152:56|68:12,1,159.375,2|0,0:0|0:0,0:0:0:0:
40,104,157920,2,0,P|100:136|156:140,1,106.25
272,80,158162,1,0,0:0:0:0:
272,80,158242,2,0,P|288:136|248:200,1,106.25,8|0,0:0|0:0,0:0:0:0:
436,84,158565,5,0,0:0:0:0:
464,240,158726,1,0,0:0:0:0:
384,100,158887,1,2,0:0:0:0:
436,264,159049,1,0,0:0:0:0:
288,324,159210,2,0,P|240:340|184:304,1,106.25
236,228,159533,2,0,P|189:204|140:220,1,106.25,8|0,0:0|0:0,0:0:0:0:
52,300,159855,5,0,0:0:0:0:
160,124,160016,1,0,0:0:0:0:
24,176,160177,1,2,0:0:0:0:
180,304,160339,1,0,0:0:0:0:
196,24,160661,5,0,0:0:0:0:
328,60,160823,1,8,0:0:0:0:
252,176,160984,1,0,0:0:0:0:
344,308,161145,1,0,0:0:0:0:
460,172,161307,1,0,0:0:0:0:
352,224,161468,1,2,0:0:0:0:
352,224,161549,1,0,0:0:0:0:
352,224,161629,1,0,0:0:0:0:
96,296,161952,5,0,0:0:0:0:
40,108,162113,1,8,0:0:0:0:
136,240,162274,1,0,0:0:0:0:
216,88,162436,2,0,L|328:56,1,106.25
280,156,162678,1,0,0:0:0:0:
280,156,162758,2,0,L|388:188,1,106.25,2|0,0:0|0:0,0:0:0:0:
360,316,163081,2,0,L|256:280,1,106.25
80,236,163403,2,0,L|156:328,1,106.25,8|0,0:0|0:0,0:0:0:0:
168,164,163726,2,0,L|116:72,1,106.25
272,36,163968,5,0,0:0:0:0:
272,36,164049,2,0,L|384:76,1,106.25,8|0,0:0|0:0,0:0:0:0:
404,84,164291,1,0,0:0:0:0:
436,96,164371,1,0,0:0:0:0:
296,136,164533,1,0,0:0:0:0:
348,288,164694,1,2,0:0:0:0:
160,212,164856,2,0,L|136:152,1,53.125
133,283,165017,2,0,L|156:332,1,53.125
48,304,165178,1,0,0:0:0:0:
56,160,165339,5,0,0:0:0:0:
204,28,165500,1,0,0:0:0:0:
64,40,165662,1,0,0:0:0:0:
240,188,165823,1,0,0:0:0:0:
188,52,165984,1,8,0:0:0:0:
88,204,166145,1,0,0:0:0:0:
388,48,166468,6,0,P|476:148|456:212,1,191.250007295609
376,172,166791,2,0,P|380:232|440:284,1,127.500004863739
264,344,167113,1,0,0:0:0:0:
104,192,167274,1,8,0:0:0:0:
288,192,167436,1,0,0:0:0:0:
156,56,167597,1,0,0:0:0:0:
280,0,167758,6,0,P|414:36|434:84,1,191.250007295609
316,96,168081,2,0,P|272:104|196:64,1,127.500004863739
64,168,168403,1,0,0:0:0:0:
232,120,168565,1,8,0:0:0:0:
160,264,168726,1,0,0:0:0:0:
272,156,168887,1,0,0:0:0:0:
208,308,169049,6,0,B|296:356|296:356|420:320,1,191.250007295609
408,324,169371,2,0,B|468:304|468:304|484:228,1,127.500004863739
392,56,169694,1,0,0:0:0:0:
276,168,169855,1,2,0:0:0:0:
144,168,170016,1,0,0:0:0:0:
208,308,170178,1,2,0:0:0:0:
372,304,170339,1,0,0:0:0:0:
372,304,170420,1,0,0:0:0:0:
372,304,170500,5,0,0:0:0:0:
456,184,170662,1,0,0:0:0:0:
388,72,170823,1,0,0:0:0:0:
436,180,170984,1,0,0:0:0:0:
356,296,171145,1,8,0:0:0:0:
236,352,171307,1,0,0:0:0:0:
212,44,171629,6,0,B|217:146|129:158|129:158|144:200,1,191.250007295609
116,64,171952,2,0,P|50:92|33:151,1,127.500004863739
140,188,172274,1,0,0:0:0:0:
124,308,172436,1,8,0:0:0:0:
264,312,172597,1,0,0:0:0:0:
372,224,172758,1,0,0:0:0:0:
396,84,172920,1,0,0:0:0:0:
396,84,173000,1,0,0:0:0:0:
396,84,173081,2,0,P|332:24|224:68,1,191.250007295609
308,116,173403,2,0,P|252:152|184:140,1,127.500004863739
192,316,173726,5,8,0:0:0:0:
64,252,173887,2,0,B|56:184|56:184|104:144,1,127.500004863739
212,52,174210,1,0,0:0:0:0:
348,192,174371,1,0,0:0:0:0:
268,340,174533,1,0,0:0:0:0:
372,208,174694,1,0,0:0:0:0:
256,72,174855,1,0,0:0:0:0:
256,72,174936,1,0,0:0:0:0:
256,72,175016,5,2,0:0:0:0:
360,200,175178,1,0,0:0:0:0:
204,140,175339,1,2,0:0:0:0:
64,252,175500,1,0,0:0:0:0:
64,252,175581,1,0,0:0:0:0:
64,252,175662,2,0,B|272:300,1,191.250007295609,2|0,0:0|0:0,0:0:0:0:
168,196,175984,2,0,L|300:232,1,127.500004863739
100,116,176307,5,8,0:0:0:0:
232,40,176468,1,0,0:0:0:0:
388,56,176629,2,0,B|452:56|452:56|460:128,1,127.500004863739
328,252,176952,1,2,0:0:0:0:
376,52,177113,1,0,0:0:0:0:
173,131,177274,2,0,P|202:75|257:43,1,127.500004863739
283,151,177597,2,0,P|254:207|199:239,1,127.500004863739
96,288,177920,2,0,P|132:336|228:308,1,127.500004863739
220,312,178162,5,0,0:0:0:0:
248,292,178242,2,0,B|300:264|316:348|384:348|448:328,1,191.250007295609,2|0,0:0|0:0,0:0:0:0:
388,232,178565,2,0,P|428:180|416:112,1,127.500004863739
324,152,178887,1,8,0:0:0:0:
248,32,179049,1,0,0:0:0:0:
112,188,179210,2,0,P|59:157|54:95,1,127.500004863739
216,108,179533,2,2,P|268:138|271:200,1,127.500004863739,2|0,0:0|0:0,0:0:0:0:
256,312,179855,5,0,0:0:0:0:
380,248,180016,1,0,0:0:0:0:
360,120,180178,2,0,L|488:184,1,127.500004863739,8|0,0:0|0:0,0:0:0:0:
448,56,180500,1,0,0:0:0:0:
300,44,180662,1,0,0:0:0:0:
300,44,180742,1,0,0:0:0:0:
300,44,180823,2,0,L|212:136,1,127.500004863739,2|0,0:0|0:0,0:0:0:0:
32,192,181307,5,0,0:0:0:0:
108,288,181468,2,0,P|124:312|220:328,1,127.500004863739,8|0,0:0|0:0,0:0:0:0:
336,276,181791,1,0,0:0:0:0:
340,72,181952,1,0,0:0:0:0:
340,72,182033,1,0,0:0:0:0:
340,72,182113,2,0,L|224:156,1,127.500004863739,2|0,0:0|0:0,0:0:0:0:
76,76,182597,5,0,0:0:0:0:
32,192,182758,2,0,P|28:244|76:308,1,127.500004863739,8|0,0:0|0:0,0:0:0:0:
128,220,183081,2,0,P|164:264|168:332,1,127.500004863739
220,324,183323,1,0,0:0:0:0:
272,336,183403,2,0,P|273:273|311:223,1,127.500004863739,2|0,0:0|0:0,0:0:0:0:
372,140,183726,2,0,B|316:104|256:140|256:140|188:76,1,191.250007295609
188,196,184049,2,0,P|248:236|308:212,1,127.500004863739,8|0,0:0|0:0,0:0:0:0:
440,192,184371,1,0,0:0:0:0:
440,192,184452,1,0,0:0:0:0:
440,192,184533,1,0,0:0:0:0:
368,72,184694,5,2,0:0:0:0:
260,144,184855,1,0,0:0:0:0:
172,68,185017,1,0,0:0:0:0:
272,40,185178,1,0,0:0:0:0:
320,184,185339,1,8,0:0:0:0:
204,224,185500,1,0,0:0:0:0:
144,96,185662,1,0,0:0:0:0:
373,105,185984,5,4,0:0:0:0:
256,192,186145,12,0,191145,0:0:0:0:
128,292,193081,5,4,0:0:0:0:
200,80,193726,1,4,0:0:0:0:
256,192,193887,12,4,196307,0:0:0:0:
408,76,198242,5,4,0:0:0:0:
344,304,198887,1,4,0:0:0:0:
256,192,199049,12,4,201469,0:0:0:0:
120,128,203403,5,0,0:0:0:0:
320,56,203726,1,0,0:0:0:0:
172,336,204049,1,2,0:0:0:0:
128,132,204533,1,2,0:0:0:0:
88,260,205016,5,0,0:0:0:0:
256,216,205339,1,2,0:0:0:0:
420,284,205662,1,0,0:0:0:0:
256,188,205984,1,2,0:0:0:0:
88,240,206307,1,0,0:0:0:0:
344,48,206630,6,0,P|384:52|424:84,1,85,8|0,0:0|0:0,0:0:0:0:
340,152,206952,2,0,P|392:200|488:168,1,170,8|0,0:0|0:0,0:0:0:0:
288,316,207597,1,8,0:0:0:0:
88,284,207920,2,0,L|32:124,1,170
204,48,208565,2,0,L|260:208,1,170
416,80,209210,5,8,0:0:0:0:
332,164,209371,1,0,0:0:0:0:
416,252,209533,1,8,0:0:0:0:
336,340,209694,1,0,0:0:0:0:
220,360,209855,1,4,0:0:0:0:
48,196,210178,5,8,0:0:0:0:
156,248,210339,1,0,0:0:0:0:
276,252,210500,1,8,0:0:0:0:
208,156,210661,1,0,0:0:0:0:
276,56,210823,1,4,0:0:0:0:
88,52,211145,6,8,L|148:80,1,56.6666666666667
105,192,211360,2,8,L|152:160,1,56.6666666666667
192,288,211576,2,8,L|222:240,1,56.6666666666667
374,272,211791,6,0,L|416:280,1,42.5,4|0,0:0|0:0,0:0:0:0:
500,272,211952,2,0,P|517:232|424:125,1,170
296,80,212436,1,8,0:0:0:0:
208,208,212597,2,0,P|152:184|156:80,1,170
48,200,213081,1,0,0:0:0:0:
32,328,213242,2,0,B|84:324|108:360|108:360|192:336,1,170
352,340,213726,1,8,0:0:0:0:
440,192,213887,2,0,P|428:140|484:88,1,127.5
367,46,214210,6,0,L|333:18,1,42.5
280,88,214371,2,0,L|324:128,1,42.5
200,44,214533,2,0,P|164:24|40:64,1,170
128,132,215016,1,8,0:0:0:0:
256,112,215178,2,0,P|312:176|328:272,1,170
220,356,215662,2,0,P|165:369|78:306,1,170
156,224,216145,1,8,0:0:0:0:
12,188,216307,6,0,P|52:88|124:80,1,170
204,164,216791,1,0,0:0:0:0:
272,252,216952,2,0,P|356:300|444:280,1,170
368,184,217436,1,0,0:0:0:0:
464,64,217597,1,8,0:0:0:0:
324,0,217758,2,0,P|268:8|184:92,1,170
36,32,218242,5,0,0:0:0:0:
32,192,218403,2,0,B|56:276|56:276|148:316,1,170
272,348,218887,1,8,0:0:0:0:
148,216,219049,2,0,P|204:200|268:232,1,127.5
280,256,219371,1,0,0:0:0:0:
336,156,219533,1,0,0:0:0:0:
380,256,219694,2,0,P|436:204|436:116,1,170
324,24,220178,1,8,0:0:0:0:
176,32,220339,2,0,B|88:52|88:52|84:136,1,170
140,276,220823,5,2,0:0:0:0:
264,168,220984,1,0,0:0:0:0:
372,348,221145,1,2,0:0:0:0:
216,252,221307,1,0,0:0:0:0:
368,132,221468,1,2,0:0:0:0:
212,132,221629,1,0,0:0:0:0:
120,40,221791,6,0,P|80:124|96:160,1,127.5,2|0,0:0|0:0,0:0:0:0:
75,324,222113,2,0,L|132:260,1,85
256,308,222436,2,0,L|199:372,1,85
416,152,222758,2,0,P|336:188|320:224,2,127.5,8|0|0,0:0|0:0|0:0,0:0:0:0:
289,51,223403,2,0,L|220:100,1,85
165,11,223726,2,0,L|96:60,1,85
152,176,224049,1,8,0:0:0:0:
72,296,224210,1,0,0:0:0:0:
240,308,224371,6,0,L|248:260,3,42.5
256,348,224694,2,0,P|288:368|336:356,1,85
308,256,225016,2,0,P|348:246|384:266,1,85
276,132,225339,2,0,P|328:120|400:152,2,127.5,8|0|0,0:0|0:0|0:0,0:0:0:0:
131,225,225984,2,0,P|88:201|78:159,1,85
176,124,226307,2,0,P|160:85|122:67,1,85
96,56,226549,1,0,0:0:0:0:
68,44,226629,1,8,0:0:0:0:
240,24,226791,5,0,0:0:0:0:
376,48,226952,2,0,L|424:80,3,42.5
472,168,227274,2,0,P|480:196|448:248,1,85
364,184,227516,1,0,0:0:0:0:
364,184,227597,2,0,P|340:218|347:259,1,85
420,320,227920,2,0,P|388:348|296:340,2,127.5,8|0|0,0:0|0:0|0:0,0:0:0:0:
284,272,228565,2,0,B|192:276,1,85
252,180,228807,1,0,0:0:0:0:
252,180,228887,2,0,B|160:184,1,85
104,40,229210,5,8,0:0:0:0:
256,144,229371,1,0,0:0:0:0:
124,236,229533,2,0,L|72:252,3,42.5
140,344,229855,2,0,P|180:368|220:360,1,85
240,344,230097,1,0,0:0:0:0:
264,324,230178,1,0,0:0:0:0:
400,220,230339,5,0,0:0:0:0:
316,76,230500,1,8,0:0:0:0:
272,216,230662,1,0,0:0:0:0:
436,88,230823,1,0,0:0:0:0:
448,240,230984,1,0,0:0:0:0:
308,140,231145,1,0,0:0:0:0:
220,44,231307,2,0,P|232:64|216:132,1,85
128,64,231629,5,0,0:0:0:0:
28,160,231791,1,8,0:0:0:0:
112,256,231952,2,0,L|176:320,1,85
256,192,232436,1,4,0:0:0:0:
256,280,241468,5,2,0:0:0:0:
348,192,241629,1,0,0:0:0:0:
424,296,241791,1,0,0:0:0:0:
492,188,241952,1,0,0:0:0:0:
436,72,242113,5,2,0:0:0:0:
308,64,242274,1,0,0:0:0:0:
364,164,242436,1,0,0:0:0:0:
236,168,242597,1,0,0:0:0:0:
256,192,242758,12,0,244049,0:0:0:0:
408,84,244694,5,4,0:0:0:0:
368,328,245016,1,4,0:0:0:0:
288,272,245339,6,0,P|316:239|327:199,1,85,8|0,0:0|0:0,0:0:0:0:
202,80,245662,2,0,L|245:82,1,42.5,8|0,0:0|0:0,0:0:0:0:
323,10,245824,2,0,L|366:2,1,42.5
441,118,245985,2,0,L|400:124,1,42.5,8|0,0:0|0:0,0:0:0:0:
284,156,246146,2,0,L|243:163,1,42.5
120,96,246307,2,0,P|70:134|42:191,1,127.5,8|0,0:0|0:0,0:0:0:0:
220,81,246630,6,0,L|232:41,1,42.5,8|0,0:0|0:0,0:0:0:0:
312,104,246791,2,0,L|324:145,1,42.5
400,256,246952,5,8,0:0:0:0:
392,304,247033,1,0,0:0:0:0:
360,340,247113,1,0,0:0:0:0:
316,324,247194,1,0,0:0:0:0:
260,332,247274,5,8,0:0:0:0:
208,356,247355,1,0,0:0:0:0:
176,308,247436,1,0,0:0:0:0:
124,296,247516,1,0,0:0:0:0:
76,268,247597,2,0,B|20:204|20:204|128:244,1,170,8|4,0:0|0:0,0:0:0:0:
346,21,248242,5,0,0:0:0:0:
203,29,248403,1,0,0:0:0:0:
96,108,248565,1,8,0:0:0:0:
260,84,248726,1,0,0:0:0:0:
412,116,249049,6,0,P|519:196|490:260,1,191.250007295609
472,248,249371,2,0,B|416:244|416:244|416:292|349:308,1,127.500004863739
248,176,249694,1,0,0:0:0:0:
412,116,249855,1,8,0:0:0:0:
376,300,250016,1,0,0:0:0:0:
176,336,250178,5,0,0:0:0:0:
176,336,250258,1,0,0:0:0:0:
176,336,250339,2,0,P|152:284|216:176,1,191.250007295609
252,176,250661,2,0,B|288:180|308:220|308:220|352:160,1,127.500004863739
260,24,250984,1,0,0:0:0:0:
132,144,251145,1,8,0:0:0:0:
340,176,251307,1,0,0:0:0:0:
212,64,251468,1,0,0:0:0:0:
364,44,251629,6,0,B|444:36|444:36|488:96|472:176,1,191.250007295609
420,148,251952,2,0,B|400:112|400:112|352:120|306:153,1,127.500004863739
216,72,252274,1,0,0:0:0:0:
372,232,252436,1,2,0:0:0:0:
232,264,252597,1,0,0:0:0:0:
200,108,252758,1,2,0:0:0:0:
92,336,252920,5,0,0:0:0:0:
92,336,253001,1,0,0:0:0:0:
92,336,253082,2,0,P|64:308|92:220,1,127.500004863739
156,64,253404,1,0,0:0:0:0:
212,216,253565,1,0,0:0:0:0:
52,168,253727,1,8,0:0:0:0:
248,112,253888,1,0,0:0:0:0:
456,152,254211,6,0,B|448:200|488:224|488:224|424:348,1,191.250007295609
364,296,254533,2,0,B|396:240|396:240|356:192,1,127.500004863739
248,192,254855,1,0,0:0:0:0:
80,276,255016,1,8,0:0:0:0:
244,360,255178,1,0,0:0:0:0:
68,100,255339,1,0,0:0:0:0:
68,100,255420,1,0,0:0:0:0:
68,100,255500,6,0,B|84:16|172:12|172:12|248:56,1,191.250007295609
160,104,255823,2,0,P|236:136|296:96,1,127.500004863739
472,104,256145,1,0,0:0:0:0:
364,276,256307,1,8,0:0:0:0:
272,124,256468,1,0,0:0:0:0:
360,328,256629,1,0,0:0:0:0:
184,304,256791,5,0,0:0:0:0:
184,304,256871,1,0,0:0:0:0:
184,304,256952,1,0,0:0:0:0:
272,124,257113,1,0,0:0:0:0:
428,200,257274,1,0,0:0:0:0:
200,220,257436,1,0,0:0:0:0:
396,116,257597,1,2,0:0:0:0:
240,32,257758,1,0,0:0:0:0:
164,232,257920,1,2,0:0:0:0:
4,192,258081,5,0,0:0:0:0:
4,192,258162,1,0,0:0:0:0:
4,192,258242,2,0,P|4:292|52:336,1,159.375,8|0,0:0|0:0,0:0:0:0:
88,248,258565,2,0,P|128:300|132:352,1,106.25
359,344,258887,2,0,L|248:348,1,106.25,2|0,0:0|0:0,0:0:0:0:
464,280,259210,1,0,0:0:0:0:
296,192,259371,6,0,L|244:156,2,53.125,0|0|8,0:0|0:0|0:0,0:0:0:0:
420,112,259694,1,0,0:0:0:0:
308,12,259855,1,0,0:0:0:0:
460,20,260016,1,0,0:0:0:0:
232,60,260178,2,0,P|248:100|232:164,1,106.25,2|0,0:0|0:0,0:0:0:0:
144,112,260500,2,0,P|129:162|146:212,1,106.25
108,328,260823,6,0,P|236:344|292:332,1,159.375,8|0,0:0|0:0,0:0:0:0:
260,256,261145,2,0,L|328:160,1,106.25
120,96,261468,1,2,0:0:0:0:
96,256,261629,1,0,0:0:0:0:
8,152,261791,1,0,0:0:0:0:
140,32,261952,1,0,0:0:0:0:
140,32,262033,1,0,0:0:0:0:
140,32,262113,2,0,P|188:16|236:40,1,106.25,10|0,0:0|0:0,0:0:0:0:
180,120,262436,2,0,P|226:143|275:127,1,106.25
384,304,262758,5,10,0:0:0:0:
220,244,262920,1,0,0:0:0:0:
424,184,263081,1,0,0:0:0:0:
248,328,263242,1,0,0:0:0:0:
248,328,263323,1,0,0:0:0:0:
248,328,263403,2,0,P|204:348|148:344,1,106.25,8|0,0:0|0:0,0:0:0:0:
184,248,263726,2,0,P|131:243|83:263,1,106.25
0,96,264049,2,0,P|-5:148|13:197,1,106.25,2|0,0:0|0:0,0:0:0:0:
88,44,264371,6,0,P|188:16|252:56,1,159.375
164,120,264694,2,0,P|196:156|256:172,1,106.25,8|0,0:0|0:0,0:0:0:0:
422,279,265016,2,0,L|472:260,1,53.125
396,169,265178,2,0,L|348:192,1,53.125
276,248,265339,6,0,L|225:262,1,53.125,2|0,0:0|0:0,0:0:0:0:
293,351,265500,2,0,L|336:320,1,53.125
168,360,265662,2,0,P|136:360|60:320,1,106.25
32,208,265984,2,0,B|36:88|36:88|72:132,1,159.375,8|0,0:0|0:0,0:0:0:0:
124,184,266307,1,0,0:0:0:0:
160,32,266468,1,0,0:0:0:0:
168,192,266629,2,0,P|232:112|304:96,1,159.375,2|0,0:0|0:0,0:0:0:0:
283,96,266952,1,0,0:0:0:0:
272,176,267113,2,0,L|224:152,2,53.125
168,208,267436,6,0,L|194:345,1,106.25,2|0,0:0|0:0,0:0:0:0:
192,339,267678,1,0,0:0:0:0:
196,360,267758,1,0,0:0:0:0:
312,328,267920,2,0,L|416:288,1,106.25,8|0,0:0|0:0,0:0:0:0:
472,188,268162,1,0,0:0:0:0:
472,188,268242,2,0,L|416:84,1,106.25
276,24,268565,5,0,0:0:0:0:
190,144,268726,1,0,0:0:0:0:
281,269,268887,1,0,0:0:0:0:
190,239,269049,1,0,0:0:0:0:
337,192,269210,1,8,0:0:0:0:
304,32,269371,1,0,0:0:0:0:
100,24,269694,6,0,B|52:64|52:64|120:100|112:168,1,191.250007295609
16,156,270016,2,0,B|12:240|100:268,1,127.500004863739
212,340,270339,1,0,0:0:0:0:
380,312,270500,2,0,B|352:288|352:288|248:316,1,127.500004863739,8|0,0:0|0:0,0:0:0:0:
432,232,270823,1,0,0:0:0:0:
448,76,270984,6,0,P|360:156|296:136,1,191.250007295609
352,56,271307,2,0,P|312:40|232:64,1,127.500004863739
96,0,271629,1,0,0:0:0:0:
24,168,271791,1,8,0:0:0:0:
48,28,271952,1,0,0:0:0:0:
160,180,272113,1,0,0:0:0:0:
68,300,272274,6,0,B|116:364|116:364|236:364,1,191.250007295609
160,288,272597,2,0,L|308:288,1,127.500004863739
384,368,272920,1,0,0:0:0:0:
460,248,273081,1,2,0:0:0:0:
364,148,273242,1,0,0:0:0:0:
348,352,273403,1,2,0:0:0:0:
460,152,273565,5,0,0:0:0:0:
460,152,273645,1,0,0:0:0:0:
460,152,273726,2,0,L|504:28,1,127.500004863739
332,152,274049,2,0,L|288:28,1,127.500004863739
212,168,274371,1,8,0:0:0:0:
392,48,274533,1,0,0:0:0:0:
52,56,274855,6,0,B|76:100|28:128|28:128|116:192|20:320,1,255.000009727478
136,136,275339,2,0,P|152:196|132:288,1,127.500004863739
372,140,275662,1,8,0:0:0:0:
172,140,275823,1,0,0:0:0:0:
380,272,275984,1,0,0:0:0:0:
280,304,276145,6,0,P|240:200|248:108,1,191.250007295609
244,121,276468,1,0,0:0:0:0:
440,52,276629,2,0,P|476:108|472:200,1,127.500004863739
448,308,276952,1,8,0:0:0:0:
248,240,277113,1,0,0:0:0:0:
396,136,277274,1,0,0:0:0:0:
152,68,277436,1,0,0:0:0:0:
60,136,277597,5,0,0:0:0:0:
40,184,277705,1,0,0:0:0:0:
68,228,277812,1,0,0:0:0:0:
44,272,277920,5,0,0:0:0:0:
80,308,278027,1,0,0:0:0:0:
128,288,278135,1,0,0:0:0:0:
164,320,278242,5,2,0:0:0:0:
212,304,278350,1,0,0:0:0:0:
248,340,278457,1,0,0:0:0:0:
292,316,278565,5,2,0:0:0:0:
320,356,278672,1,0,0:0:0:0:
364,328,278780,1,0,0:0:0:0:
452,264,278887,6,0,P|496:184|484:88,1,170,2|0,0:0|0:0,0:0:0:0:
408,0,279371,2,0,P|356:66|348:149,1,170,2|0,0:0|0:0,0:0:0:0:
324,251,279855,2,0,P|240:241|176:188,1,170,2|0,0:0|0:0,0:0:0:0:
168,76,280500,5,8,0:0:0:0:
256,12,280823,1,8,0:0:0:0:
324,96,281145,1,8,0:0:0:0:
96,32,281468,6,0,P|44:88|40:208,1,170,2|0,0:0|0:0,0:0:0:0:
153,84,281952,2,0,P|109:152|148:224,1,170,2|0,0:0|0:0,0:0:0:0:
192,156,282436,2,0,L|276:156,1,85,2|0,0:0|0:0,0:0:0:0:
312,56,282758,6,0,B|392:104|376:204,1,170,2|0,0:0|0:0,0:0:0:0:
224,256,283242,2,0,P|284:324|408:336,1,170,2|0,0:0|0:0,0:0:0:0:
456,240,283726,1,2,0:0:0:0:
148,68,284049,6,0,P|96:104|104:224,1,170,2|0,0:0|0:0,0:0:0:0:
172,160,284533,2,0,P|200:256|112:320,1,170,2|0,0:0|0:0,0:0:0:0:
56,344,285016,1,2,0:0:0:0:
328,324,285339,6,0,B|380:320|380:320|420:188,1,170,2|0,0:0|0:0,0:0:0:0:
408,88,285823,2,0,P|320:72|224:120,1,170,2|0,0:0|0:0,0:0:0:0:
336,216,286307,1,2,0:0:0:0:
96,304,286629,6,2,P|177:329|264:268,1,170
400,72,287274,2,2,P|319:53|248:97,1,170
116,76,287920,2,2,P|110:158|164:221,1,170
328,288,288565,2,2,P|371:217|353:136,1,170
256,192,289210,5,12,0:0:0:0:
256,192,289371,12,0,293887,0:0:0:0:
256,192,294049,12,0,296629,0:0:0:0:
328,260,296960,6,0,P|356:224|356:176,1,85
128,108,297282,2,0,P|92:136|88:183,1,85
212,236,297605,2,0,L|248:160,1,85,2|0,0:0|0:0,0:0:0:0:
184,44,297927,1,0,0:0:0:0:
300,36,298089,2,0,B|340:38|364:68|364:68|396:82,1,110.499994941712
256,120,298573,5,0,0:0:0:0:
336,176,298734,1,0,0:0:0:0:
192,208,298895,2,0,P|152:232|132:288,1,85,2|0,0:0|0:0,0:0:0:0:
224,296,299218,2,0,P|260:275|281:239,1,85
428,332,299541,6,0,P|472:348|512:324,1,85
452,216,299863,2,0,P|413:201|373:213,1,85
372,24,300186,6,0,B|360:64|360:64|352:84|328:88|324:128,1,110.499994941712,2|0,0:0|0:0,0:0:0:0:
160,184,300670,1,0,0:0:0:0:
260,348,300831,1,0,0:0:0:0:
324,120,300993,2,0,P|311:159|326:198,1,85
200,148,301315,2,0,B|192:120|162:111|162:111|152:80|116:72,1,110.499994941712,2|0,0:0|0:0,0:0:0:0:
48,128,301799,1,0,0:0:0:0:
76,312,301960,1,0,0:0:0:0:
248,324,302121,6,0,P|276:332|336:316,1,85
284,216,302444,2,0,P|242:207|202:219,1,85
224,80,302767,2,0,B|256:84|260:52|336:68,1,110.499994941712,2|0,0:0|0:0,0:0:0:0:
452,80,303250,1,0,0:0:0:0:
440,236,303411,1,0,0:0:0:0:
328,344,303573,6,0,P|304:356|236:344,1,85
152,316,303896,2,0,B|140:288|108:272|108:272|84:208,1,110.499994941712,2|0,0:0|0:0,0:0:0:0:
136,84,304379,1,0,0:0:0:0:
32,108,304541,1,0,0:0:0:0:
64,24,304702,5,0,0:0:0:0:
216,24,305186,1,0,0:0:0:0:
364,72,305670,2,0,B|423:204|319:208|397:317,1,255,2|0,0:0|0:0,0:0:0:0:
396,315,307299,5,0,0:0:0:0:
280,216,307782,1,0,0:0:0:0:
160,272,308266,2,0,P|118:156|187:54,1,255,2|0,0:0|0:0,0:0:0:0:
196,308,309987,6,0,L|196:348,5,21.25
256,192,310309,12,0,313696,0:0:0:0:
