osu file format v14

[General]
AudioFilename: chaosmyth.mp3
AudioLeadIn: 0
PreviewTime: 144074
Countdown: 0
SampleSet: Soft
StackLeniency: 0.7
Mode: 0
LetterboxInBreaks: 1
WidescreenStoryboard: 0

[Editor]
Bookmarks: 20823,56952,59532,62113,74693,103403,144694,191145,232516,241468,247920,289210,299533,313726,316307
DistanceSpacing: 2
BeatDivisor: 8
GridSize: 4
TimelineZoom: 2.1

[Metadata]
Title:C.h.a.o.s.m.y.t.h.
TitleUnicode:C.h.a.o.s.m.y.t.h.
Artist:ONE OK ROCK
ArtistUnicode:ONE OK ROCK
Creator:-Lemons
Version:L.e.g.a.c.y.
Source:
Tags:Zankyo Reference 残響リファレンス Post Hardcore Alt Rock chaosmyth
BeatmapID:663952
BeatmapSetID:295555

[Difficulty]
HPDrainRate:6
CircleSize:4.2
OverallDifficulty:8.6
ApproachRate:8.8
SliderMultiplier:2.5
SliderTickRate:2

[Events]
//Background and Video events
0,0,"Akio-baka.full.463983.jpg",0,0
//Break Periods
//Storyboard Layer 0 (Background)
//Storyboard Layer 1 (Fail)
//Storyboard Layer 2 (Pass)
//Storyboard Layer 3 (Foreground)
//Storyboard Sound Samples

[TimingPoints]
204,645.161290322581,4,2,1,25,1,0
204,-142.857142857143,4,2,1,25,0,0
20823,645.161290322581,4,1,1,35,1,0
20823,-125,4,1,1,35,0,0
56952,-125,4,1,1,55,0,0
58242,-125,4,1,1,65,0,0
59532,-125,4,1,1,75,0,0
60177,-125,4,1,1,75,0,0
60823,-125,4,1,1,85,0,0
62113,-66.6666666666667,4,1,1,85,0,1
72435,-100,4,1,1,75,0,0
82758,-80,4,1,1,85,0,1
97919,-100,4,1,1,75,0,0
144693,-80,4,1,1,85,0,1
155016,-100,4,1,1,75,0,0
165177,-80,4,1,1,85,0,1
180500,-100,4,1,1,75,0,0
247919,-80,4,1,1,85,0,1
258242,-100,4,1,1,75,0,0
268564,-80,4,1,1,85,0,1
278887,-100,4,1,1,75,0,0
296638,645.161290322581,4,2,1,25,1,0
307299,645.161290322581,4,2,1,15,1,0
309987,645.161290322581,4,2,1,15,1,0

[Colours]
Combo1 : 73,41,39
Combo2 : 116,217,98
Combo3 : 61,98,135
Combo4 : 254,174,111
Combo5 : 230,215,184

[HitObjects]
177,25,204,6,0,L|172:87,1,43.749998664856,2|0,0:0|0:0,0:0:0:0:
223,139,526,2,0,L|229:196,1,43.749998664856,0|0,0:0|0:0,0:0:0:0:
269,259,849,2,0,L|264:321,1,43.749998664856,8|0,0:0|0:0,0:0:0:0:
326,364,1171,1,0,0:0:0:0:
452,241,1333,2,2,B|474:209|478:179|478:179|452:158,1,87.499997329712,2|0,0:0|0:0,0:0:0:0:
386,124,1816,2,0,P|363:115|340:109,1,43.749998664856,2|0,0:0|0:0,0:0:0:0:
261,137,2139,2,0,P|239:142|219:151,1,43.749998664856,8|0,0:0|0:0,0:0:0:0:
148,202,2462,2,0,P|142:180|133:160,1,43.749998664856,0|0,0:0|0:0,0:0:0:0:
54,5,2784,6,0,P|80:4|99:6,1,43.749998664856,2|0,0:0|0:0,0:0:0:0:
172,51,3107,2,0,P|193:52|215:51,1,43.749998664856,0|0,0:0|0:0,0:0:0:0:
292,9,3429,2,0,P|318:8|337:10,1,43.749998664856,8|0,0:0|0:0,0:0:0:0:
417,41,3752,1,0,0:0:0:0:
499,196,3913,2,2,B|492:217|497:239|497:239|490:260|490:260|488:283,1,87.499997329712,2|0,0:0|0:0,0:0:0:0:
422,340,4397,2,0,L|358:336,1,43.749998664856,2|0,0:0|0:0,0:0:0:0:
294,310,4720,2,0,L|250:312,1,43.749998664856,8|0,0:0|0:0,0:0:0:0:
171,349,5042,2,0,L|107:345,1,43.749998664856,0|0,0:0|0:0,0:0:0:0:
39,338,5365,6,0,P|40:291|46:271,1,43.749998664856,2|0,0:0|0:0,0:0:0:0:
94,226,5687,2,0,P|93:179|87:159,1,43.749998664856,0|0,0:0|0:0,0:0:0:0:
40,112,6010,2,0,P|41:65|47:45,1,43.749998664856,8|0,0:0|0:0,0:0:0:0:
104,7,6333,1,0,0:0:0:0:
256,92,6494,2,2,B|273:76|301:75|292:83|319:83|341:68,1,87.499997329712,2|0,0:0|0:0,0:0:0:0:
426,59,6978,2,0,P|429:95|439:116,1,43.749998664856,2|0,0:0|0:0,0:0:0:0:
475,177,7300,2,0,P|472:213|462:234,1,43.749998664856,8|0,0:0|0:0,0:0:0:0:
423,294,7623,2,0,P|387:297|366:307,1,43.749998664856,0|0,0:0|0:0,0:0:0:0:
302,259,7945,6,0,L|246:229,1,43.749998664856,2|0,0:0|0:0,0:0:0:0:
210,308,8268,2,0,L|171:328,1,43.749998664856,0|0,0:0|0:0,0:0:0:0:
118,259,8591,2,0,L|62:229,1,43.749998664856,8|0,0:0|0:0,0:0:0:0:
10,292,8913,1,0,0:0:0:0:
8,117,9074,2,2,B|43:107|60:79|60:79|93:58,1,87.499997329712,2|0,0:0|0:0,0:0:0:0:
159,101,9558,2,0,L|226:88,1,43.749998664856,2|0,0:0|0:0,0:0:0:0:
272,40,9881,2,0,L|314:48,1,43.749998664856,8|0,0:0|0:0,0:0:0:0:
353,127,10204,2,0,L|420:114,1,43.749998664856,0|0,0:0|0:0,0:0:0:0:
458,180,10526,5,2,0:0:0:0:
448,266,10687,1,0,0:0:0:0:
376,316,10849,2,0,L|326:300,1,43.749998664856,0|0,0:0|0:0,0:0:0:0:
191,201,11171,2,2,B|156:198|129:210|129:210|104:243,1,87.499997329712,8|0,0:0|0:0,0:0:0:0:
51,290,11655,2,0,P|25:234|25:234,1,43.749998664856,2|0,0:0|0:0,0:0:0:0:
17,163,11978,2,0,P|43:107|43:107,1,43.749998664856,0|0,0:0|0:0,0:0:0:0:
186,36,12300,2,2,P|259:54|284:58,1,87.499997329712,8|0,0:0|0:0,0:0:0:0:
358,78,12784,1,0,0:0:0:0:
243,139,12945,1,0,0:0:0:0:
231,154,13268,6,0,L|156:164,1,43.749998664856,0|0,0:0|0:0,0:0:0:0:
120,216,13591,1,0,0:0:0:0:
296,244,13752,2,2,B|316:230|340:226|340:226|364:232|384:228,1,87.499997329712,8|0,0:0|0:0,0:0:0:0:
462,258,14236,2,0,L|487:216,1,43.749998664856,2|0,0:0|0:0,0:0:0:0:
482,133,14558,1,0,0:0:0:0:
429,62,14720,1,0,0:0:0:0:
255,42,14881,2,2,P|206:47|158:47,1,87.499997329712,8|0,0:0|0:0,0:0:0:0:
232,120,15365,1,2,0:0:0:0:
108,156,15526,1,0,0:0:0:0:
124,307,15687,6,0,P|203:276|217:277,1,87.499997329712,0|0,0:0|0:0,0:0:0:0:
266,337,16171,2,0,P|308:329|345:306,1,87.499997329712,0|0,0:0|0:0,0:0:0:0:
410,246,16655,2,0,P|437:166|373:3,1,262.499991989136,0|0,0:0|0:0,0:0:0:0:
44,117,18268,6,0,P|32:163|36:206,1,87.499997329712,0|0,0:0|0:0,0:0:0:0:
93,267,18752,2,0,P|134:257|183:260,1,87.499997329712,0|0,0:0|0:0,0:0:0:0:
253,305,19236,2,0,P|316:296|371:256,1,131.249995994568,0|0,0:0|0:0,0:0:0:0:
388,171,19881,6,0,P|381:109|380:75,1,87.499997329712,0|0,0:0|0:0,0:0:0:0:
208,50,20526,2,0,L|192:119,1,43.749998664856,0|0,0:0|0:0,0:0:0:0:
128,44,20823,6,0,L|66:37,1,50,8|0,0:0|0:0,0:0:0:0:
24,124,21145,2,0,L|16:188,1,50,0|0,0:0|0:0,0:0:0:0:
60,264,21468,2,0,B|84:252|84:252|120:248,1,50,2|0,0:0|0:0,0:0:0:0:
171,323,21790,1,0,0:0:0:0:
272,294,21952,2,0,P|288:246|324:198,1,100,0|0,0:0|0:0,0:0:0:0:
408,124,22435,1,8,0:0:0:0:
368,32,22597,1,0,0:0:0:0:
320,156,22758,2,0,L|316:216,1,50,2|0,0:0|0:0,0:0:0:0:
215,300,23081,2,0,L|218:250,1,50,0|0,0:0|0:0,0:0:0:0:
153,144,23403,6,0,L|102:138,1,50,8|0,0:0|0:0,0:0:0:0:
15,53,23726,2,0,L|64:58,1,50,0|0,0:0|0:0,0:0:0:0:
180,68,24048,2,0,P|207:83|226:107,1,50,2|0,0:0|0:0,0:0:0:0:
273,192,24371,1,0,0:0:0:0:
224,274,24532,1,0,0:0:0:0:
121,177,24693,2,0,L|142:275,1,100,0|8,0:0|0:0,0:0:0:0:
52,295,25177,1,0,0:0:0:0:
25,181,25339,2,0,L|46:84,1,100,2|0,0:0|0:0,0:0:0:0:
136,26,25823,1,0,0:0:0:0:
237,62,25984,6,0,P|281:67|336:58,1,100,8|2,0:0|0:0,0:0:0:0:
426,22,26468,2,0,P|442:78|436:128,1,100,0|0,0:0|0:0,0:0:0:0:
404,205,26952,1,0,0:0:0:0:
478,321,27113,2,0,B|454:350|414:364|414:364|399:324,1,100,0|0,0:0|0:0,0:0:0:0:
312,308,27597,1,8,0:0:0:0:
244,380,27758,1,0,0:0:0:0:
147,362,27919,2,0,L|97:356,1,50,2|0,0:0|0:0,0:0:0:0:
23,303,28242,1,0,0:0:0:0:
117,246,28403,1,0,0:0:0:0:
27,183,28564,6,0,P|36:155|43:128,1,50,8|0,0:0|0:0,0:0:0:0:
120,64,28887,2,0,P|127:88|135:112,1,50,0|0,0:0|0:0,0:0:0:0:
200,216,29210,2,0,P|228:208|264:176,1,50,2|0,0:0|0:0,0:0:0:0:
292,312,29532,1,0,0:0:0:0:
381,356,29693,1,0,0:0:0:0:
450,283,29855,2,0,B|463:264|493:259|493:259|493:224|519:195,1,100,0|8,0:0|0:0,0:0:0:0:
512,112,30339,2,0,P|494:60|448:36,1,100,0|0,0:0|0:0,0:0:0:0:
436,110,30823,2,0,L|428:162,1,50,0|0,0:0|0:0,0:0:0:0:
338,235,31145,6,0,B|312:219|312:219|238:243,1,100,8|0,0:0|0:0,0:0:0:0:
151,273,31629,1,0,0:0:0:0:
36,148,31790,2,0,B|104:123|104:123|120:85,1,100,2|0,0:0|0:0,0:0:0:0:
169,13,32274,2,0,L|223:5,1,50,0|0,0:0|0:0,0:0:0:0:
297,67,32597,2,0,L|346:74,1,50,0|10,0:0|0:0,0:0:0:0:
494,30,32919,2,0,B|503:43|503:43|501:146,1,100,0|0,0:0|0:0,0:0:0:0:
460,218,33403,1,0,0:0:0:0:
382,154,33564,1,0,0:0:0:0:
267,206,33726,6,0,L|257:264,1,50,8|0,0:0|0:0,0:0:0:0:
141,289,34048,2,0,L|151:347,1,50,0|0,0:0|0:0,0:0:0:0:
16,208,34371,2,0,B|-4:168|0:132|0:132|24:100,1,100,2|0,0:0|0:0,0:0:0:0:
104,152,34855,1,0,0:0:0:0:
148,68,35016,2,0,L|204:72,1,50,0|0,0:0|0:0,0:0:0:0:
288,28,35339,2,0,L|337:24,1,50,8|0,0:0|0:0,0:0:0:0:
412,92,35661,2,0,L|468:96,1,50,0|0,0:0|0:0,0:0:0:0:
492,192,35984,1,8,0:0:0:0:
340,320,36306,6,0,P|272:328|224:316,1,100,10|0,0:0|0:0,0:0:0:0:
140,312,36790,2,0,P|204:289|242:257,1,100,2|0,0:0|0:0,0:0:0:0:
328,284,37274,2,0,P|273:242|232:160,1,150,2|0,0:0|0:0,0:0:0:0:
200,76,37919,1,8,0:0:0:0:
200,76,38242,1,2,0:0:0:0:
388,12,38564,1,0,0:0:0:0:
352,208,38887,6,0,P|388:248|404:304,1,100,2|0,0:0|0:0,0:0:0:0:
304,280,39371,2,0,P|305:333|282:386,1,100,2|0,0:0|0:0,0:0:0:0:
216,316,39855,2,0,P|196:344|172:360,1,50,2|0,0:0|0:0,0:0:0:0:
96,296,40177,2,0,B|80:280|80:280|56:192,1,100,0|0,0:0|0:0,0:0:0:0:
112,120,40661,2,0,B|128:136|128:136|148:210,1,100,0|0,0:0|0:0,0:0:0:0:
204,124,41145,1,0,0:0:0:0:
404,96,41468,6,0,B|420:136|404:176|404:176|364:136,1,100,8|0,0:0|0:0,0:0:0:0:
305,111,41952,1,0,0:0:0:0:
328,208,42113,2,0,B|334:235|334:235|336:264,1,50,2|0,0:0|0:0,0:0:0:0:
348,357,42435,1,0,0:0:0:0:
210,297,42597,2,0,P|162:277|106:277,1,100,0|0,0:0|0:0,0:0:0:0:
24,230,43081,1,8,0:0:0:0:
57,136,43242,1,0,0:0:0:0:
149,172,43403,2,0,L|205:178,1,50,2|0,0:0|0:0,0:0:0:0:
339,136,43726,2,0,L|283:142,1,50,0|0,0:0|0:0,0:0:0:0:
158,196,44048,6,0,B|154:224|154:224|164:260,1,50,8|0,0:0|0:0,0:0:0:0:
239,306,44371,2,0,B|267:302|267:302|303:312,1,50,0|0,0:0|0:0,0:0:0:0:
375,355,44693,2,0,B|395:361|395:361|423:357,1,50,2|0,0:0|0:0,0:0:0:0:
509,305,45016,1,0,0:0:0:0:
504,205,45177,2,0,B|502:179|514:155|514:155|510:127|510:127|514:95,1,100,0|0,0:0|0:0,0:0:0:0:
423,49,45661,1,8,0:0:0:0:
420,149,45823,1,0,0:0:0:0:
335,96,45984,2,0,L|282:91,1,50,2|0,0:0|0:0,0:0:0:0:
153,148,46306,2,0,L|203:153,1,50,0|0,0:0|0:0,0:0:0:0:
222,251,46629,6,0,B|206:310|213:353,1,100,8|0,0:0|0:0,0:0:0:0:
301,303,47113,2,0,B|360:287|399:293,1,100,0|0,0:0|0:0,0:0:0:0:
497,315,47597,1,0,0:0:0:0:
512,166,47758,2,0,B|518:80|518:80|501:56,1,100,0|0,0:0|0:0,0:0:0:0:
409,71,48242,1,8,0:0:0:0:
397,170,48403,1,0,0:0:0:0:
300,143,48564,2,0,L|249:115,1,50,2|0,0:0|0:0,0:0:0:0:
105,125,48887,2,0,L|149:150,1,50,0|0,0:0|0:0,0:0:0:0:
179,245,49210,6,0,L|185:297,1,50,8|0,0:0|0:0,0:0:0:0:
282,273,49532,2,0,L|288:325,1,50,0|0,0:0|0:0,0:0:0:0:
384,297,49855,2,0,L|390:349,1,50,2|0,0:0|0:0,0:0:0:0:
486,320,50177,1,0,0:0:0:0:
421,199,50339,1,0,0:0:0:0:
335,189,50500,2,0,B|307:183|262:190|262:190|289:146,1,100,0|8,0:0|0:0,0:0:0:0:
359,111,50984,1,0,0:0:0:0:
278,52,51145,2,0,B|264:29|264:29|309:36|337:30,1,100,2|0,0:0|0:0,0:0:0:0:
435,10,51629,1,0,0:0:0:0:
496,88,51790,6,0,B|525:124|525:124|532:184|493:236,1,150,8|0,0:0|0:0,0:0:0:0:
441,303,52435,2,0,P|410:304|387:310,1,50,2|0,0:0|0:0,0:0:0:0:
299,348,52758,2,0,P|274:343|249:342,1,50,0|0,0:0|0:0,0:0:0:0:
149,336,53081,2,0,B|137:317|137:317|89:303|52:279,1,100,0|8,0:0|0:0,0:0:0:0:
55,187,53564,1,0,0:0:0:0:
97,96,53726,2,0,B|126:98|126:98|167:87,1,50,0|0,0:0|0:0,0:0:0:0:
237,52,54048,2,0,L|262:111,1,50,0|0,0:0|0:0,0:0:0:0:
325,171,54371,6,0,P|315:236|318:284,1,100,8|0,0:0|0:0,0:0:0:0:
407,229,54855,2,0,P|408:206|453:189,1,50,0|2,0:0|0:0,0:0:0:0:
489,110,55177,2,0,P|469:84|442:62,1,50,0|0,0:0|0:0,0:0:0:0:
366,27,55500,5,0,0:0:0:0:
266,26,55661,2,0,B|215:25|215:25|180:54|153:123,1,150,0|0,0:0|0:0,0:0:0:0:
110,196,56306,2,0,L|96:265,1,50,0|0,0:0|0:0,0:0:0:0:
199,261,56629,1,0,0:0:0:0:
289,304,56952,5,8,0:0:0:0:
289,304,57274,1,0,0:0:0:0:
289,304,57596,1,8,0:0:0:0:
289,304,57919,1,0,0:0:0:0:
428,141,58242,5,8,0:0:0:0:
255,39,58564,1,0,0:0:0:0:
126,192,58887,1,8,0:0:0:0:
313,121,59210,1,0,0:0:0:0:
315,306,59532,6,2,L|255:315,1,50,8|0,0:0|0:0,0:0:0:0:
389,223,59855,2,0,L|329:232,1,50,8|0,0:0|0:0,0:0:0:0:
426,153,60177,1,8,0:0:0:0:
440,72,60339,1,0,0:0:0:0:
335,132,60500,1,8,0:0:0:0:
350,56,60661,1,0,0:0:0:0:
229,29,60823,5,8,0:0:0:0:
196,12,60903,1,0,0:0:0:0:
156,0,60984,1,0,0:0:0:0:
120,12,61064,1,0,0:0:0:0:
92,36,61145,1,8,0:0:0:0:
88,72,61226,1,0,0:0:0:0:
120,92,61306,1,0,0:0:0:0:
100,124,61387,1,0,0:0:0:0:
84,156,61468,1,8,0:0:0:0:
96,192,61548,1,0,0:0:0:0:
116,224,61629,5,0,0:0:0:0:
196,332,61790,1,8,0:0:0:0:
184,156,61952,1,0,0:0:0:0:
248,248,62113,5,12,0:0:0:0:
440,352,62435,5,0,0:0:0:0:
328,324,62597,1,0,0:0:0:0:
480,240,62758,1,8,0:0:0:0:
416,144,62919,2,0,B|392:152|372:164|372:164|304:160,1,93.7500035762788,0|0,0:0|0:0,0:0:0:0:
128,156,63242,1,0,0:0:0:0:
224,260,63403,1,0,0:0:0:0:
263,116,63564,6,0,P|304:88|354:90,1,93.7500035762788,0|0,0:0|0:0,0:0:0:0:
148,36,63887,1,0,0:0:0:0:
288,20,64048,1,8,0:0:0:0:
232,152,64210,2,0,P|204:224|208:252,1,93.7500035762788,0|0,0:0|0:0,0:0:0:0:
