osu file format v14

[General]
AudioFilename: audio.mp3
AudioLeadIn: 0
PreviewTime: 193417
Countdown: 0
SampleSet: None
StackLeniency: 0.5
Mode: 0
LetterboxInBreaks: 0
WidescreenStoryboard: 0

[Editor]
Bookmarks: 66105,126480,129105,181605
DistanceSpacing: 1
BeatDivisor: 4
GridSize: 32
TimelineZoom: 1

[Metadata]
Title:Bombs Away
TitleUnicode:Bombs Away
Artist:ONE OK ROCK
ArtistUnicode:ONE OK ROCK
Creator:Naitsirk
Version:Descent
Source:
Tags:ambition
BeatmapID:1923638
BeatmapSetID:921188

[Difficulty]
HPDrainRate:6
CircleSize:4
OverallDifficulty:9
ApproachRate:9
SliderMultiplier:1.8
SliderTickRate:1

[Events]
//Background and Video events
0,0,"bombs away.png",0,0
//Break Periods
2,91430,92505
2,157605,169005
//Storyboard Layer 0 (Background)
//Storyboard Layer 1 (Fail)
//Storyboard Layer 2 (Pass)
//Storyboard Layer 3 (Foreground)
//Storyboard Sound Samples

[TimingPoints]
30105,375,4,3,0,100,1,0
30105,-200,4,3,0,40,0,0
42105,-133.333333333333,4,3,0,60,0,0
66105,-100,4,3,0,80,0,1
90105,-400,4,3,0,40,0,0
93105,-133.333333333333,4,3,0,60,0,0
114105,-100,4,3,0,60,0,0
129105,-100,4,3,0,80,0,1
153105,-400,4,3,0,40,0,0
169605,-200,4,3,0,40,0,0
181605,-100,4,3,0,80,0,0
193605,-100,4,3,0,80,0,1
217230,-100,4,3,0,80,0,0
217605,-100,4,3,0,80,0,1
226605,-100,4,3,0,80,0,0

[Colours]
Combo1 : 243,35,13
Combo2 : 134,249,249
Combo3 : 28,208,246
Combo4 : 77,132,235
Combo5 : 223,213,33
Combo6 : 219,124,37

[HitObjects]
152,143,30105,6,0,L|163:277,1,135
242,231,30855,2,0,P|272:217|306:216,1,67.5
393,319,31417,2,0,P|433:337|478:339,2,90
373,139,32542,2,0,L|365:49,1,90
117,98,33105,6,0,B|146:115|175:115|204:98|204:98|232:82|261:82|288:97,1,180
373,139,34042,1,0,0:0:0:0:
373,139,34417,2,0,L|365:229,1,90
192,288,35167,1,0,0:0:0:0:
114,241,35355,2,0,P|83:227|49:225,2,67.5
172,62,36105,6,0,L|183:196,1,135
192,288,36855,2,0,P|222:301|256:303,1,67.5
335,193,37417,2,0,L|342:282,2,90
488,98,38542,2,0,L|480:187,1,90
342,282,39105,6,0,B|364:292|386:292|408:282|408:282|430:272|452:272|472:280,1,135
443,366,39855,1,0,0:0:0:0:
443,366,40230,1,0,0:0:0:0:
472,280,40417,2,0,L|456:91,1,180
382,49,41355,2,0,P|348:43|315:49,2,67.5
219,134,42105,6,0,B|264:131|264:131|298:151|298:151|349:147,1,135.000005149842
442,131,42667,1,0,0:0:0:0:
436,225,42855,1,0,0:0:0:0:
436,225,43042,2,0,L|430:292,1,67.5000025749208
283,260,43417,6,0,L|350:254,1,67.5000025749208
189,268,43792,2,0,L|160:329,1,67.5000025749208
229,182,44167,2,0,L|190:126,1,67.5000025749208
283,260,44542,2,0,L|350:254,1,67.5000025749208
442,131,44917,1,0,0:0:0:0:
442,131,45011,1,0,0:0:0:0:
442,131,45105,6,0,B|390:127|390:127|356:147|356:147|311:144,1,135.000005149842
218,138,45667,1,0,0:0:0:0:
123,130,45855,1,0,0:0:0:0:
123,130,46042,2,0,L|117:62,1,67.5000025749208
209,41,46417,1,0,0:0:0:0:
218,138,46605,6,0,L|229:278,1,135.000005149842
176,351,47167,1,0,0:0:0:0:
105,288,47355,2,0,P|55:279|5:288,2,101.250003862381
146,265,48011,1,0,0:0:0:0:
146,265,48105,6,0,B|191:262|191:262|225:282|225:282|276:278,1,135.000005149842
275,278,48855,1,0,0:0:0:0:
285,184,49042,2,0,L|291:117,1,67.5000025749208
369,64,49417,1,0,0:0:0:0:
447,117,49605,6,0,L|459:253,1,135.000005149842
394,321,50167,2,0,P|362:329|328:327,1,67.5000025749208
266,255,50542,2,0,P|233:246|199:248,1,67.5000025749208
137,321,50917,1,0,0:0:0:0:
137,321,51011,1,0,0:0:0:0:
137,321,51105,1,0,0:0:0:0:
256,192,51198,12,0,53917,0:0:0:0:
256,192,54105,5,0,0:0:0:0:
256,192,54480,1,0,0:0:0:0:
332,245,54667,1,0,0:0:0:0:
417,206,54855,2,0,L|423:139,2,67.5000025749208
485,270,55417,1,0,0:0:0:0:
332,245,55605,6,0,P|268:230|208:259,1,135.000005149842
112,317,56167,2,0,P|120:284|118:250,1,67.5000025749208
57,181,56542,2,0,P|48:148|50:114,1,67.5000025749208
118,49,56917,1,0,0:0:0:0:
118,250,57105,5,0,0:0:0:0:
118,250,57480,1,0,0:0:0:0:
194,303,57667,1,0,0:0:0:0:
278,263,57855,2,0,L|284:196,1,67.5000025749208
293,102,58230,1,0,0:0:0:0:
427,114,58417,6,0,L|293:102,1,135.000005149842
205,141,58980,1,0,0:0:0:0:
418,207,59167,6,0,L|284:195,1,135.000005149842
196,234,59730,1,0,0:0:0:0:
187,327,59917,1,0,0:0:0:0:
198,73,60105,6,0,L|204:140,1,67.5000025749208
283,194,60480,1,0,0:0:0:0:
196,234,60667,2,0,L|129:228,2,67.5000025749208
276,284,61230,2,0,L|343:290,1,67.5000025749208
405,169,61605,6,0,P|339:159|282:193,1,135.000005149842
276,284,62167,2,0,L|270:351,1,67.5000025749208
365,319,62542,2,0,L|359:252,1,67.5000025749208
405,169,62917,1,0,0:0:0:0:
276,284,63105,5,0,0:0:0:0:
276,284,63480,1,0,0:0:0:0:
320,64,63667,1,0,0:0:0:0:
405,169,63855,2,0,L|338:175,1,67.5000025749208
157,186,64230,2,0,L|224:192,1,67.5000025749208
486,222,64605,5,0,0:0:0:0:
256,192,64698,12,0,65917,0:0:0:0:
109,114,66105,5,0,0:0:0:0:
208,278,66292,1,0,0:0:0:0:
306,114,66480,1,0,0:0:0:0:
110,225,66667,1,0,0:0:0:0:
302,222,66854,1,0,0:0:0:0:
209,55,67042,1,0,0:0:0:0:
208,278,67230,1,0,0:0:0:0:
306,114,67417,1,0,0:0:0:0:
393,277,67605,5,0,0:0:0:0:
212,169,67792,1,0,0:0:0:0:
402,171,67980,1,0,0:0:0:0:
299,332,68167,1,0,0:0:0:0:
299,332,68542,5,0,0:0:0:0:
402,171,68730,1,0,0:0:0:0:
212,169,68917,1,0,0:0:0:0:
393,277,69105,5,0,0:0:0:0:
306,114,69292,1,0,0:0:0:0:
208,278,69480,1,0,0:0:0:0:
402,171,69667,2,0,P|416:127|412:80,1,90
212,169,70042,5,0,0:0:0:0:
299,332,70230,1,0,0:0:0:0:
306,114,70417,2,0,P|275:79|231:59,1,90
116,219,70792,5,0,0:0:0:0:
302,222,70980,1,0,0:0:0:0:
118,115,71167,1,0,0:0:0:0:
208,278,71355,1,0,0:0:0:0:
212,61,71542,1,0,0:0:0:0:
116,219,71730,1,0,0:0:0:0:
402,171,71917,1,0,0:0:0:0:
402,171,72011,1,0,0:0:0:0:
402,171,72105,5,0,0:0:0:0:
212,61,72292,1,0,0:0:0:0:
208,278,72480,1,0,0:0:0:0:
339,58,72667,1,0,0:0:0:0:
147,168,72855,1,0,0:0:0:0:
334,281,73042,1,0,0:0:0:0:
212,61,73230,1,0,0:0:0:0:
208,278,73417,1,0,0:0:0:0:
339,58,73605,5,0,0:0:0:0:
147,168,73792,1,0,0:0:0:0:
334,281,73980,1,0,0:0:0:0:
212,61,74167,1,0,0:0:0:0:
212,61,74542,5,0,0:0:0:0:
208,278,74730,1,0,0:0:0:0:
18,168,74917,1,0,0:0:0:0:
272,171,75105,1,0,0:0:0:0:
82,277,75293,1,0,0:0:0:0:
82,57,75480,5,0,0:0:0:0:
208,278,75667,1,0,0:0:0:0:
212,61,75855,5,0,0:0:0:0:
82,277,76042,1,0,0:0:0:0:
75,45,76230,5,0,0:0:0:0:
214,288,76417,1,0,0:0:0:0:
218,50,76605,5,0,0:0:0:0:
75,287,76792,1,0,0:0:0:0:
69,34,76980,5,0,0:0:0:0:
220,299,77167,1,0,0:0:0:0:
225,39,77355,5,0,0:0:0:0:
69,298,77542,1,0,0:0:0:0:
112,309,77635,1,0,0:0:0:0:
156,301,77729,1,0,0:0:0:0:
196,281,77823,1,0,0:0:0:0:
238,267,77917,1,0,0:0:0:0:
282,273,78010,1,0,0:0:0:0:
323,291,78105,6,0,L|333:187,1,90
348,36,78480,1,0,0:0:0:0:
157,162,78667,2,0,L|259:153,1,90
447,139,79042,1,0,0:0:0:0:
348,36,79230,1,0,0:0:0:0:
348,36,79417,1,0,0:0:0:0:
333,242,79605,5,0,0:0:0:0:
221,86,79792,1,0,0:0:0:0:
141,260,79980,1,0,0:0:0:0:
321,130,80167,1,0,0:0:0:0:
321,130,80542,1,0,0:0:0:0:
130,150,80730,1,0,0:0:0:0:
243,305,80918,1,0,0:0:0:0:
221,86,81105,6,0,P|248:45|294:23,1,90
512,111,81480,1,0,0:0:0:0:
321,130,81667,2,0,P|320:175|342:215,1,90
512,310,82042,5,0,0:0:0:0:
423,152,82230,1,0,0:0:0:0:
324,305,82417,2,0,P|285:328|238:329,1,90
88,175,82792,5,0,0:0:0:0:
260,224,82980,1,0,0:0:0:0:
132,349,83167,1,0,0:0:0:0:
188,150,83355,1,0,0:0:0:0:
231,323,83542,1,0,0:0:0:0:
277,325,83635,1,0,0:0:0:0:
319,307,83729,1,0,0:0:0:0:
349,272,83823,1,0,0:0:0:0:
361,228,83917,1,0,0:0:0:0:
353,183,84010,1,0,0:0:0:0:
326,147,84104,5,0,0:0:0:0:
161,250,84292,1,0,0:0:0:0:
255,30,84480,1,0,0:0:0:0:
260,224,84668,1,0,0:0:0:0:
117,33,84854,1,0,0:0:0:0:
288,125,85042,1,0,0:0:0:0:
50,154,85230,1,0,0:0:0:0:
215,51,85418,1,0,0:0:0:0:
121,271,85605,5,0,0:0:0:0:
115,77,85793,1,0,0:0:0:0:
221,297,85980,1,0,0:0:0:0:
215,51,86167,1,0,0:0:0:0:
215,51,86542,1,0,0:0:0:0:
121,271,86730,1,0,0:0:0:0:
115,77,86917,1,0,0:0:0:0:
221,297,87104,6,0,P|261:320|307:321,1,90
468,196,87480,1,0,0:0:0:0:
300,117,87667,1,0,0:0:0:0:
390,277,87855,1,0,0:0:0:0:
412,95,88042,1,0,0:0:0:0:
287,229,88230,2,0,P|243:216|210:184,1,90
265,35,88605,6,0,P|293:71|300:117,1,90
216,301,88980,1,0,0:0:0:0:
100,153,89167,1,0,0:0:0:0:
108,337,89355,1,0,0:0:0:0:
210,184,89542,1,0,0:0:0:0:
36,247,89730,5,0,0:0:0:0:
390,277,89917,1,0,0:0:0:0:
196,46,90105,6,0,L|210:184,1,135
210,184,93105,5,0,0:0:0:0:
303,202,93292,1,0,0:0:0:0:
348,119,93480,1,0,0:0:0:0:
283,50,93667,1,0,0:0:0:0:
198,91,93855,5,0,0:0:0:0:
210,183,94042,2,0,P|181:202|149:209,1,67.5000025749208
58,181,94417,2,0,L|64:248,1,67.5000025749208
71,342,94792,2,0,L|136:356,1,67.5000025749208
228,379,95167,2,0,L|262:321,1,67.5000025749208
312,241,95542,2,0,L|267:190,1,67.5000025749208
206,118,95917,1,0,0:0:0:0:
256,38,96105,5,0,0:0:0:0:
347,60,96292,1,0,0:0:0:0:
353,154,96480,1,0,0:0:0:0:
267,189,96667,1,0,0:0:0:0:
206,118,96855,5,0,0:0:0:0:
119,154,97042,1,0,0:0:0:0:
119,154,97136,1,0,0:0:0:0:
119,154,97230,1,0,0:0:0:0:
125,247,97417,2,0,L|139:401,1,135.000005149842
229,355,97980,1,0,0:0:0:0:
223,261,98168,1,0,0:0:0:0:
310,226,98355,2,0,L|410:235,2,101.250003862381
249,153,99105,5,0,0:0:0:0:
189,81,99292,1,0,0:0:0:0:
101,115,99480,1,0,0:0:0:0:
107,208,99667,1,0,0:0:0:0:
198,232,99855,5,0,0:0:0:0:
249,153,100042,2,0,P|278:134|310:127,1,67.5000025749208
397,90,100417,2,0,L|403:157,1,67.5000025749208
413,251,100792,2,0,L|351:277,1,67.5000025749208
264,315,101167,2,0,L|219:264,1,67.5000025749208
157,193,101542,2,0,L|191:135,1,67.5000025749208
239,53,101917,1,0,0:0:0:0:
331,73,102105,5,0,0:0:0:0:
283,155,102292,1,0,0:0:0:0:
346,225,102480,1,0,0:0:0:0:
433,186,102667,1,0,0:0:0:0:
423,93,102855,5,0,0:0:0:0:
331,73,103042,1,0,0:0:0:0:
331,73,103136,1,0,0:0:0:0:
331,73,103230,1,0,0:0:0:0:
283,155,103417,2,0,L|301:356,1,202.500007724762
301,356,104355,2,0,P|342:327|391:315,2,101.250003862381
210,328,105105,5,0,0:0:0:0:
201,234,105292,1,0,0:0:0:0:
199,217,105385,1,0,0:0:0:0:
197,200,105480,2,0,L|190:132,1,67.5000025749208
181,38,105855,2,0,L|113:31,1,67.5000025749208
71,53,106136,1,0,0:0:0:0:
54,51,106229,1,0,0:0:0:0:
61,145,106417,1,0,0:0:0:0:
62,161,106510,1,0,0:0:0:0:
64,178,106605,5,0,0:0:0:0:
65,195,106698,1,0,0:0:0:0:
67,212,106792,1,0,0:0:0:0:
68,229,106885,1,0,0:0:0:0:
70,245,106980,2,0,L|73:278,3,33.7500012874604
167,293,107355,1,0,0:0:0:0:
260,307,107542,1,0,0:0:0:0:
277,309,107635,1,0,0:0:0:0:
294,311,107730,2,0,L|390:302,1,67.5000025749208
455,294,108105,5,0,0:0:0:0:
445,200,108292,1,0,0:0:0:0:
445,200,108386,1,0,0:0:0:0:
445,200,108480,1,0,0:0:0:0:
435,106,108667,1,0,0:0:0:0:
340,117,108855,6,0,L|272:124,1,67.5000025749208
230,102,109136,1,0,0:0:0:0:
213,104,109229,1,0,0:0:0:0:
118,114,109417,1,0,0:0:0:0:
117,130,109510,1,0,0:0:0:0:
115,147,109605,5,0,0:0:0:0:
114,164,109698,1,0,0:0:0:0:
112,181,109792,1,0,0:0:0:0:
111,198,109885,1,0,0:0:0:0:
109,214,109980,2,0,L|106:247,3,33.7500012874604
12,262,110355,1,0,0:0:0:0:
74,332,110542,1,0,0:0:0:0:
91,334,110635,1,0,0:0:0:0:
108,336,110730,2,0,L|204:327,1,67.5000025749208
269,318,111105,5,0,0:0:0:0:
273,302,111198,1,0,0:0:0:0:
273,285,111292,1,0,0:0:0:0:
272,269,111386,1,0,0:0:0:0:
268,253,111480,1,0,0:0:0:0:
224,169,111667,5,0,0:0:0:0:
220,153,111761,1,0,0:0:0:0:
219,137,111855,1,0,0:0:0:0:
219,120,111949,1,0,0:0:0:0:
223,104,112042,1,0,0:0:0:0:
314,79,112230,5,0,0:0:0:0:
331,77,112323,1,0,0:0:0:0:
348,75,112417,1,0,0:0:0:0:
437,104,112605,5,0,0:0:0:0:
441,120,112698,1,0,0:0:0:0:
441,137,112792,1,0,0:0:0:0:
440,153,112886,1,0,0:0:0:0:
436,169,112980,1,0,0:0:0:0:
351,209,113167,5,0,0:0:0:0:
347,225,113260,1,0,0:0:0:0:
347,242,113354,1,0,0:0:0:0:
348,258,113448,1,0,0:0:0:0:
352,274,113542,2,0,L|385:277,1,33.7500012874604
491,293,113730,1,0,0:0:0:0:
491,293,113917,1,0,0:0:0:0:
269,347,114105,6,0,L|252:167,1,180
439,149,114667,2,0,L|292:253,1,180
244,68,115230,2,0,L|325:105,1,90
180,298,115605,5,0,0:0:0:0:
252,167,115792,1,0,0:0:0:0:
269,347,115980,1,0,0:0:0:0:
163,118,116167,1,0,0:0:0:0:
91,249,116355,1,0,0:0:0:0:
252,166,116542,1,0,0:0:0:0:
259,145,116635,1,0,0:0:0:0:
261,123,116729,1,0,0:0:0:0:
260,101,116823,1,0,0:0:0:0:
253,79,116917,1,0,0:0:0:0:
73,109,117105,6,0,L|163:117,1,90
348,134,117480,1,0,0:0:0:0:
253,79,117667,1,0,0:0:0:0:
296,218,117855,2,0,L|386:226,1,90
437,126,118230,2,0,L|347:134,1,90
182,148,118605,6,0,L|163:355,1,180
296,218,119167,1,0,0:0:0:0:
221,56,119355,2,0,L|131:64,1,90
175,237,119730,2,0,L|183:147,1,90
41,70,120105,6,0,L|60:277,1,180
167,326,120667,1,0,0:0:0:0:
183,147,120855,2,0,L|175:237,1,90
291,328,121230,2,0,L|283:238,1,90
265,65,121605,5,0,0:0:0:0:
274,151,121792,1,0,0:0:0:0:
344,101,121980,1,0,0:0:0:0:
259,56,122167,5,0,0:0:0:0:
269,160,122354,1,0,0:0:0:0:
353,100,122542,1,0,0:0:0:0:
253,47,122730,2,0,L|163:55,1,90
291,328,123105,5,0,0:0:0:0:
353,100,123480,1,0,0:0:0:0:
157,281,123855,1,0,0:0:0:0:
385,220,124230,1,0,0:0:0:0:
130,141,124605,1,0,0:0:0:0:
297,308,124980,1,0,0:0:0:0:
237,47,125355,5,0,0:0:0:0:
206,161,125542,1,0,0:0:0:0:
320,193,125730,1,0,0:0:0:0:
351,79,125917,1,0,0:0:0:0:
175,275,126105,5,0,0:0:0:0:
175,275,126480,5,0,0:0:0:0:
227,81,126667,1,0,0:0:0:0:
343,269,126855,5,0,0:0:0:0:
130,210,127042,1,0,0:0:0:0:
331,89,127230,5,0,0:0:0:0:
266,320,127417,1,0,0:0:0:0:
137,107,127605,5,0,0:0:0:0:
389,177,127792,1,0,0:0:0:0:
164,313,127980,5,0,0:0:0:0:
237,42,128167,1,0,0:0:0:0:
381,280,128355,5,0,0:0:0:0:
90,199,128542,1,0,0:0:0:0:
339,57,128730,5,0,0:0:0:0:
258,351,128917,1,0,0:0:0:0:
151,85,129105,6,0,L|241:77,1,90
429,158,129480,1,0,0:0:0:0:
195,186,129667,1,0,0:0:0:0:
358,63,129855,1,0,0:0:0:0:
265,280,130042,1,0,0:0:0:0:
241,77,130230,1,0,0:0:0:0:
382,266,130417,1,0,0:0:0:0:
195,186,130605,5,0,0:0:0:0:
429,158,130792,1,0,0:0:0:0:
335,374,130980,1,0,0:0:0:0:
312,172,131167,1,0,0:0:0:0:
312,172,131542,1,0,0:0:0:0:
335,374,131730,1,0,0:0:0:0:
429,158,131917,1,0,0:0:0:0:
265,280,132105,5,0,0:0:0:0:
359,64,132292,1,0,0:0:0:0:
382,266,132480,1,0,0:0:0:0:
242,78,132667,2,0,L|152:86,1,90
148,294,133042,5,0,0:0:0:0:
312,172,133230,1,0,0:0:0:0:
77,200,133417,2,0,P|44:229|30:271,1,90
265,280,133792,5,0,0:0:0:0:
242,78,133980,1,0,0:0:0:0:
148,294,134167,1,0,0:0:0:0:
125,92,134355,1,0,0:0:0:0:
265,280,134542,1,0,0:0:0:0:
242,78,134730,1,0,0:0:0:0:
382,266,134917,1,0,0:0:0:0:
382,266,135011,1,0,0:0:0:0:
382,266,135105,5,0,0:0:0:0:
137,193,135292,1,0,0:0:0:0:
352,141,135480,1,0,0:0:0:0:
166,317,135667,1,0,0:0:0:0:
229,105,135855,1,0,0:0:0:0:
289,353,136042,1,0,0:0:0:0:
137,193,136230,1,0,0:0:0:0:
382,266,136417,1,0,0:0:0:0:
166,317,136605,5,0,0:0:0:0:
352,141,136792,1,0,0:0:0:0:
137,193,136980,1,0,0:0:0:0:
382,266,137167,1,0,0:0:0:0:
382,266,137542,1,0,0:0:0:0:
229,105,137730,1,0,0:0:0:0:
166,317,137917,1,0,0:0:0:0:
361,132,138105,5,0,0:0:0:0:
124,189,138292,1,0,0:0:0:0:
346,224,138480,5,0,0:0:0:0:
138,96,138667,1,0,0:0:0:0:
372,129,138855,5,0,0:0:0:0:
112,191,139042,1,0,0:0:0:0:
356,230,139230,5,0,0:0:0:0:
128,90,139417,1,0,0:0:0:0:
384,126,139605,5,0,0:0:0:0:
100,194,139792,1,0,0:0:0:0:
367,236,139980,5,0,0:0:0:0:
117,84,140167,1,0,0:0:0:0:
396,123,140355,5,0,0:0:0:0:
88,196,140543,1,0,0:0:0:0:
65,235,140636,1,0,0:0:0:0:
66,279,140730,1,0,0:0:0:0:
91,316,140824,1,0,0:0:0:0:
131,334,140918,1,0,0:0:0:0:
175,328,141011,1,0,0:0:0:0:
209,300,141105,6,0,L|217:210,1,90
231,23,141480,1,0,0:0:0:0:
310,277,141667,2,0,L|318:187,1,90
332,0,142042,1,0,0:0:0:0:
411,254,142230,1,0,0:0:0:0:
411,254,142417,1,0,0:0:0:0:
324,93,142605,5,0,0:0:0:0:
506,98,142792,1,0,0:0:0:0:
411,254,142980,1,0,0:0:0:0:
416,43,143167,1,0,0:0:0:0:
416,43,143542,1,0,0:0:0:0:
411,254,143730,1,0,0:0:0:0:
506,98,143917,1,0,0:0:0:0:
324,93,144105,6,0,L|316:183,1,90
304,341,144480,1,0,0:0:0:0:
223,115,144667,2,0,L|215:205,1,90
203,363,145042,5,0,0:0:0:0:
316,182,145230,1,0,0:0:0:0:
118,145,145417,2,0,L|110:235,1,90
304,341,145792,5,0,0:0:0:0:
223,115,145980,1,0,0:0:0:0:
203,363,146167,1,0,0:0:0:0:
316,182,146355,1,0,0:0:0:0:
109,295,146542,1,0,0:0:0:0:
72,271,146635,1,0,0:0:0:0:
48,233,146729,1,0,0:0:0:0:
41,189,146823,1,0,0:0:0:0:
51,146,146917,1,0,0:0:0:0:
78,110,147010,1,0,0:0:0:0:
117,88,147104,5,0,0:0:0:0:
225,244,147292,1,0,0:0:0:0:
306,72,147480,1,0,0:0:0:0:
126,197,147668,1,0,0:0:0:0:
208,26,147855,1,0,0:0:0:0:
316,182,148043,1,0,0:0:0:0:
117,88,148230,1,0,0:0:0:0:
306,72,148417,1,0,0:0:0:0:
126,197,148605,5,0,0:0:0:0:
316,182,148792,1,0,0:0:0:0:
233,354,148980,1,0,0:0:0:0:
219,164,149167,1,0,0:0:0:0:
219,164,149542,1,0,0:0:0:0:
233,354,149730,1,0,0:0:0:0:
316,182,149917,1,0,0:0:0:0:
126,197,150105,6,0,L|118:287,1,90
324,291,150480,1,0,0:0:0:0:
219,164,150667,1,0,0:0:0:0:
233,354,150855,1,0,0:0:0:0:
316,182,151042,1,0,0:0:0:0:
420,341,151230,2,0,L|429:251,1,90
309,92,151605,6,0,L|315:182,1,90
233,354,151980,1,0,0:0:0:0:
219,164,152167,1,0,0:0:0:0:
324,291,152355,1,0,0:0:0:0:
133,305,152542,1,0,0:0:0:0:
430,249,152730,5,0,0:0:0:0:
50,232,152917,1,0,0:0:0:0:
315,181,153105,6,0,L|296:1,1,180
256,192,154698,12,0,156105,0:0:0:0:
156,83,169605,6,0,L|160:128,1,45
249,116,169980,2,0,L|245:161,1,45
334,82,170355,2,0,L|338:127,1,45
347,216,170730,1,0,0:0:0:0:
436,224,170917,6,0,L|481:228,1,45
386,293,171292,2,0,L|405:333,1,45
301,284,171667,2,0,L|275:320,1,45
266,205,172042,5,0,0:0:0:0:
178,180,172230,1,0,0:0:0:0:
89,202,172417,2,0,L|85:247,1,45
255,188,172792,5,0,0:0:0:0:
167,163,172980,1,0,0:0:0:0:
78,185,173167,2,0,L|74:230,1,45
259,295,173730,1,0,0:0:0:0:
266,205,173917,1,0,0:0:0:0:
178,181,174105,5,0,0:0:0:0:
186,91,174292,2,0,L|190:46,1,45
279,54,174667,2,0,L|275:99,1,45
364,106,175042,2,0,L|368:61,1,45
354,241,175605,6,0,L|309:245,1,45
256,318,175980,2,0,L|211:314,1,45
158,241,176355,2,0,L|113:245,1,45
23,254,176730,1,0,0:0:0:0:
32,164,176917,6,0,L|36:119,1,45
117,81,177292,2,0,L|121:126,1,45
202,164,177667,2,0,L|206:119,1,45
289,85,178042,5,0,0:0:0:0:
377,110,178230,1,0,0:0:0:0:
466,88,178417,2,0,L|470:43,1,45
300,102,178792,5,0,0:0:0:0:
388,127,178980,1,0,0:0:0:0:
477,105,179167,2,0,L|481:60,1,45
311,119,179542,5,0,0:0:0:0:
399,144,179730,1,0,0:0:0:0:
488,122,179917,1,0,0:0:0:0:
488,122,181605,6,0,L|478:211,1,90
361,323,181980,1,0,0:0:0:0:
383,113,182167,2,0,L|203:131,1,180
0,152,182730,1,0,0:0:0:0:
161,224,182917,1,0,0:0:0:0:
42,58,183105,5,0,0:0:0:0:
59,234,183292,1,0,0:0:0:0:
143,48,183480,1,0,0:0:0:0:
161,224,183667,2,0,L|340:242,1,180
512,261,184230,1,0,0:0:0:0:
380,137,184417,1,0,0:0:0:0:
425,287,184605,5,0,0:0:0:0:
466,110,184792,1,0,0:0:0:0:
293,163,184980,1,0,0:0:0:0:
496,210,185167,1,0,0:0:0:0:
363,86,185354,5,0,0:0:0:0:
323,262,185542,1,0,0:0:0:0:
260,62,185730,1,0,0:0:0:0:
219,238,185917,1,0,0:0:0:0:
363,86,186105,5,0,0:0:0:0:
190,138,186292,1,0,0:0:0:0:
323,262,186480,1,0,0:0:0:0:
260,62,186667,1,0,0:0:0:0:
219,238,186855,5,0,0:0:0:0:
157,38,187042,1,0,0:0:0:0:
118,216,187230,1,0,0:0:0:0:
260,62,187417,1,0,0:0:0:0:
260,62,187511,1,0,0:0:0:0:
260,62,187605,5,0,0:0:0:0:
323,262,187792,1,0,0:0:0:0:
364,87,187980,1,0,0:0:0:0:
190,138,188167,2,0,L|150:313,1,180
294,162,188730,1,0,0:0:0:0:
253,337,188917,1,0,0:0:0:0:
378,207,189105,5,0,0:0:0:0:
205,258,189292,1,0,0:0:0:0:
336,383,189480,1,0,0:0:0:0:
294,162,189667,2,0,L|115:144,1,180
205,258,190230,1,0,0:0:0:0:
225,47,190417,1,0,0:0:0:0:
378,207,190605,5,0,0:0:0:0:
114,143,190792,1,0,0:0:0:0:
366,40,190980,1,0,0:0:0:0:
366,40,191167,5,0,0:0:0:0:
223,271,191355,1,0,0:0:0:0:
199,0,191542,1,0,0:0:0:0:
378,207,191730,1,0,0:0:0:0:
378,207,191917,1,0,0:0:0:0:
100,146,192105,5,0,0:0:0:0:
382,37,192292,1,0,0:0:0:0:
217,284,192480,1,0,0:0:0:0:
180,0,192667,1,0,0:0:0:0:
394,212,192855,1,0,0:0:0:0:
100,146,193042,5,0,0:0:0:0:
73,182,193135,1,0,0:0:0:0:
69,226,193229,1,0,0:0:0:0:
88,266,193323,1,0,0:0:0:0:
125,291,193417,1,0,0:0:0:0:
169,293,193510,1,0,0:0:0:0:
209,273,193605,6,0,L|219:184,1,90
344,11,193980,1,0,0:0:0:0:
319,255,194167,1,0,0:0:0:0:
443,82,194355,1,0,0:0:0:0:
219,183,194542,1,0,0:0:0:0:
430,204,194730,1,0,0:0:0:0:
232,61,194917,1,0,0:0:0:0:
319,255,195105,5,0,0:0:0:0:
443,82,195292,1,0,0:0:0:0:
419,327,195480,1,0,0:0:0:0:
332,133,195667,1,0,0:0:0:0:
332,133,196042,1,0,0:0:0:0:
419,327,196230,1,0,0:0:0:0:
443,82,196417,1,0,0:0:0:0:
319,255,196605,5,0,0:0:0:0:
232,61,196792,1,0,0:0:0:0:
208,306,196980,1,0,0:0:0:0:
332,133,197167,2,0,L|340:43,1,90
219,183,197542,5,0,0:0:0:0:
319,255,197730,1,0,0:0:0:0:
232,61,197917,2,0,L|142:52,1,90
108,234,198292,5,0,0:0:0:0:
332,133,198480,1,0,0:0:0:0:
208,306,198667,1,0,0:0:0:0:
119,111,198855,1,0,0:0:0:0:
319,255,199042,1,0,0:0:0:0:
108,234,199230,1,0,0:0:0:0:
332,133,199417,1,0,0:0:0:0:
332,133,199511,1,0,0:0:0:0:
332,133,199605,5,0,0:0:0:0:
208,306,199792,1,0,0:0:0:0:
431,204,199980,1,0,0:0:0:0:
219,183,200167,1,0,0:0:0:0:
420,327,200355,1,0,0:0:0:0:
332,133,200542,1,0,0:0:0:0:
307,378,200730,1,0,0:0:0:0:
431,204,200917,1,0,0:0:0:0:
208,306,201105,5,0,0:0:0:0:
332,133,201292,1,0,0:0:0:0:
420,327,201480,1,0,0:0:0:0:
219,183,201667,1,0,0:0:0:0:
219,183,202042,1,0,0:0:0:0:
420,327,202230,1,0,0:0:0:0:
332,133,202417,1,0,0:0:0:0:
208,306,202605,5,0,0:0:0:0:
431,204,202792,1,0,0:0:0:0:
219,183,202980,5,0,0:0:0:0:
420,327,203167,1,0,0:0:0:0:
196,311,203355,5,0,0:0:0:0:
442,198,203542,1,0,0:0:0:0:
208,175,203730,5,0,0:0:0:0:
430,334,203917,1,0,0:0:0:0:
185,316,204105,5,0,0:0:0:0:
453,193,204292,1,0,0:0:0:0:
198,168,204480,5,0,0:0:0:0:
440,341,204667,1,0,0:0:0:0:
174,321,204855,5,0,0:0:0:0:
463,188,205042,1,0,0:0:0:0:
483,147,205135,1,0,0:0:0:0:
481,103,205229,1,0,0:0:0:0:
459,64,205323,1,0,0:0:0:0:
421,40,205417,1,0,0:0:0:0:
377,37,205510,1,0,0:0:0:0:
336,55,205605,6,0,L|327:144,1,90
306,322,205980,1,0,0:0:0:0:
207,78,206167,2,0,L|198:167,1,90
177,345,206542,1,0,0:0:0:0:
68,190,206730,1,0,0:0:0:0:
252,245,206917,1,0,0:0:0:0:
35,304,207105,5,0,0:0:0:0:
102,77,207292,1,0,0:0:0:0:
177,345,207480,1,0,0:0:0:0:
244,118,207667,1,0,0:0:0:0:
244,118,208042,1,0,0:0:0:0:
177,345,208230,1,0,0:0:0:0:
102,77,208417,1,0,0:0:0:0:
324,203,208605,5,0,0:0:0:0:
68,190,208792,1,0,0:0:0:0:
265,88,208980,1,0,0:0:0:0:
126,304,209167,2,0,L|37:295,1,90
167,139,209542,5,0,0:0:0:0:
215,313,209730,1,0,0:0:0:0:
68,190,209917,2,0,P|54:151|61:104,1,90
262,110,210292,5,0,0:0:0:0:
215,313,210480,1,0,0:0:0:0:
167,139,210667,1,0,0:0:0:0:
310,284,210855,1,0,0:0:0:0:
356,80,211042,1,0,0:0:0:0:
334,42,211135,1,0,0:0:0:0:
297,17,211229,1,0,0:0:0:0:
253,11,211323,1,0,0:0:0:0:
210,25,211417,1,0,0:0:0:0:
179,56,211510,1,0,0:0:0:0:
164,98,211604,5,0,0:0:0:0:
390,188,211792,1,0,0:0:0:0:
166,232,211980,1,0,0:0:0:0:
356,80,212168,1,0,0:0:0:0:
279,276,212355,1,0,0:0:0:0:
242,35,212543,1,0,0:0:0:0:
166,232,212730,1,0,0:0:0:0:
356,80,212917,1,0,0:0:0:0:
393,321,213105,5,0,0:0:0:0:
261,156,213292,1,0,0:0:0:0:
185,353,213480,1,0,0:0:0:0:
390,188,213667,1,0,0:0:0:0:
390,188,214042,1,0,0:0:0:0:
185,353,214230,1,0,0:0:0:0:
261,156,214417,1,0,0:0:0:0:
393,321,214605,6,0,P|437:316|474:292,1,90
356,80,214980,1,0,0:0:0:0:
280,277,215167,1,0,0:0:0:0:
147,112,215355,1,0,0:0:0:0:
374,200,215542,1,0,0:0:0:0:
165,233,215730,2,0,L|76:246,1,90
259,66,216105,6,0,L|245:154,1,90
214,340,216480,1,0,0:0:0:0:
147,112,216667,1,0,0:0:0:0:
93,344,216855,1,0,0:0:0:0:
245,154,217042,1,0,0:0:0:0:
23,241,217230,5,0,0:0:0:0:
393,321,217417,1,0,0:0:0:0:
233,49,217605,5,0,0:0:0:0:
214,340,217792,1,0,0:0:0:0:
322,39,217980,5,0,0:0:0:0:
303,330,218167,1,0,0:0:0:0:
412,30,218355,5,0,0:0:0:0:
393,321,218542,1,0,0:0:0:0:
501,20,218730,5,0,0:0:0:0:
482,311,218917,1,0,0:0:0:0:
223,194,219105,1,0,0:0:0:0:
223,194,219480,5,0,0:0:0:0:
491,165,219667,1,0,0:0:0:0:
303,330,219855,1,0,0:0:0:0:
274,62,220042,1,0,0:0:0:0:
491,165,220230,1,0,0:0:0:0:
223,194,220417,1,0,0:0:0:0:
412,30,220605,5,0,0:0:0:0:
393,321,220792,1,0,0:0:0:0:
322,39,220980,5,0,0:0:0:0:
303,330,221167,1,0,0:0:0:0:
232,48,221355,5,0,0:0:0:0:
213,339,221542,1,0,0:0:0:0:
142,57,221730,5,0,0:0:0:0:
123,348,221917,1,0,0:0:0:0:
402,175,222105,1,0,0:0:0:0:
402,175,222480,5,0,0:0:0:0:
134,204,222667,1,0,0:0:0:0:
347,298,222855,1,0,0:0:0:0:
188,80,223042,1,0,0:0:0:0:
213,312,223230,1,0,0:0:0:0:
322,66,223417,1,0,0:0:0:0:
78,209,223605,5,0,0:0:0:0:
456,168,223792,1,0,0:0:0:0:
119,69,223980,5,0,0:0:0:0:
415,308,224167,1,0,0:0:0:0:
246,0,224355,5,0,0:0:0:0:
288,377,224542,1,0,0:0:0:0:
386,40,224730,5,0,0:0:0:0:
148,337,224917,1,0,0:0:0:0:
439,167,225105,5,0,0:0:0:0:
90,204,225292,1,0,0:0:0:0:
401,297,225480,1,0,0:0:0:0:
128,76,225667,1,0,0:0:0:0:
284,360,225855,1,0,0:0:0:0:
245,13,226042,1,0,0:0:0:0:
154,323,226230,1,0,0:0:0:0:
375,50,226417,1,0,0:0:0:0:
375,50,226511,1,0,0:0:0:0:
375,50,226605,5,0,0:0:0:0:
284,360,226980,1,0,0:0:0:0:
284,360,227730,1,0,0:0:0:0:
128,76,228105,5,0,0:0:0:0:
154,323,228480,1,0,0:0:0:0:
375,50,229042,5,0,0:0:0:0:
90,204,229605,5,0,0:0:0:0:
256,192,229698,12,0,235605,0:0:0:0:
