osu file format v14

[General]
AudioFilename: audio.mp3
AudioLeadIn: 0
PreviewTime: 167055
Countdown: 0
SampleSet: Soft
StackLeniency: 0.7
Mode: 0
LetterboxInBreaks: 0
WidescreenStoryboard: 1

[Editor]
DistanceSpacing: 2.4
BeatDivisor: 4
GridSize: 8
TimelineZoom: 1.1

[Metadata]
Title:Answer is near
TitleUnicode:アンサイズニア
Artist:ONE OK ROCK
ArtistUnicode:ONE OK ROCK
Creator:Nevo
Version:kudosu's Insane
Source:
Tags:mordred smokelind armin a_r_m_i_n soop so0p frostwich synderes Kuki1537 ook japanese rock smoke kudosu reform kujinn
BeatmapID:2356425
BeatmapSetID:1110954

[Difficulty]
HPDrainRate:5.5
CircleSize:4.1
OverallDifficulty:8
ApproachRate:9
SliderMultiplier:1.35
SliderTickRate:1

[Events]
//Background and Video events
0,0,"image0 (1).jpg",0,0
//Break Periods
2,23717,32787
2,116909,126322
//Storyboard Layer 0 (Background)
//Storyboard Layer 1 (Fail)
//Storyboard Layer 2 (Pass)
//Storyboard Layer 3 (Foreground)
//Storyboard Layer 4 (Overlay)
//Storyboard Sound Samples

[TimingPoints]
13305,319.148936170213,4,2,5,70,1,0
33411,-100,4,2,5,60,0,0
41948,-100,4,2,5,5,0,0
42028,-100,4,2,5,60,0,0
43943,-90.9090909090909,4,2,5,80,0,1
47693,-90.9090909090909,4,2,5,5,0,1
47773,-90.9090909090909,4,2,5,80,0,1
48331,-90.9090909090909,4,2,5,5,0,1
48411,-90.9090909090909,4,2,5,80,0,1
50246,-90.9090909090909,4,2,5,5,0,1
50326,-90.9090909090909,4,2,5,80,0,1
54156,-86.9565217391304,4,2,5,80,0,1
59262,-90.9090909090909,4,2,5,80,0,1
64368,-100,4,2,5,80,0,0
74581,-125,4,2,5,50,0,0
74741,-125,4,2,5,5,0,0
74820,-125,4,2,5,50,0,0
74980,-125,4,2,5,5,0,0
75060,-125,4,2,5,50,0,0
76656,-125,4,2,6,50,0,0
77134,-125,4,2,5,50,0,0
77294,-125,4,2,5,5,0,0
77373,-125,4,2,5,50,0,0
77533,-125,4,2,5,5,0,0
77613,-125,4,2,5,50,0,0
79209,-125,4,2,6,50,0,0
79687,-125,4,2,5,50,0,0
79847,-125,4,2,5,5,0,0
79926,-125,4,2,5,50,0,0
80086,-125,4,2,5,5,0,0
80166,-125,4,2,5,50,0,0
81762,-125,4,2,6,50,0,0
82241,-125,4,2,5,50,0,0
84315,-125,4,2,6,50,0,0
84794,-100,4,2,5,60,0,0
95007,-100,4,2,5,40,0,0
95964,-100,4,2,5,70,0,0
96004,-100,4,2,5,5,0,0
96283,-90.9090909090909,4,2,5,80,0,1
100033,-90.9090909090909,4,2,5,5,0,1
100113,-90.9090909090909,4,2,5,80,0,1
100672,-90.9090909090909,4,2,5,5,0,1
100751,-90.9090909090909,4,2,5,80,0,1
102586,-90.9090909090909,4,2,5,5,0,1
102666,-90.9090909090909,4,2,5,80,0,1
106496,-86.9565217391304,4,2,5,80,0,1
111602,-90.9090909090909,4,2,5,80,0,1
116283,-90.9090909090909,4,2,5,70,0,1
116496,-90.9090909090909,4,2,5,60,0,1
116709,-111.111111111111,4,2,5,50,0,0
132028,-111.111111111111,4,2,5,60,0,0
137134,-100,4,2,5,70,0,0
141363,-100,4,2,5,5,0,0
141443,-100,4,2,5,70,0,0
142959,-100,4,2,5,5,0,0
143039,-100,4,2,5,70,0,0
143916,-100,4,2,5,5,0,0
143996,-100,4,2,5,70,0,0
147347,-100,4,2,5,50,0,0
147985,-100,4,2,5,70,0,0
167134,319.148936170213,4,2,5,80,1,0
167134,-90.9090909090909,4,2,5,80,0,1
170884,-90.9090909090909,4,2,5,5,0,1
170963,-90.9090909090909,4,2,5,80,0,1
171522,-90.9090909090909,4,2,5,5,0,1
171602,-90.9090909090909,4,2,5,80,0,1
173437,-90.9090909090909,4,2,5,5,0,1
173516,-90.9090909090909,4,2,5,80,0,1
177346,-86.9565217391304,4,2,5,80,0,1
178543,-86.9565217391304,4,2,5,5,0,1
178623,-86.9565217391304,4,2,5,80,0,1
179181,-86.9565217391304,4,2,5,5,0,1
179261,-86.9565217391304,4,2,5,80,0,1
181096,-86.9565217391304,4,2,5,5,0,1
181176,-86.9565217391304,4,2,5,80,0,1
191389,-90.9090909090909,4,2,5,70,0,0
192665,-100,4,2,5,70,0,0
205431,-100,4,2,5,80,0,0
211814,-100,4,2,5,65,0,0
213091,-100,4,2,5,60,0,0
213729,-100,4,2,5,55,0,0
214368,-100,4,2,5,50,0,0
215006,-100,4,2,5,45,0,0
215644,-100,4,2,5,40,0,0
216282,-100,4,2,5,35,0,0
216921,-100,4,2,5,30,0,0
217559,-100,4,2,5,25,0,0
218197,-100,4,2,5,20,0,0
218836,-100,4,2,5,10,0,0
219474,-100,4,2,5,5,0,0

[Colours]
Combo1 : 255,94,94
Combo2 : 128,128,255
Combo3 : 255,153,51

[HitObjects]
307,338,13305,6,0,P|271:342|235:348,1,67.5,6|0,1:2|1:2,0:0:0:0:
408,272,13624,2,0,P|441:277|474:281,1,67.5,2|8,0:2|0:2,0:0:0:0:
306,134,13943,5,2,0:2:0:0:
308,229,14102,1,10,0:2:0:0:
389,179,14262,1,2,1:2:0:0:
211,136,14422,2,0,B|171:144|171:144|123:120|123:120|67:128,1,135,2|2,1:2|1:2,0:2:0:0:
109,209,14900,1,2,0:2:0:0:
186,67,15060,2,0,P|189:6|184:-11,1,67.5,10|0,0:2|1:2,0:2:0:0:
280,111,15379,2,0,P|313:105|346:101,1,67.5,2|8,1:2|0:2,0:0:0:0:
236,205,15698,1,6,1:2:0:0:
346,309,15858,6,0,P|313:305|280:299,1,67.5,2|2,1:2|1:2,0:0:0:0:
118,352,16177,2,0,P|151:347|184:341,1,67.5,2|8,0:2|0:2,0:0:0:0:
46,205,16496,5,2,0:2:0:0:
141,247,16656,1,10,0:2:0:0:
4,300,16815,1,2,1:2:0:0:
120,167,16975,2,0,P|129:100|77:43,1,135,2|10,1:2|0:2,0:2:0:0:
52,122,17453,1,2,0:2:0:0:
189,42,17613,2,0,P|221:35|268:29,1,67.5,10|0,0:2|1:2,0:0:0:0:
284,173,17932,2,0,P|275:140|279:107,1,67.5,2|8,1:2|0:2,0:0:0:0:
333,49,18251,1,6,1:2:0:0:
425,202,18411,6,0,P|391:195|358:191,1,67.5,2|2,1:2|1:2,0:0:0:0:
240,259,18730,2,0,P|273:252|306:248,1,67.5,2|8,0:2|0:2,0:2:0:0:
178,328,19049,5,2,0:2:0:0:
240,259,19209,1,10,0:2:0:0:
150,240,19368,1,2,1:2:0:0:
268,347,19528,2,0,B|298:338|332:327|332:327|361:358|405:349,1,135,2|2,1:2|1:2,0:2:0:0:
482,329,20007,1,2,0:2:0:0:
365,191,20166,2,0,P|369:225|375:258,1,67.5,10|0,0:2|1:2,0:0:0:0:
499,121,20485,2,0,P|465:125|432:131,1,67.5,2|8,1:2|0:2,0:0:0:0:
346,103,20805,1,6,1:2:0:0:
211,173,20964,6,0,P|244:168|277:162,1,67.5,2|2,1:2|1:2,0:0:0:0:
110,239,21283,2,0,P|77:234|44:230,1,67.5,2|8,0:2|0:2,0:2:0:0:
218,294,21603,5,2,0:2:0:0:
304,279,21762,1,10,0:2:0:0:
390,264,21922,1,2,1:2:0:0:
249,213,22081,2,0,P|228:137|270:76,1,135,2|10,1:2|0:2,0:2:0:0:
252,90,22560,1,2,0:2:0:0:
426,76,22719,5,0,1:2:0:0:
319,153,22879,1,8,0:3:0:0:
450,175,23039,1,10,0:3:0:0:
350,250,23198,5,4,0:3:0:0:
462,266,23358,1,4,0:3:0:0:
372,334,23517,1,4,1:2:0:0:
101,324,33411,5,8,0:2:0:0:
101,324,33730,6,0,P|69:318|29:312,1,67.5,0|0,1:2|0:0,0:2:0:0:
175,376,34049,2,0,P|206:370|246:364,1,67.5,8|2,0:2|0:2,0:0:0:0:
182,218,34368,2,0,P|178:267|189:300,1,67.5,2|2,1:2|0:2,0:2:0:0:
321,304,34687,1,10,0:2:0:0:
256,249,34847,1,2,0:2:0:0:
376,239,35007,6,0,P|401:168|380:103,1,135,2|8,0:2|0:2,0:2:0:0:
327,0,35485,2,0,P|321:31|313:86,1,67.5,2|0,0:2|1:2,0:2:0:0:
213,144,35805,2,0,P|181:138|126:130,1,67.5,0|8,1:2|0:2,0:2:0:0:
256,249,36124,1,2,0:2:0:0:
192,68,36283,6,0,P|188:13|198:-7,1,67.5,0|0,1:0|1:2,0:0:0:0:
386,47,36602,2,0,P|390:102|380:122,1,67.5,10|0,0:2|0:2,0:0:0:0:
322,260,36922,2,0,P|290:254|250:248,1,67.5,2|0,1:2|0:0,0:0:0:0:
396,312,37241,1,8,0:2:0:0:
404,221,37400,1,2,0:2:0:0:
270,334,37560,6,0,P|199:359|134:338,1,135,2|10,0:2|0:2,0:2:0:0:
103,250,38039,1,0,0:2:0:0:
16,353,38198,2,0,P|30:288|5:226,1,135,2|10,1:2|0:2,0:2:0:0:
74,154,38677,1,0,0:2:0:0:
237,164,38836,6,0,P|199:171|157:176,1,67.5,2|0,1:2|1:2,0:0:0:0:
304,239,39156,2,0,P|341:246|383:251,1,67.5,10|0,0:2|0:2,0:2:0:0:
217,326,39475,2,0,P|210:292|205:259,1,67.5,2|2,1:2|0:2,0:0:0:0:
336,144,39794,1,8,0:2:0:0:
304,239,39953,1,2,0:2:0:0:
266,86,40113,6,0,B|236:77|202:66|202:66|173:97|129:88,1,135,2|10,0:2|0:2,0:2:0:0:
45,28,40592,2,0,P|30:103|63:175,1,135,2|2,0:2|1:2,0:2:0:0:
48,338,41070,1,8,0:2:0:0:
118,247,41230,1,2,1:2:0:0:
231,334,41390,6,0,P|263:327|310:321,1,67.5,0|0,1:2|1:2,0:0:0:0:
449,238,41709,2,0,P|395:236|352:278,1,101.25,10|0,0:2|0:0,0:2:0:0:
277,238,42028,2,0,P|270:205|278:172,1,67.5,2|0,0:2|0:2,0:2:0:0:
365,54,42347,1,10,0:2:0:0:
274,82,42507,1,2,0:2:0:0:
277,172,43624,5,8,0:2:0:0:
277,172,43943,5,6,1:2:0:0:
151,249,44102,2,0,P|110:257|56:233,1,74.2500022659302,2|8,0:2|0:2,0:2:0:0:
281,320,44422,1,2,0:2:0:0:
185,162,44581,2,0,P|191:125|198:75,1,74.2500022659302,2|0,1:2|0:2,0:2:0:0:
408,176,44900,2,0,P|341:203|276:171,1,148.50000453186,8|0,0:2|1:2,0:2:0:0:
344,110,45379,1,2,0:2:0:0:
442,257,45539,5,10,0:2:0:0:
348,319,45698,1,2,0:2:0:0:
408,176,45858,1,2,1:2:0:0:
312,245,46017,1,2,0:2:0:0:
449,370,46177,1,10,0:2:0:0:
266,314,46336,1,2,0:2:0:0:
140,382,46496,5,2,1:2:0:0:
144,238,46656,2,0,P|137:195|127:135,1,74.2500022659302,2|8,0:2|0:2,0:2:0:0:
70,308,46975,1,2,0:2:0:0:
210,195,47134,2,0,P|222:237|212:277,1,74.2500022659302,2|0,1:2|0:2,0:2:0:0:
65,207,47453,6,0,P|53:165|63:125,1,74.2500022659302,10|0,0:2|0:0,0:2:0:0:
132,13,47773,2,0,P|124:51|116:107,1,74.2500022659302,0|0,1:2|0:2,0:2:0:0:
283,182,48092,2,0,P|246:189|209:195,1,74.2500022659302,10|0,0:2|0:0,0:2:0:0:
350,100,48411,2,0,P|386:106|423:112,1,74.2500022659302,0|0,1:2|0:2,0:2:0:0:
394,294,48730,2,0,P|357:287|320:281,1,74.2500022659302,8|0,0:2|0:0,0:2:0:0:
235,93,49049,5,4,1:1:0:0:
235,93,49368,6,0,P|228:56|222:19,1,74.2500022659302,10|0,0:2|0:2,0:2:0:0:
350,100,49687,2,0,P|356:64|362:27,1,74.2500022659302,2|0,1:2|0:2,0:2:0:0:
287,197,50007,2,0,P|267:238|288:317,1,111.375003398895,10|0,0:2|0:0,0:2:0:0:
252,384,50326,2,0,P|289:377|338:370,1,74.2500022659302,2|0,1:2|0:2,0:2:0:0:
185,290,50645,2,0,P|147:283|98:276,1,74.2500022659302,10|0,0:2|0:2,0:2:0:0:
34,175,50964,2,0,P|39:138|45:101,1,74.2500022659302,2|0,1:2|0:2,0:2:0:0:
159,215,51283,1,10,0:2:0:0:
144,115,51443,1,2,0:2:0:0:
259,200,51602,5,2,1:2:0:0:
222,295,51762,1,2,0:2:0:0:
244,100,51922,2,0,P|280:93|330:86,1,74.2500022659302,8|0,0:2|0:2,0:2:0:0:
317,87,52161,1,8,0:2:0:0:
317,87,52241,1,0,1:2:0:0:
438,72,52400,1,8,0:2:0:0:
395,256,52560,2,0,P|386:205|396:167,1,74.2500022659302,10|2,1:2|0:2,0:0:0:0:
389,183,52799,1,8,0:2:0:0:
389,183,52879,5,10,0:2:0:0:
488,339,53039,1,10,0:2:0:0:
460,326,53118,1,8,0:2:0:0:
429,323,53198,1,0,0:0:0:0:
400,334,53278,1,8,0:2:0:0:
373,349,53358,1,10,0:2:0:0:
343,355,53437,1,8,0:2:0:0:
313,348,53518,5,10,0:3:0:0:
313,330,53597,1,8,0:3:0:0:
318,313,53677,1,6,0:3:0:0:
328,299,53757,1,4,0:3:0:0:
342,289,53837,1,10,0:2:0:0:
206,336,53996,1,2,1:2:0:0:
295,153,54156,5,14,0:2:0:0:
159,200,54315,2,0,P|117:194|64:184,1,77.6250014805794,2|0,1:2|0:2,0:2:0:0:
251,245,54634,1,10,0:2:0:0:
203,108,54794,2,0,P|196:48|209:22,1,77.6250014805794,2|0,1:2|1:2,0:2:0:0:
364,115,55113,2,0,P|371:175|358:201,1,77.6250014805794,8|0,0:2|1:2,0:2:0:0:
462,338,55432,2,0,P|466:299|473:261,1,77.6250014805794,8|2,0:2|1:2,0:2:0:0:
281,340,55751,5,2,0:2:0:0:
365,189,55911,1,10,0:2:0:0:
251,245,56070,1,2,1:2:0:0:
398,287,56230,1,2,1:2:0:0:
280,160,56390,2,0,P|275:121|268:83,1,77.6250014805794,10|0,0:2|1:2,0:0:0:0:
222,330,56709,5,10,0:2:0:0:
85,249,56868,2,0,P|120:255|164:261,1,77.6250014805794,2|0,1:2|0:2,0:2:0:0:
139,147,57187,1,10,0:2:0:0:
76,326,57347,2,0,P|40:332|-3:338,1,77.6250014805794,2|0,1:2|0:2,0:2:0:0:
24,152,57666,2,0,P|29:113|21:75,1,77.6250014805794,14|0,0:2|0:0,0:2:0:0:
139,147,57985,5,10,0:2:0:0:
165,159,58065,1,8,0:2:0:0:
193,161,58144,1,8,0:2:0:0:
221,151,58224,1,8,0:2:0:0:
241,132,58305,2,0,L|248:94,3,38.8125007402897,10|8|8|8,0:3|0:3|0:3|0:3,0:2:0:0:
350,187,58624,2,0,L|343:148,3,38.8125007402897,6|4|4|4,0:3|0:3|0:3|0:3,0:0:0:0:
214,319,58943,5,10,0:2:0:0:
268,214,59102,1,2,1:2:0:0:
344,381,59262,5,12,0:2:0:0:
484,277,59422,2,0,B|457:251|421:247|421:247|379:291|323:278,1,148.50000453186,0|0,1:2|1:2,0:0:0:0:
353,280,59900,1,0,0:0:0:0:
254,174,60060,2,0,L|243:237,1,37.1250011329651,0|0,1:2|1:0,0:0:0:0:
329,83,60219,5,8,0:2:0:0:
187,73,60379,2,0,B|232:66|232:66|280:90|280:90|328:82,1,148.50000453186,0|0,1:2|1:2,0:0:0:0:
293,1,60858,1,0,0:0:0:0:
219,156,61017,2,0,L|230:227,1,37.1250011329651,0|0,1:2|1:2,0:0:0:0:
353,280,61177,5,8,0:2:0:0:
209,347,61336,1,8,0:2:0:0:
309,203,61496,1,8,0:2:0:0:
298,350,61656,1,2,1:2:0:0:
169,262,61815,5,14,0:2:0:0:
42,350,61975,2,0,P|78:344|115:339,1,74.2500022659302,0|0,1:2|0:0,0:0:0:0:
169,262,62294,2,0,P|162:225|157:188,1,74.2500022659302,0|2,1:2|0:2,0:0:0:0:
236,92,62613,2,0,L|227:147,1,37.1250011329651,0|0,1:2|1:0,0:0:0:0:
127,0,62773,1,10,0:2:0:0:
142,94,62932,1,0,1:2:0:0:
458,111,63730,6,0,P|403:99|335:121,2,111.375003398895,10|8|8,0:2|0:2|0:2,0:0:0:0:
323,190,64368,6,0,P|286:182|243:177,1,67.5,6|0,1:2|1:0,0:0:0:0:
247,49,64687,2,0,P|283:41|326:36,1,67.5,0|8,0:0|0:0,0:0:0:0:
99,102,65007,5,0,0:0:0:0:
188,118,65166,1,8,0:0:0:0:
157,32,65326,1,6,1:2:0:0:
83,191,65485,2,0,P|65:269|105:340,1,135,0|0,1:0|1:0,0:0:0:0:
143,254,65964,1,0,0:0:0:0:
207,364,66124,2,0,P|174:370|112:379,1,67.5,8|0,0:0|1:0,0:0:0:0:
243,275,66443,2,0,P|275:281|337:290,1,67.5,0|8,1:0|0:0,0:0:0:0:
411,305,66762,1,0,1:0:0:0:
322,161,66922,6,0,P|288:166|255:172,1,67.5,6|0,1:2|1:0,0:0:0:0:
374,85,67241,2,0,P|374:36|358:12,1,67.5,0|8,0:0|0:0,0:0:0:0:
136,88,67560,5,0,0:0:0:0:
218,75,67719,1,8,0:0:0:0:
300,62,67879,1,0,1:0:0:0:
188,152,68039,2,0,P|119:172|58:139,1,135,0|8,1:0|0:0,0:0:0:0:
49,54,68517,1,0,0:0:0:0:
103,215,68677,2,0,P|98:251|87:309,1,67.5,8|0,0:0|1:0,0:0:0:0:
200,257,68996,2,0,P|204:290|210:324,1,67.5,0|8,1:0|0:0,0:0:0:0:
188,152,69315,1,0,1:0:0:0:
339,308,69475,6,0,P|345:275|340:242,1,67.5,6|0,1:2|1:0,0:0:0:0:
298,73,69794,2,0,P|292:106|297:139,1,67.5,0|8,0:0|0:0,0:0:0:0:
495,220,70113,5,0,0:0:0:0:
339,241,70273,1,8,0:0:0:0:
406,153,70432,1,0,1:0:0:0:
454,311,70592,2,0,P|388:323|320:332,1,135,0|0,1:0|1:0,0:0:0:0:
252,267,71070,1,0,0:0:0:0:
122,343,71230,2,0,P|156:339|189:333,1,67.5,8|0,0:0|1:0,0:0:0:0:
49,210,71549,2,0,P|52:243|58:276,1,67.5,0|8,1:0|0:0,0:0:0:0:
164,235,71868,1,0,1:0:0:0:
88,127,72028,6,0,P|121:120|154:115,1,67.5,2|0,1:2|1:0,0:0:0:0:
327,174,72347,2,0,P|293:167|260:162,1,67.5,0|8,0:0|0:0,0:0:0:0:
421,106,72666,5,0,0:0:0:0:
340,93,72825,1,8,0:0:0:0:
391,29,72985,1,0,1:0:0:0:
408,187,73145,2,0,B|413:227|413:227|389:275|389:275|397:315,1,135,0|8,1:0|0:0,0:0:0:0:
488,188,73624,1,8,0:0:0:0:
332,213,73783,5,0,1:0:0:0:
466,285,73943,1,0,1:0:0:0:
317,313,74102,1,8,0:0:0:0:
408,187,74262,1,8,0:0:0:0:
458,360,74422,1,0,1:0:0:0:
237,250,74581,6,0,P|195:255|150:263,2,81,4|0|0,1:1|1:2|1:2,0:2:0:0:
237,250,75219,1,8,0:2:0:0:
237,250,76336,1,0,1:2:0:0:
354,179,76496,6,0,P|387:183|425:190,1,54,8|2,0:2|1:3,0:0:0:0:
235,114,77134,6,0,P|193:119|148:127,2,81,2|0|0,1:2|1:2|1:2,0:2:0:0:
235,114,77772,1,8,0:2:0:0:
235,114,78889,1,0,1:2:0:0:
352,43,79049,6,0,P|385:47|423:54,1,54,8|2,0:2|0:3,0:0:0:0:
407,186,79687,6,0,P|398:231|412:283,2,81,0|0|0,1:2|1:2|1:2,0:2:0:0:
489,229,80326,1,10,0:2:0:0:
489,229,81443,1,0,1:2:0:0:
358,286,81602,6,0,P|325:282|287:275,1,54,8|2,0:2|1:3,0:0:0:0:
186,332,82241,6,0,P|146:337|106:328,2,81,2|0|0,1:2|1:2|1:2,0:0:0:0:
151,258,82879,2,0,P|145:219|154:179,2,81,8|0|0,0:2|1:2|1:2,0:0:0:0:
225,225,83517,2,0,P|265:219|305:228,2,81,2|0|2,1:2|1:2|1:2,0:0:0:0:
151,258,84156,2,0,P|117:253|79:246,1,54,0|2,0:0|0:3,0:0:0:0:
114,93,84794,6,0,P|80:89|19:77,1,67.5,4|0,1:1|1:2,0:0:0:0:
192,151,85113,2,0,P|225:147|286:135,1,67.5,10|0,0:2|0:2,0:0:0:0:
103,190,85432,1,2,1:2:0:0:
191,66,85592,1,2,0:2:0:0:
325,216,85751,2,0,P|291:221|257:219,1,67.5,10|0,0:2|0:2,0:2:0:0:
399,148,86070,6,0,P|425:210|404:279,1,135,2|10,0:2|0:2,0:2:0:0:
268,299,86549,1,10,0:3:0:0:
268,299,86629,1,8,0:3:0:0:
268,299,86709,1,8,0:3:0:0:
325,216,86868,1,2,0:2:0:0:
351,356,87028,1,8,0:2:0:0:
408,273,87187,1,2,0:2:0:0:
275,379,87347,6,0,P|240:372|188:365,1,67.5,0|0,1:0|1:2,0:0:0:0:
26,311,87666,2,0,P|59:306|92:299,1,67.5,8|0,0:2|0:3,0:2:0:0:
92,299,87906,1,8,0:3:0:0:
92,299,87985,1,8,0:3:0:0:
213,288,88145,1,2,1:2:0:0:
108,140,88305,1,10,0:2:0:0:
100,228,88464,1,2,0:2:0:0:
196,149,88624,6,0,B|228:137|251:131|251:131|280:153|324:149,1,135,2|10,1:2|0:2,0:2:0:0:
422,37,89102,1,8,0:3:0:0:
422,37,89182,1,8,0:3:0:0:
422,37,89262,2,0,P|356:35|302:75,1,135,10|10,0:3|0:2,0:2:0:0:
467,104,89741,1,0,0:2:0:0:
452,235,89900,6,0,P|456:268|461:301,1,67.5,0|0,1:2|1:2,0:0:0:0:
369,171,90219,1,10,0:2:0:0:
347,295,90379,1,2,0:2:0:0:
229,210,90539,2,0,P|262:215|295:221,1,67.5,2|0,1:2|0:2,0:0:0:0:
146,146,90858,2,0,P|113:151|80:157,1,67.5,10|2,0:2|0:2,0:0:0:0:
133,299,91177,6,0,P|163:234|162:220,1,67.5,2|0,1:2|0:0,0:0:0:0:
61,324,91496,1,10,0:2:0:0:
149,384,91656,1,8,0:3:0:0:
149,384,91735,1,10,0:3:0:0:
149,384,91815,1,8,0:3:0:0:
234,298,91975,1,2,2:0:0:0:
344,383,92134,2,0,L|261:376,1,67.5,8|0,0:0|0:0,0:0:0:0:
382,308,92453,6,0,P|413:304|451:319,1,67.5,0|0,1:2|1:2,0:0:0:0:
298,290,92773,2,0,P|266:301|233:297,1,67.5,10|0,0:2|0:2,0:2:0:0:
357,221,93092,2,0,P|363:188|369:141,1,67.5,2|0,0:2|0:2,0:2:0:0:
232,133,93411,1,10,0:2:0:0:
304,63,93570,1,2,0:2:0:0:
162,61,93730,5,0,1:2:0:0:
42,28,94049,1,0,1:2:0:0:
9,148,94368,1,0,1:2:0:0:
129,181,94687,1,0,1:2:0:0:
295,202,95007,5,0,0:2:0:0:
261,168,95326,1,0,0:2:0:0:
249,215,95645,1,0,0:2:0:0:
480,30,95964,5,8,0:2:0:0:
480,30,96283,5,6,1:2:0:0:
377,110,96443,2,0,P|339:120|283:92,1,74.2500022659302,2|8,0:2|0:2,0:2:0:0:
497,159,96762,1,2,0:2:0:0:
407,312,96922,2,0,P|401:274|391:217,1,74.2500022659302,2|0,1:2|0:2,0:2:0:0:
305,111,97241,2,0,P|259:188|294:256,1,148.50000453186,8|0,0:2|1:2,0:2:0:0:
338,186,97719,1,2,0:2:0:0:
217,100,97879,5,10,0:2:0:0:
381,125,98039,1,2,0:2:0:0:
224,176,98198,1,2,1:2:0:0:
143,93,98358,1,2,0:2:0:0:
69,218,98517,1,10,0:2:0:0:
50,122,98677,1,0,0:2:0:0:
162,256,98836,5,2,1:2:0:0:
297,164,98996,2,0,P|260:170|223:175,1,74.2500022659302,2|8,0:2|0:2,0:2:0:0:
262,268,99315,1,2,0:2:0:0:
369,114,99475,2,0,P|375:151|381:188,1,74.2500022659302,0|0,1:2|0:2,0:2:0:0:
378,384,99794,6,0,P|369:340|381:311,1,74.2500022659302,10|0,0:2|0:0,0:2:0:0:
262,268,100113,2,0,P|223:275|186:281,1,74.2500022659302,0|0,1:2|0:2,0:2:0:0:
380,187,100432,2,0,P|417:193|454:199,1,74.2500022659302,10|0,0:2|0:0,0:2:0:0:
285,90,100751,2,0,P|291:127|297:164,1,74.2500022659302,0|0,1:2|0:2,0:2:0:0:
440,45,101070,2,0,P|434:82|428:119,1,74.2500022659302,10|0,0:2|0:0,0:2:0:0:
478,278,101390,5,4,1:1:0:0:
478,278,101709,6,0,P|482:240|491:191,1,74.2500022659302,10|0,0:2|0:2,0:2:0:0:
372,297,102028,2,0,P|325:281|273:288,1,74.2500022659302,2|0,1:2|0:2,0:2:0:0:
188,376,102347,2,0,P|208:335|187:256,1,111.375003398895,10|0,0:2|0:0,0:2:0:0:
220,188,102666,2,0,P|183:195|134:202,1,74.2500022659302,2|0,1:2|0:2,0:2:0:0:
287,41,102985,2,0,P|294:78|301:127,1,74.2500022659302,10|0,0:2|0:2,0:2:0:0:
323,219,103305,2,0,P|359:213|396:206,1,74.2500022659302,2|0,1:2|0:2,0:2:0:0:
223,112,103624,2,0,P|169:119|113:129,1,111.375003398895,10|0,1:2|0:0,0:0:0:0:
68,194,103943,5,2,1:2:0:0:
34,124,104102,1,2,0:2:0:0:
182,215,104262,2,0,P|218:209|255:202,1,74.2500022659302,10|0,0:2|0:2,0:2:0:0:
255,201,104501,1,8,0:2:0:0:
255,201,104581,1,0,1:2:0:0:
330,123,104741,1,10,0:2:0:0:
366,299,104900,2,0,P|357:248|367:210,1,74.2500022659302,2|2,1:2|0:2,0:0:0:0:
360,226,105139,1,8,0:2:0:0:
360,226,105219,5,2,1:2:0:0:
428,356,105379,1,10,0:2:0:0:
405,374,105458,1,8,0:2:0:0:
377,384,105538,1,8,0:0:0:0:
348,384,105618,1,8,0:2:0:0:
320,373,105698,1,8,0:2:0:0:
298,354,105777,1,8,0:2:0:0:
291,324,105858,5,10,0:3:0:0:
308,319,105937,1,8,0:3:0:0:
327,319,106017,1,4,0:3:0:0:
344,325,106097,1,4,0:3:0:0:
360,335,106177,1,10,0:2:0:0:
225,384,106336,1,2,1:2:0:0:
275,235,106496,5,14,0:2:0:0:
121,267,106656,2,0,P|84:262|41:255,1,77.6250014805794,2|0,1:2|0:2,0:2:0:0:
206,295,106975,1,10,0:2:0:0:
172,152,107134,2,0,P|159:107|177:60,1,77.6250014805794,0|0,1:2|1:2,0:2:0:0:
275,235,107453,2,0,P|313:240|351:246,1,77.6250014805794,8|0,0:2|1:2,0:2:0:0:
481,105,107773,2,0,P|425:105|398:119,1,77.6250014805794,8|2,0:2|1:2,0:2:0:0:
351,246,108092,5,2,0:2:0:0:
329,83,108251,1,10,0:2:0:0:
452,174,108411,1,2,1:2:0:0:
253,174,108570,1,2,1:2:0:0:
443,265,108730,2,0,P|455:301|451:339,1,77.6250014805794,10|0,0:2|1:2,0:0:0:0:
353,162,109049,5,10,0:2:0:0:
224,302,109209,2,0,P|262:307|300:313,1,77.6250014805794,2|0,1:2|0:2,0:2:0:0:
145,214,109528,1,10,0:2:0:0:
63,365,109687,2,0,P|64:323|52:284,1,77.6250014805794,2|0,1:2|1:2,0:2:0:0:
133,137,110007,2,0,P|138:175|144:213,1,77.6250014805794,14|0,0:2|0:0,0:2:0:0:
66,84,110326,5,8,0:2:0:0:
87,64,110405,1,8,0:2:0:0:
113,52,110485,1,8,0:2:0:0:
142,51,110565,1,8,0:2:0:0:
170,59,110645,2,0,L|177:11,3,38.8125007402897,10|8|8|8,0:3|0:3|0:3|0:3,0:2:0:0:
211,174,110964,2,0,L|217:212,3,38.8125007402897,6|4|4|4,0:3|0:3|0:3|0:3,0:0:0:0:
290,80,111283,5,10,0:2:0:0:
384,159,111443,1,2,1:2:0:0:
406,39,111602,5,14,0:2:0:0:
309,192,111762,2,0,P|386:238|454:203,1,148.50000453186,0|0,1:2|1:2,0:0:0:0:
436,220,112241,1,0,0:0:0:0:
456,335,112400,2,0,L|450:371,1,37.1250011329651,0|0,1:2|1:0,0:0:0:0:
368,278,112560,5,8,0:2:0:0:
236,275,112719,2,0,B|269:256|299:245|299:245|332:285|397:276,1,148.50000453186,0|0,1:2|1:2,0:0:0:0:
288,336,113198,1,0,0:0:0:0:
367,160,113358,2,0,L|362:197,1,37.1250011329651,0|0,1:2|1:2,0:0:0:0:
241,191,113517,5,8,0:2:0:0:
288,336,113677,1,8,0:2:0:0:
138,304,113836,1,8,0:2:0:0:
222,277,113996,1,0,1:2:0:0:
79,370,114156,5,12,0:2:0:0:
0,236,114315,2,0,P|36:239|73:244,1,74.2500022659302,0|0,1:2|0:0,0:0:0:0:
152,207,114634,2,0,P|156:170|159:133,1,74.2500022659302,0|2,1:2|0:0,0:0:0:0:
175,23,114953,2,0,L|169:59,1,37.1250011329651,0|0,1:2|1:2,0:0:0:0:
241,191,115113,1,8,0:2:0:0:
250,90,115273,1,0,1:2:0:0:
449,197,116070,6,0,P|395:211|341:199,2,99.0000030212403,8|8|4,0:2|0:3|0:3,0:0:0:0:
343,307,116709,5,4,1:1:0:0:
170,43,126922,5,2,1:2:0:0:
146,46,127241,1,0,1:2:0:0:
122,49,127560,1,0,1:2:0:0:
98,52,127879,1,0,1:2:0:0:
207,118,128198,5,2,1:2:0:0:
235,121,128517,1,0,1:2:0:0:
264,125,128836,1,0,1:2:0:0:
293,128,129155,1,0,1:2:0:0:
162,208,129475,5,2,1:2:0:0:
127,212,129794,1,0,1:2:0:0:
92,216,130113,1,0,1:2:0:0:
58,220,130432,1,0,1:2:0:0:
214,317,130751,5,2,1:2:0:0:
256,321,131070,1,0,1:2:0:0:
298,326,131389,1,0,1:2:0:0:
338,331,131708,1,0,1:2:0:0:
400,201,132028,6,0,P|405:168|412:121,2,60.7499981460572,2|0|0,1:2|0:0|1:2,0:0:0:0:
320,161,132507,2,0,P|250:143|195:164,1,121.499996292114
252,231,132985,2,0,L|242:290,1,60.7499981460572
79,133,133305,6,0,P|74:100|67:53,2,60.7499981460572,2|0|0,1:2|0:0|1:2,0:0:0:0:
159,80,133784,2,0,P|217:65|274:83,2,121.499996292114
223,157,134581,6,0,P|219:187|214:217,1,60.7499981460572,2|0,1:2|0:0,0:0:0:0:
243,303,134900,1,0,1:2:0:0:
32,291,135060,2,0,P|84:248|152:266,1,121.499996292114
177,357,135539,1,0,1:2:0:0:
102,326,135698,1,0,0:0:0:0:
246,253,135858,6,0,P|276:248|306:243,1,60.7499981460572,2|0,1:2|0:0,0:0:0:0:
363,309,136177,2,0,P|393:314|422:319,1,60.7499981460572,0|0,1:2|0:0,0:0:0:0:
372,190,136496,5,0,1:2:0:0:
246,253,136656,1,8,0:2:0:0:
363,309,136815,1,0,1:2:0:0:
243,146,136975,1,8,0:2:0:0:
133,245,137134,6,0,P|90:252|64:244,2,67.5,6|2|2,1:2|1:2|0:2,0:0:0:0:
124,61,137613,2,0,P|118:95|111:140,1,67.5,10|0,0:2|0:2,0:2:0:0:
279,65,137932,2,0,P|245:59|212:54,1,67.5,10|0,0:2|1:2,0:0:0:0:
333,138,138251,2,0,P|367:132|400:127,1,67.5,2|0,1:2|0:2,0:2:0:0:
296,220,138570,5,2,1:2:0:0:
243,146,138730,1,0,0:2:0:0:
379,259,138890,2,0,P|413:253|446:248,1,67.5,10|0,0:2|1:2,0:0:0:0:
289,318,139209,1,0,1:2:0:0:
451,381,139368,2,0,P|417:375|384:370,1,67.5,8|0,0:2|1:2,0:0:0:0:
288,316,139687,6,0,P|257:305|224:309,2,67.5,6|2|2,1:2|1:2|0:2,0:0:0:0:
134,235,140166,2,0,P|102:246|69:242,1,67.5,10|0,0:2|0:2,0:2:0:0:
244,137,140485,2,0,P|240:170|234:203,1,67.5,10|0,0:2|1:2,0:0:0:0:
148,136,140805,2,0,P|141:102|137:69,1,67.5,2|0,1:2|1:2,0:0:0:0:
233,203,141124,6,0,P|274:223|349:203,1,101.25,10|0,0:2|0:0,0:2:0:0:
409,235,141443,2,0,P|402:198|395:149,1,67.5,10|0,0:2|1:2,0:0:0:0:
358,292,141762,1,2,1:2:0:0:
333,72,141922,2,0,P|327:105|321:138,1,67.5,10|0,0:2|1:2,0:0:0:0:
196,270,142241,5,6,1:2:0:0:
277,281,142400,1,2,1:2:0:0:
358,292,142560,1,2,1:2:0:0:
226,345,142719,2,0,P|175:350|129:316,1,101.25,10|0,0:2|0:0,0:2:0:0:
75,358,143039,1,8,0:2:0:0:
59,209,143198,6,0,P|52:172|45:123,2,67.5,2|2|2,1:2|1:2|1:2,0:0:0:0:
89,75,143677,2,0,P|132:63|192:81,1,101.25,2|0,1:2|0:0,0:2:0:0:
227,143,143996,1,8,0:2:0:0:
363,10,144156,5,2,1:2:0:0:
276,37,144315,1,2,1:2:0:0:
389,91,144475,1,10,0:2:0:0:
319,183,144634,2,0,P|313:149|307:116,2,67.5,2|0|0,1:2|1:2|1:0,0:0:0:0:
432,274,145113,1,2,2:0:0:0:
297,327,145273,2,0,P|263:323|232:336,1,67.5,10|0,0:2|0:0,0:2:0:0:
134,221,145592,2,0,P|140:254|145:287,1,67.5,10|0,0:2|1:2,0:0:0:0:
12,286,145911,2,0,P|17:252|23:219,1,67.5,0|0,1:2|0:2,0:0:0:0:
69,57,146230,2,0,P|75:90|80:123,1,67.5,10|0,0:2|0:0,0:2:0:0:
170,5,146549,5,10,0:2:0:0:
267,99,146709,2,0,P|233:104|200:110,1,67.5,0|0,1:2|1:2,0:0:0:0:
343,0,147028,2,0,P|349:33|354:66,1,67.5,8|0,0:2|1:2,0:0:0:0:
286,264,147347,5,0,1:2:0:0:
257,188,147507,1,0,1:2:0:0:
333,158,147666,1,0,1:2:0:0:
362,234,147826,1,0,1:2:0:0:
181,218,147985,6,0,P|146:212|86:202,1,67.5,14|2,0:2|1:2,0:0:0:0:
5,192,148305,1,2,1:2:0:0:
193,137,148464,2,0,P|143:110|58:125,1,135,2|2,1:2|1:2,0:2:0:0:
67,119,148863,1,0,1:2:0:0:
67,119,148943,1,8,0:2:0:0:
151,38,149102,2,0,P|184:31|217:27,1,67.5,2|0,1:2|0:2,0:2:0:0:
338,111,149422,6,0,P|304:104|271:100,1,67.5,2|2,1:2|0:2,0:2:0:0:
429,40,149741,1,2,1:2:0:0:
429,40,149820,1,0,1:2:0:0:
429,40,149900,1,8,0:2:0:0:
308,16,150060,1,2,1:2:0:0:
435,131,150219,2,0,P|430:164|424:197,1,67.5,2|0,0:2|1:2,0:0:0:0:
424,197,150459,1,0,1:2:0:0:
424,197,150539,5,10,0:2:0:0:
338,111,150698,1,2,1:2:0:0:
438,121,150858,1,2,1:2:0:0:
325,184,151017,2,0,P|291:189|258:194,1,67.5,2|0,1:2|0:0,0:2:0:0:
152,201,151336,1,2,1:2:0:0:
152,201,151416,1,0,1:2:0:0:
152,201,151496,5,8,0:2:0:0:
220,330,151656,2,0,P|214:295|209:263,1,67.5,2|0,1:2|0:2,0:0:0:0:
20,325,151975,2,0,P|89:338|137:296,1,135,2|2,1:2|1:2,0:2:0:0:
136,299,152374,1,0,1:2:0:0:
136,299,152453,5,8,0:2:0:0:
21,240,152613,1,2,1:2:0:0:
163,134,152773,2,0,P|157:167|151:200,1,67.5,10|0,0:2|1:2,0:0:0:0:
151,200,153012,1,0,1:2:0:0:
151,200,153092,5,10,0:2:0:0:
31,136,153251,1,0,1:2:0:0:
183,48,153411,2,0,P|149:53|116:59,1,67.5,10|0,0:2|1:2,0:0:0:0:
259,111,153730,2,0,P|292:116|325:122,1,67.5,10|0,0:2|1:2,0:0:0:0:
325,122,153969,1,0,1:2:0:0:
324,121,154049,5,10,0:2:0:0:
477,144,154209,1,0,1:2:0:0:
400,17,154368,2,0,P|394:49|389:83,1,67.5,10|0,0:2|1:2,0:0:0:0:
413,244,154687,2,0,P|406:195|401:161,1,67.5,10|0,0:2|1:2,0:0:0:0:
404,177,154927,1,0,1:2:0:0:
404,177,155007,5,10,0:2:0:0:
323,257,155166,1,0,1:2:0:0:
471,319,155326,1,10,0:2:0:0:
413,244,155485,1,0,1:2:0:0:
233,270,155645,6,0,P|199:275|166:281,1,67.5,10|0,0:2|1:2,0:0:0:0:
166,280,155884,1,0,1:2:0:0:
166,280,155964,1,10,0:2:0:0:
91,374,156124,1,0,1:2:0:0:
46,196,156283,2,0,P|41:230|55:276,1,67.5,10|0,0:2|1:2,0:0:0:0:
174,191,156602,2,0,P|180:158|175:124,1,67.5,10|0,0:2|1:2,0:0:0:0:
175,124,156842,1,0,1:2:0:0:
175,124,156922,5,10,0:2:0:0:
57,52,157081,1,0,1:2:0:0:
255,30,157241,2,0,P|221:23|188:19,1,67.5,10|0,0:2|1:2,0:2:0:0:
262,117,157560,5,8,0:2:0:0:
287,114,157639,1,8,0:2:0:0:
311,118,157719,1,8,0:2:0:0:
335,129,157799,1,8,0:2:0:0:
357,141,157879,1,8,0:2:0:0:
381,149,157958,1,8,0:2:0:0:
406,151,158038,1,8,0:2:0:0:
406,151,158358,5,10,0:2:0:0:
335,129,158517,1,2,1:2:0:0:
352,202,158677,1,2,1:2:0:0:
242,296,158836,5,10,0:2:0:0:
170,274,158996,1,2,1:2:0:0:
225,223,159156,1,2,1:2:0:0:
379,345,159315,5,10,0:2:0:0:
379,345,159634,5,10,0:2:0:0:
451,323,159794,1,2,1:2:0:0:
451,323,159953,1,2,1:2:0:0:
297,245,160113,5,10,0:2:0:0:
225,223,160273,1,2,1:2:0:0:
386,132,160432,5,10,0:2:0:0:
227,39,160592,5,6,1:2:0:0:
256,192,160672,12,0,166815,0:0:0:0:
93,56,167134,5,6,1:2:0:0:
225,135,167293,2,0,P|273:139|306:118,1,74.2500022659302,2|8,0:2|0:2,0:2:0:0:
198,30,167612,1,2,0:2:0:0:
120,161,167772,2,0,P|82:167|46:172,1,74.2500022659302,2|0,1:2|0:2,0:2:0:0:
185,330,168091,2,0,P|217:265|190:199,1,148.50000453186,8|0,0:2|1:2,0:2:0:0:
124,263,168570,1,2,0:2:0:0:
307,272,168729,5,10,0:2:0:0:
271,165,168888,1,2,0:2:0:0:
186,330,169048,1,2,1:2:0:0:
190,199,169207,1,2,0:2:0:0:
334,353,169367,1,10,0:2:0:0:
452,222,169526,1,2,0:2:0:0:
459,347,169687,5,2,1:2:0:0:
367,211,169846,2,0,P|360:174|355:137,1,74.2500022659302,2|8,0:2|0:2,0:2:0:0:
298,245,170165,1,2,0:2:0:0:
405,78,170325,2,0,P|439:70|492:88,1,74.2500022659302,2|0,1:2|0:2,0:2:0:0:
295,80,170644,6,0,P|258:74|221:68,1,74.2500022659302,10|0,0:2|0:0,0:2:0:0:
97,138,170963,2,0,P|133:132|170:126,1,74.2500022659302,0|0,1:2|0:2,0:2:0:0:
298,245,171282,2,0,P|298:308|285:338,1,74.2500022659302,10|0,0:2|0:0,0:2:0:0:
156,266,171602,2,0,P|193:272|230:278,1,74.2500022659302,0|0,1:2|0:2,0:2:0:0:
440,324,171921,2,0,P|403:328|366:334,1,74.2500022659302,10|0,0:2|0:0,0:2:0:0:
285,157,172240,5,4,1:1:0:0:
285,157,172559,6,0,P|280:111|292:70,1,74.2500022659302,10|0,0:2|0:2,0:2:0:0:
365,232,172878,2,0,P|401:238|459:247,1,74.2500022659302,2|0,1:2|0:2,0:2:0:0:
260,264,173197,2,0,P|208:272|148:280,1,111.375003398895,10|0,0:2|0:0,0:2:0:0:
98,222,173516,2,0,P|136:206|176:208,1,74.2500022659302,2|0,1:2|0:2,0:2:0:0:
285,84,173836,2,0,P|247:100|207:98,1,74.2500022659302,10|0,0:2|0:2,0:2:0:0:
94,50,174155,2,0,L|109:144,1,74.2500022659302,2|0,1:2|0:2,0:2:0:0:
237,23,174474,1,10,0:2:0:0:
238,176,174634,1,2,0:2:0:0:
371,99,174793,5,2,1:2:0:0:
238,176,174953,1,2,0:2:0:0:
416,264,175112,2,0,P|335:228|260:263,1,148.50000453186,8|0,0:2|1:2,0:2:0:0:
341,312,175591,1,2,0:2:0:0:
455,165,175751,1,10,0:2:0:0:
491,312,175910,1,2,0:2:0:0:
359,178,176070,5,10,0:2:0:0:
207,255,176229,2,0,P|243:248|280:243,1,74.2500022659302,10|0,0:2|1:2,0:2:0:0:
122,120,176548,2,0,P|158:124|195:131,1,74.2500022659302,10|2,0:2|1:2,0:0:0:0:
83,280,176868,5,10,0:2:0:0:
122,120,177027,1,2,1:2:0:0:
207,255,177187,1,8,0:2:0:0:
207,255,177266,1,8,0:2:0:0:
207,255,177346,5,2,1:2:0:0:
253,82,177506,2,0,P|266:124|259:160,1,77.6250014805794,2|8,0:2|0:2,0:2:0:0:
326,34,177825,1,2,0:2:0:0:
471,118,177985,2,0,P|434:123|394:130,1,77.6250014805794,2|0,1:2|0:2,0:2:0:0:
454,280,178304,6,0,P|460:231|445:200,1,77.6250014805794,10|0,0:2|0:0,0:2:0:0:
360,293,178623,2,0,P|365:332|376:395,1,77.6250014805794,0|0,1:2|0:2,0:2:0:0:
207,255,178942,2,0,P|170:242|132:250,1,77.6250014805794,10|0,0:2|0:0,0:2:0:0:
40,343,179261,2,0,P|77:336|116:330,1,77.6250014805794,0|0,1:2|0:2,0:2:0:0:
73,137,179580,2,0,P|60:173|68:211,1,77.6250014805794,10|0,0:2|0:2,0:2:0:0:
36,71,179899,5,2,1:2:0:0:
138,178,180059,2,0,P|175:171|214:165,1,77.6250014805794,2|8,0:2|0:2,0:2:0:0:
132,250,180378,1,2,0:2:0:0:
279,206,180538,2,0,P|291:169|283:131,1,77.6250014805794,2|0,1:2|0:2,0:2:0:0:
410,41,180857,6,0,B|362:37|362:37|310:57|310:57|258:53,1,155.250002961159,10|0,0:2|1:2,0:2:0:0:
258,53,181336,1,0,0:2:0:0:
380,140,181495,2,0,P|392:176|384:214,1,77.6250014805794,10|0,0:2|0:2,0:2:0:0:
436,300,181814,2,0,P|471:294|515:287,1,77.6250014805794,2|0,1:2|0:2,0:2:0:0:
308,323,182134,2,0,P|269:316|231:310,1,77.6250014805794,10|0,0:2|0:2,0:2:0:0:
80,290,182453,5,2,1:2:0:0:
80,290,182772,6,0,P|72:337|84:369,1,77.6250014805794,8|2,0:2|0:2,0:0:0:0:
165,248,183091,2,0,P|173:201|161:169,1,77.6250014805794,2|2,1:2|0:2,0:0:0:0:
40,81,183410,1,10,0:2:0:0:
81,212,183570,1,2,0:2:0:0:
169,84,183729,2,0,P|207:78|245:71,1,77.6250014805794,0|0,1:2|0:0,0:2:0:0:
349,188,184048,2,0,P|357:235|345:267,1,77.6250014805794,8|2,0:2|0:2,0:0:0:0:
275,371,184368,5,2,1:2:0:0:
265,223,184527,1,2,0:2:0:0:
402,350,184687,2,0,P|440:356|478:362,1,77.6250014805794,10|2,0:2|0:2,0:0:0:0:
512,261,185006,2,0,P|517:209|502:170,1,77.6250014805794,0|0,1:2|0:0,0:2:0:0:
412,43,185325,2,0,P|418:81|424:119,1,77.6250014805794,8|10,0:2|0:2,0:0:0:0:
424,119,185564,1,8,0:2:0:0:
424,119,185644,5,2,1:2:0:0:
347,262,185804,1,10,0:2:0:0:
238,139,185963,2,0,P|273:145|348:156,1,77.6250014805794,2|10,1:2|0:2,0:0:0:0:
314,152,186203,1,8,0:2:0:0:
314,152,186282,5,2,1:2:0:0:
153,263,186443,1,8,0:2:0:0:
142,232,186522,1,0,0:0:0:0:
142,200,186602,1,8,0:2:0:0:
151,169,186682,1,8,0:2:0:0:
162,139,186762,1,8,0:3:0:0:
164,107,186841,1,8,0:3:0:0:
155,76,186921,5,8,0:3:0:0:
137,84,187000,1,4,0:3:0:0:
120,93,187080,1,4,0:3:0:0:
103,102,187160,1,4,0:3:0:0:
85,111,187240,1,8,0:2:0:0:
223,212,187399,1,0,1:2:0:0:
66,280,187559,5,14,0:2:0:0:
188,345,187719,2,0,B|215:319|253:314|253:314|293:359|349:346,1,155.250002961159,2|2,1:2|1:2,0:2:0:0:
444,329,188197,1,2,0:2:0:0:
327,257,188357,1,0,1:2:0:0:
327,257,188437,1,0,1:2:0:0:
327,257,188516,6,0,P|303:202|345:109,1,155.250002961159,8|0,0:2|0:0,0:0:0:0:
422,193,188995,1,0,1:2:0:0:
508,87,189155,2,0,P|474:93|431:99,1,77.6250014805794,0|0,0:0|1:2,0:0:0:0:
431,99,189394,1,0,1:2:0:0:
431,99,189474,5,8,0:2:0:0:
264,6,189634,1,8,0:2:0:0:
323,191,189793,2,0,P|337:154|334:116,1,77.6250014805794,8|0,0:2|1:2,0:0:0:0:
201,273,190112,5,14,0:2:0:0:
66,354,190272,2,0,B|101:336|131:324|131:324|171:368|225:355,1,155.250002961159,2|2,1:2|1:2,0:2:0:0:
285,270,190751,1,2,0:2:0:0:
436,358,190910,1,0,1:2:0:0:
436,358,190990,1,0,1:0:0:0:
436,358,191070,2,0,P|387:364|347:355,1,77.6250014805794,10|0,0:2|0:2,0:2:0:0:
374,196,191389,5,2,0:2:0:0:
201,57,192027,6,0,P|146:45|78:67,2,111.375003398895,10|8|8,0:2|0:2|0:2,0:0:0:0:
78,140,192665,6,0,P|43:145|11:150,1,67.5,6|0,1:2|1:2,0:0:0:0:
167,259,192985,2,0,P|133:253|100:248,1,67.5,2|8,0:2|0:2,0:0:0:0:
247,143,193304,5,2,0:2:0:0:
259,230,193463,1,10,0:2:0:0:
271,317,193623,1,2,1:2:0:0:
329,177,193782,2,0,P|396:168|453:220,1,135,2|2,1:2|1:2,0:2:0:0:
374,245,194260,1,2,0:2:0:0:
318,89,194420,2,0,P|311:57|305:10,1,67.5,10|0,0:2|1:2,0:2:0:0:
252,143,194740,2,0,P|218:146|187:135,1,67.5,2|8,1:2|0:2,0:2:0:0:
111,56,195059,1,6,1:2:0:0:
69,227,195219,6,0,P|75:191|81:147,1,67.5,2|2,1:2|1:2,0:0:0:0:
134,297,195538,2,0,P|167:302|200:297,1,67.5,2|10,0:2|0:2,0:0:0:0:
374,245,195857,5,2,0:2:0:0:
329,177,196016,1,10,0:2:0:0:
293,250,196176,1,2,1:2:0:0:
410,172,196336,2,0,B|405:132|405:132|429:84|429:84|421:44,1,135,2|10,1:2|0:2,0:0:0:0:
485,146,196814,1,2,0:2:0:0:
346,76,196974,2,0,P|293:71|257:77,1,67.5,10|0,0:2|3:0,0:2:0:0:
163,147,197293,2,0,P|196:150|229:144,1,67.5,2|8,1:2|0:2,0:0:0:0:
191,64,197612,1,6,1:2:0:0:
80,119,197772,6,0,P|84:154|92:198,1,67.5,2|2,1:2|1:2,0:0:0:0:
38,347,198091,2,0,P|37:305|52:271,1,67.5,2|8,0:2|0:2,0:2:0:0:
207,367,198410,5,2,0:2:0:0:
158,230,198570,1,10,0:2:0:0:
114,323,198729,1,2,1:2:0:0:
251,274,198889,2,0,P|312:285|393:296,1,135,2|2,1:2|1:2,0:2:0:0:
477,251,199368,1,2,0:2:0:0:
395,126,199527,2,0,P|387:158|392:192,1,67.5,10|0,0:2|1:2,0:2:0:0:
311,67,199846,2,0,P|277:72|244:77,1,67.5,2|8,1:2|0:2,0:2:0:0:
303,171,200165,1,6,1:2:0:0:
150,136,200325,6,0,P|83:130|58:149,1,67.5,2|2,1:2|1:2,0:0:0:0:
132,294,200644,2,0,P|165:298|196:286,1,67.5,2|10,0:2|0:2,0:0:0:0:
303,171,200963,5,2,0:2:0:0:
392,192,201123,1,10,0:2:0:0:
481,213,201282,1,2,1:2:0:0:
329,258,201442,2,0,P|317:293|331:335,1,67.5,0|0,1:2|0:0,0:0:0:0:
475,277,201761,2,0,P|487:242|473:200,1,67.5,10|2,0:2|0:2,0:0:0:0:
461,73,202080,2,0,P|455:104|445:167,1,67.5,10|0,0:2|0:0,0:2:0:0:
347,181,202399,1,2,1:2:0:0:
280,23,202559,2,0,P|313:28|346:34,1,67.5,8|6,0:2|1:2,0:0:0:0:
177,161,202878,5,2,1:2:0:0:
228,92,203038,1,2,1:2:0:0:
262,170,203197,1,2,0:2:0:0:
143,83,203357,2,0,P|95:63|17:114,1,135,8|10,0:2|0:2,0:0:0:0:
126,230,203836,5,2,1:2:0:0:
75,298,203996,1,2,1:2:0:0:
41,219,204155,1,0,1:0:0:0:
160,309,204314,2,0,P|228:299|293:287,1,135,10|2,0:2|1:2,0:0:0:0:
445,305,204793,1,8,0:2:0:0:
304,370,204953,1,10,0:2:0:0:
379,220,205112,2,0,P|384:186|389:153,1,67.5,8|0,0:2|1:2,0:0:0:0:
317,0,205431,6,0,P|313:45|328:76,1,67.5,14|0,0:2|1:2,0:2:0:0:
476,127,205751,1,8,0:2:0:0:
300,179,205910,2,0,P|265:174|220:166,1,67.5,10|0,0:2|1:2,0:0:0:0:
72,140,206229,1,8,0:2:0:0:
130,266,206389,2,0,P|144:235|143:201,1,67.5,2|0,1:2|1:2,0:2:0:0:
167,345,206708,5,8,0:2:0:0:
194,355,206788,1,8,0:0:0:0:
223,357,206867,1,2,1:2:0:0:
251,349,206947,1,0,1:2:0:0:
275,332,207027,2,0,P|269:297|262:252,1,67.5,8|0,0:2|1:2,0:0:0:0:
301,85,207346,5,10,0:2:0:0:
367,270,207506,1,8,0:2:0:0:
233,168,207665,2,0,P|198:162|153:155,1,67.5,10|0,0:2|1:2,0:0:0:0:
75,22,207985,5,6,1:2:0:0:
166,157,208144,1,0,1:2:0:0:
7,110,208304,1,8,0:2:0:0:
171,38,208463,2,0,P|237:23|305:78,1,135,6|0,1:2|1:2,0:2:0:0:
327,157,208942,1,6,1:2:0:0:
224,101,209102,1,8,0:2:0:0:
374,50,209261,1,8,0:2:0:0:
247,181,209421,6,0,P|218:225|254:324,1,135,0|0,1:2|1:2,0:2:0:0:
346,384,209899,2,0,P|340:348|330:289,1,67.5,8|0,0:2|1:2,0:0:0:0:
401,152,210219,1,8,0:2:0:0:
291,246,210378,1,6,1:2:0:0:
256,192,210458,12,0,219474,0:2:0:0:
