osu file format v14

[General]
AudioFilename: audio.mp3
AudioLeadIn: 0
PreviewTime: 167055
Countdown: 0
SampleSet: Soft
StackLeniency: 0.3
Mode: 0
LetterboxInBreaks: 0
WidescreenStoryboard: 1

[Editor]
DistanceSpacing: 1.4
BeatDivisor: 4
GridSize: 8
TimelineZoom: 1.9

[Metadata]
Title:Answer is near
TitleUnicode:アンサイズニア
Artist:ONE OK ROCK
ArtistUnicode:ONE OK ROCK
Creator:Nevo
Version:Smoke's Extra
Source:
Tags:mordred smokelind armin a_r_m_i_n soop so0p frostwich synderes Kuki1537 ook japanese rock smoke kudosu reform kujinn
BeatmapID:2353644
BeatmapSetID:1110954

[Difficulty]
HPDrainRate:6
CircleSize:4.2
OverallDifficulty:8.7
ApproachRate:9.2
SliderMultiplier:1.7
SliderTickRate:1

[Events]
//Background and Video events
0,0,"72026743_p14.jpg",0,0
//Break Periods
2,23717,32841
2,116909,126352
//Storyboard Layer 0 (Background)
//Storyboard Layer 1 (Fail)
//Storyboard Layer 2 (Pass)
//Storyboard Layer 3 (Foreground)
//Storyboard Layer 4 (Overlay)
//Storyboard Sound Samples

[TimingPoints]
13305,319.148936170213,4,2,5,70,1,0
13305,-100,4,2,5,70,0,0
23517,-125,4,2,5,70,0,0
33411,-125,4,2,5,60,0,0
33730,-100,4,2,5,60,0,0
38118,-100,4,2,5,5,0,0
38198,-100,4,2,5,60,0,0
38757,-100,4,2,5,5,0,0
38837,-100,4,2,5,60,0,0
39395,-100,4,2,5,5,0,0
39475,-100,4,2,5,60,0,0
43943,-83.3333333333333,4,2,5,80,0,1
47693,-83.3333333333333,4,2,5,5,0,1
47773,-83.3333333333333,4,2,5,80,0,1
48012,-83.3333333333333,4,2,5,5,0,1
48092,-83.3333333333333,4,2,5,80,0,1
48331,-83.3333333333333,4,2,5,5,0,1
48411,-83.3333333333333,4,2,5,80,0,1
48650,-83.3333333333333,4,2,5,5,0,1
48730,-83.3333333333333,4,2,5,80,0,1
49368,-100,4,2,5,80,0,1
50007,-90.9090909090909,4,2,5,80,0,1
50645,-83.3333333333333,4,2,5,80,0,1
59262,-100,4,2,5,80,0,1
63092,-111.111111111111,4,2,5,80,0,1
64368,-100,4,2,5,80,0,0
74581,-133.333333333333,4,2,5,50,0,0
74741,-133.333333333333,4,2,5,5,0,0
74820,-133.333333333333,4,2,5,50,0,0
74980,-133.333333333333,4,2,5,5,0,0
75060,-133.333333333333,4,2,5,50,0,0
76656,-133.333333333333,4,2,6,50,0,0
77134,-133.333333333333,4,2,5,50,0,0
77294,-133.333333333333,4,2,5,5,0,0
77373,-133.333333333333,4,2,5,50,0,0
77533,-133.333333333333,4,2,5,5,0,0
77613,-133.333333333333,4,2,5,50,0,0
79209,-133.333333333333,4,2,6,50,0,0
79687,-133.333333333333,4,2,5,50,0,0
79847,-133.333333333333,4,2,5,5,0,0
79926,-133.333333333333,4,2,5,50,0,0
80086,-133.333333333333,4,2,5,5,0,0
80166,-133.333333333333,4,2,5,50,0,0
81762,-133.333333333333,4,2,6,50,0,0
82241,-133.333333333333,4,2,5,50,0,0
84315,-133.333333333333,4,2,6,50,0,0
84794,-100,4,2,5,60,0,0
89820,-100,4,2,5,5,0,0
89900,-100,4,2,5,60,0,0
90778,-100,4,2,5,5,0,0
90858,-100,4,2,5,60,0,0
95007,-250,4,2,5,40,0,0
95964,-250,4,2,5,70,0,0
96004,-250,4,2,5,5,0,0
96283,-83.3333333333333,4,2,5,80,0,1
100033,-83.3333333333333,4,2,5,5,0,1
100113,-83.3333333333333,4,2,5,80,0,1
100352,-83.3333333333333,4,2,5,5,0,1
100432,-83.3333333333333,4,2,5,80,0,1
100672,-83.3333333333333,4,2,5,5,0,1
100751,-83.3333333333333,4,2,5,80,0,1
100991,-83.3333333333333,4,2,5,5,0,1
101071,-83.3333333333333,4,2,5,80,0,1
101709,-100,4,2,5,80,0,1
102347,-90.9090909090909,4,2,5,80,0,1
102985,-83.3333333333333,4,2,5,80,0,1
103863,-83.3333333333333,4,2,5,5,0,1
103943,-83.3333333333333,4,2,5,80,0,1
111602,-100,4,2,5,80,0,1
115432,-181.818181818181,4,2,5,80,0,0
116283,-181.818181818181,4,2,5,70,0,0
116496,-181.818181818181,4,2,5,60,0,0
116709,-181.818181818181,4,2,5,50,0,0
126922,-181.818181818181,4,2,5,50,0,0
132028,-153.846153846153,4,2,5,60,0,0
137134,-100,4,2,5,70,0,0
147347,-100,4,2,5,50,0,0
147427,-100,4,2,5,5,0,0
147507,-100,4,2,5,50,0,0
147586,-100,4,2,5,5,0,0
147666,-100,4,2,5,50,0,0
147746,-100,4,2,5,5,0,0
147826,-100,4,2,5,50,0,0
147906,-100,4,2,5,5,0,0
147986,-100,4,2,5,70,0,0
167134,319.148936170213,4,2,5,80,1,0
167134,-76.9230769230769,4,2,5,80,0,1
170884,-76.9230769230769,4,2,5,5,0,1
170963,-76.9230769230769,4,2,5,80,0,1
171203,-76.9230769230769,4,2,5,5,0,1
171282,-76.9230769230769,4,2,5,80,0,1
171522,-76.9230769230769,4,2,5,5,0,1
171602,-76.9230769230769,4,2,5,80,0,1
171841,-76.9230769230769,4,2,5,5,0,1
171920,-76.9230769230769,4,2,5,80,0,1
172559,-90.9090909090909,4,2,5,80,0,1
173197,-83.3333333333333,4,2,5,80,0,1
173836,-76.9230769230769,4,2,5,80,0,1
178543,-76.9230769230769,4,2,5,5,0,1
178622,-76.9230769230769,4,2,5,80,0,1
179181,-76.9230769230769,4,2,5,5,0,1
179260,-76.9230769230769,4,2,5,80,0,1
181096,-76.9230769230769,4,2,5,5,0,1
181176,-76.9230769230769,4,2,5,80,0,1
181415,-76.9230769230769,4,2,5,5,0,1
181495,-76.9230769230769,4,2,5,80,0,1
182054,-76.9230769230769,4,2,5,5,0,1
182134,-76.9230769230769,4,2,5,80,0,1
187559,-90.9090909090909,4,2,5,80,0,1
191389,-133.333333333333,4,2,5,70,0,0
192665,-100,4,2,5,70,0,0
205431,-100,4,2,5,80,0,0
211814,-100,4,2,5,65,0,0
213091,-100,4,2,5,60,0,0
213729,-100,4,2,5,55,0,0
214368,-100,4,2,5,50,0,0
215006,-100,4,2,5,45,0,0
215644,-100,4,2,5,40,0,0
216282,-100,4,2,5,35,0,0
216921,-100,4,2,5,30,0,0
217559,-100,4,2,5,25,0,0
218197,-100,4,2,5,20,0,0
218836,-100,4,2,5,10,0,0
219474,-100,4,2,5,5,0,0

[Colours]
Combo1 : 255,94,94
Combo2 : 128,128,255
Combo3 : 255,153,51

[HitObjects]
59,238,13304,5,6,1:2:0:0:
59,238,13464,2,0,P|99:249|155:269,1,85,0|2,1:2|0:2,0:0:0:0:
306,330,13783,2,0,P|276:251|249:159,1,170,8|10,0:2|0:2,0:0:0:0:
419,77,14262,1,2,1:2:0:0:
343,0,14422,2,0,P|327:40|314:85,1,85,2|0,1:2|0:0,0:2:0:0:
440,242,14741,2,0,B|391:239|359:291|385:286|352:338|291:329,1,170,2|10,1:2|0:2,0:0:0:0:
163,197,15219,1,0,1:2:0:0:
269,221,15379,1,2,1:2:0:0:
57,269,15539,1,8,0:2:0:0:
134,108,15698,1,6,1:2:0:0:
17,14,15858,5,2,1:2:0:0:
17,14,16017,2,0,P|32:60|47:111,1,85,2|2,1:2|0:2,0:0:0:0:
228,39,16336,2,0,B|280:57|280:57|307:115|307:115|372:139,1,170,8|10,0:2|0:2,0:0:0:0:
484,293,16815,1,2,1:2:0:0:
365,345,16975,2,0,P|378:307|398:260,1,85,2|0,1:2|0:0,0:2:0:0:
214,135,17294,2,0,P|137:142|96:218,1,170,10|10,0:2|0:2,0:0:0:0:
218,348,17773,1,0,1:2:0:0:
111,371,17932,1,2,1:2:0:0:
253,256,18092,1,8,0:2:0:0:
404,306,18251,1,6,1:2:0:0:
512,251,18411,5,2,1:2:0:0:
512,251,18570,2,0,P|498:210|486:163,1,85,2|2,1:2|0:2,0:0:0:0:
511,0,18890,2,0,B|456:-6|417:42|452:38|412:85|351:73,1,170,8|10,0:2|0:2,0:0:0:0:
171,28,19368,1,2,1:2:0:0:
286,0,19528,2,0,P|269:45|253:99,1,85,2|0,1:2|0:0,0:2:0:0:
137,211,19847,2,0,P|215:204|278:283,1,170,2|10,1:2|0:2,0:0:0:0:
325,384,20326,1,0,1:2:0:0:
389,284,20485,1,2,1:2:0:0:
209,356,20645,1,8,0:2:0:0:
95,294,20805,1,6,1:2:0:0:
0,328,20964,5,2,1:2:0:0:
0,328,21124,2,0,P|12:280|19:240,1,85,2|2,1:2|0:2,0:0:0:0:
1,81,21443,2,0,B|50:65|50:65|89:14|89:14|162:-6,1,170,8|10,0:2|0:2,0:0:0:0:
321,146,21922,1,2,1:2:0:0:
211,200,22081,2,0,L|236:111,1,85,2|0,1:2|0:0,0:2:0:0:
391,37,22400,2,0,L|432:216,1,170,10|0,0:2|1:2,0:0:0:0:
470,381,22879,1,8,0:3:0:0:
331,260,23039,1,10,0:3:0:0:
428,202,23198,1,4,0:3:0:0:
333,357,23358,1,4,0:3:0:0:
119,239,23517,5,4,1:2:0:0:
413,79,33411,5,8,0:2:0:0:
306,313,33730,5,0,1:2:0:0:
306,313,33890,1,0,0:0:0:0:
418,380,34049,2,0,P|407:341|394:285,1,85,8|2,0:2|0:2,0:0:0:0:
498,154,34368,2,0,P|480:187|433:210,1,85,2|2,1:2|0:2,0:2:0:0:
295,179,34687,2,0,P|259:163|212:148,1,85,10|2,0:2|0:2,0:2:0:0:
150,253,35007,2,0,B|196:257|238:208|205:215|249:164|314:182,1,170,2|8,0:2|0:2,0:2:0:0:
137,263,35485,2,0,P|102:242|79:196,1,85,2|0,0:2|1:2,0:2:0:0:
117,72,35805,2,0,P|152:52|204:55,1,85,0|8,1:2|0:2,0:2:0:0:
306,94,36124,1,2,0:2:0:0:
482,44,36283,5,0,1:0:0:0:
482,44,36443,1,0,1:2:0:0:
367,0,36602,2,0,P|383:41|399:89,1,85,10|0,0:2|0:2,0:0:0:0:
369,250,36922,2,0,B|418:235|418:235|455:179|455:179|521:159,1,170,2|8,1:2|0:2,0:0:0:0:
360,264,37400,1,2,0:2:0:0:
360,264,37560,2,0,L|263:237,1,85,2|0,0:2|1:2,0:2:0:0:
138,323,37879,2,0,P|178:264|158:204,1,127.5,10|0,0:2|0:0,0:2:0:0:
126,147,38198,1,2,1:2:0:0:
126,147,38358,1,0,1:2:0:0:
28,294,38517,2,0,P|17:233|55:184,1,127.5,10|0,0:2|0:0,0:2:0:0:
98,255,38836,5,2,1:2:0:0:
98,255,38996,1,0,1:2:0:0:
249,171,39156,2,0,L|382:200,1,127.5,10|0,0:2|0:0,0:2:0:0:
452,217,39475,1,2,1:2:0:0:
337,276,39634,2,0,L|247:257,1,85,2|8,0:2|0:2,0:2:0:0:
389,347,39953,1,2,0:2:0:0:
212,373,40113,2,0,B|165:372|128:320|160:330|121:275|54:287,1,170,2|10,0:2|0:2,0:2:0:0:
222,384,40592,2,0,P|260:371|306:359,1,85,2|0,0:2|1:2,0:2:0:0:
456,384,40911,2,0,P|428:351|421:288,1,85,2|8,1:2|0:2,0:2:0:0:
491,125,41230,1,2,1:2:0:0:
326,182,41390,5,0,1:2:0:0:
326,182,41549,1,0,1:2:0:0:
205,134,41709,2,0,P|165:119|100:100,1,85,10|0,0:2|0:2,0:2:0:0:
208,297,42028,2,0,P|222:256|245:206,1,85,2|0,0:2|0:2,0:2:0:0:
308,55,42347,1,10,0:2:0:0:
308,55,42507,1,2,0:2:0:0:
308,55,43624,5,8,0:2:0:0:
461,272,43943,5,6,1:2:0:0:
343,361,44102,2,0,L|374:248,1,101.999996887207,2|8,0:2|0:2,0:2:0:0:
512,118,44422,1,2,0:2:0:0:
394,29,44581,2,0,L|425:142,1,101.999996887207,2|0,1:2|0:2,0:2:0:0:
258,278,44900,2,0,B|201:280|163:220|198:228|157:169|97:173,1,203.999993774414,8|0,0:2|1:2,0:2:0:0:
7,231,45379,5,2,0:2:0:0:
168,346,45539,1,10,0:2:0:0:
282,289,45698,1,2,0:2:0:0:
481,363,45858,1,2,1:2:0:0:
422,261,46017,1,2,0:2:0:0:
512,103,46177,1,10,0:2:0:0:
512,103,46336,1,2,0:2:0:0:
325,186,46496,5,2,1:2:0:0:
191,140,46656,2,0,P|142:123|74:103,1,101.999996887207,2|8,0:2|0:2,0:2:0:0:
282,290,46975,1,2,0:2:0:0:
416,241,47135,2,0,P|465:224|533:204,1,101.999996887207,2|0,1:2|0:2,0:2:0:0:
213,371,47453,2,0,P|202:323|178:259,1,101.999996887207,10|0,0:2|0:0,0:2:0:0:
118,98,47773,6,0,B|231:125|231:125|175:141,1,152.999995330811,0|0,1:2|0:0,0:2:0:0:
104,103,48092,2,0,P|108:49|153:21,1,101.999996887207,10|0,0:2|0:0,0:2:0:0:
372,70,48411,2,0,P|287:55|287:-23,1,152.999995330811,0|0,1:2|0:0,0:2:0:0:
386,60,48730,2,0,P|368:109|353:159,1,101.999996887207,8|0,0:2|0:0,0:2:0:0:
315,309,49049,1,4,1:1:0:0:
315,309,49368,6,0,P|314:260|280:217,1,85,10|0,0:2|0:2,0:2:0:0:
196,255,49687,2,0,P|194:297|215:333,1,85,2|0,1:2|0:2,0:2:0:0:
411,266,50007,2,0,P|436:227|432:181,1,93.5000028533936,10|0,0:2|0:2,0:2:0:0:
316,145,50326,2,0,P|291:184|294:229,1,93.5000028533936,2|0,1:2|0:2,0:2:0:0:
479,102,50645,2,0,P|482:51|456:9,1,101.999996887207,10|0,0:2|0:2,0:2:0:0:
293,52,50964,2,0,P|289:102|315:144,1,101.999996887207,2|0,1:2|0:2,0:2:0:0:
512,186,51283,1,10,0:2:0:0:
386,81,51443,1,2,0:2:0:0:
186,138,51602,5,2,1:2:0:0:
186,138,51762,1,2,0:2:0:0:
40,52,51922,2,0,P|60:109|73:165,1,101.999996887207,8|0,0:2|0:2,0:2:0:0:
94,226,52161,1,8,0:2:0:0:
94,226,52241,2,0,P|57:258|58:327,1,101.999996887207,0|8,1:2|0:2,0:0:0:0:
159,384,52560,1,10,1:2:0:0:
310,325,52719,1,2,0:2:0:0:
343,312,52799,1,8,0:2:0:0:
376,299,52879,5,10,0:2:0:0:
363,196,53039,1,10,0:2:0:0:
330,209,53119,1,8,0:2:0:0:
278,128,53278,1,8,0:2:0:0:
311,115,53358,2,0,L|366:91,1,50.9999984436036,10|8,0:2|0:2,0:0:0:0:
485,154,53517,1,10,0:3:0:0:
485,154,53597,1,8,0:3:0:0:
485,154,53677,2,0,L|416:137,1,50.9999984436036,6|4,0:3|0:3,0:0:0:0:
294,22,53836,1,10,0:2:0:0:
185,66,53996,1,2,1:2:0:0:
2,4,54156,5,14,0:2:0:0:
66,140,54315,2,0,L|36:237,1,101.999996887207,2|0,1:2|0:2,0:2:0:0:
294,22,54634,1,10,0:2:0:0:
230,158,54793,2,0,L|259:255,1,101.999996887207,2|0,1:2|1:2,0:2:0:0:
444,225,55113,2,0,P|404:198|337:209,1,101.999996887207,8|0,0:2|1:2,0:2:0:0:
160,276,55432,6,0,B|100:280|59:221|94:229|56:169|-1:171,1,203.999993774414,8|2,0:2|0:2,0:2:0:0:
170,287,55911,1,10,0:2:0:0:
334,205,56070,1,2,1:2:0:0:
454,268,56230,1,2,1:2:0:0:
290,350,56390,1,10,0:2:0:0:
290,350,56549,1,0,1:2:0:0:
388,122,56709,5,10,0:2:0:0:
220,183,56868,2,0,L|117:164,1,101.999996887207,2|0,1:2|0:2,0:2:0:0:
357,285,57187,1,10,0:2:0:0:
388,122,57347,2,0,L|408:18,1,101.999996887207,2|0,1:2|0:2,0:2:0:0:
440,332,57666,2,0,P|404:294|324:294,1,101.999996887207,14|0,0:2|0:0,0:2:0:0:
120,342,57985,5,10,0:2:0:0:
162,323,58064,1,8,0:2:0:0:
189,286,58144,1,8,0:2:0:0:
189,239,58224,1,8,0:2:0:0:
165,200,58305,2,0,P|145:181|116:161,1,50.9999984436036,10|8,0:3|0:3,0:2:0:0:
44,107,58464,1,8,0:3:0:0:
44,107,58544,1,8,0:3:0:0:
44,107,58624,2,0,P|77:98|112:87,3,50.9999984436036,6|4|4|4,0:3|0:3|0:3|0:3,0:0:0:0:
154,38,58943,2,0,P|187:47|222:58,3,50.9999984436036,10|0|2|0,0:2|0:0|1:2|0:0,0:0:0:0:
276,97,59262,5,12,0:2:0:0:
276,97,59422,2,0,P|325:85|382:75,1,85,0|0,1:2|0:0,0:0:0:0:
494,31,59741,2,0,P|458:63|449:110,1,85,0|0,1:2|0:0,0:0:0:0:
494,266,60060,1,0,1:2:0:0:
494,266,60140,1,0,1:0:0:0:
494,266,60219,1,8,0:2:0:0:
359,209,60379,6,0,B|304:224|304:224|274:279|274:279|212:298,2,170,0|0|0,1:2|1:2|1:2,0:0:0:0:
439,193,61097,1,0,1:2:0:0:
439,193,61177,1,8,0:2:0:0:
363,296,61336,1,8,0:2:0:0:
209,211,61496,1,8,0:2:0:0:
209,211,61656,1,2,1:2:0:0:
38,262,61815,5,14,0:2:0:0:
140,318,61975,2,0,P|125:253|90:137,1,170,0|0,1:2|1:2,0:0:0:0:
28,47,62453,2,0,P|69:49|120:11,1,85,2|0,0:2|1:2,0:2:0:0:
9,173,62773,1,10,0:2:0:0:
9,173,62932,1,0,1:2:0:0:
179,116,63092,6,0,B|245:111|293:180|250:174|291:238|364:236,1,229.499992996216,2|0,0:2|1:2,0:2:0:0:
390,222,63650,1,0,1:2:0:0:
390,222,63730,1,10,0:2:0:0:
241,34,63969,1,8,0:2:0:0:
466,0,64209,1,8,0:2:0:0:
339,103,64368,5,6,1:2:0:0:
339,103,64528,2,0,P|325:142|308:199,1,85,0|0,1:0|0:0,0:0:0:0:
340,348,64847,2,0,P|287:283|195:299,1,170,8|8,0:0|0:0,0:0:0:0:
33,376,65326,1,6,1:2:0:0:
94,257,65486,2,0,P|109:297|121:342,1,85,0|0,1:0|0:0,0:0:0:0:
0,158,65805,2,0,B|49:161|81:109|55:114|88:62|149:71,1,170,0|8,1:0|0:0,0:0:0:0:
271,123,66283,1,0,1:0:0:0:
178,173,66443,1,0,1:0:0:0:
214,343,66603,1,8,0:0:0:0:
381,255,66762,1,0,1:0:0:0:
499,345,66922,5,6,1:2:0:0:
499,345,67081,2,0,P|457:344|415:372,1,85,0|0,1:0|0:0,0:0:0:0:
270,262,67400,2,0,B|286:209|286:209|343:180|343:180|364:114,1,170,8|8,0:0|0:0,0:0:0:0:
173,77,67879,1,0,1:0:0:0:
247,0,68039,2,0,P|263:39|277:79,1,85,0|0,1:0|0:0,0:0:0:0:
175,243,68358,2,0,P|98:236|57:160,1,170,8|8,0:0|0:0,0:0:0:0:
173,77,68837,1,0,1:0:0:0:
229,159,68996,1,0,1:0:0:0:
155,331,69156,1,8,0:0:0:0:
309,251,69315,1,0,1:0:0:0:
443,297,69475,5,6,1:2:0:0:
443,297,69634,2,0,P|429:256|417:209,1,85,0|0,1:0|0:0,0:0:0:0:
512,74,69954,2,0,B|457:80|418:32|453:36|413:-11|352:1,1,170,8|8,0:0|0:0,0:0:0:0:
177,79,70432,1,0,1:0:0:0:
300,155,70592,2,0,P|287:114|272:74,1,85,0|0,1:0|0:0,0:0:0:0:
101,6,70911,2,0,P|74:96|54:183,1,170,0|8,1:0|0:0,0:0:0:0:
21,301,71390,1,0,1:0:0:0:
133,254,71549,1,0,1:0:0:0:
331,344,71709,1,8,0:0:0:0:
226,384,71869,1,0,1:0:0:0:
274,231,72028,5,2,1:2:0:0:
274,231,72188,2,0,P|286:183|293:143,1,85,0|0,1:0|0:0,0:0:0:0:
501,176,72507,2,0,B|452:192|452:192|413:243|413:243|340:263,1,170,8|8,0:0|0:0,0:0:0:0:
474,90,72986,1,0,1:0:0:0:
359,34,73145,2,0,P|373:77|386:123,1,85,0|0,1:0|0:0,0:0:0:0:
437,292,73464,1,8,0:0:0:0:
437,292,73624,1,8,0:0:0:0:
340,346,73783,1,0,1:0:0:0:
250,300,73943,1,0,1:0:0:0:
166,332,74102,1,8,0:0:0:0:
93,298,74262,1,8,0:0:0:0:
166,332,74422,1,0,1:0:0:0:
196,223,74581,6,0,P|208:179|227:119,2,95.6250036478044,4|0|0,1:1|1:2|1:2,0:2:0:0:
93,298,75219,2,0,P|77:237|37:108,1,191.250007295609,8|0,0:2|0:0,0:0:0:0:
105,44,75858,2,0,B|164:38|202:100|169:91|201:145|265:138,1,191.250007295609,0|0,0:0|1:2,0:0:0:0:
432,90,76496,1,8,0:2:0:0:
387,5,76656,2,0,P|345:50|344:127,1,127.500004863739,2|0,1:3|0:0,0:0:0:0:
416,195,77134,6,0,P|463:183|509:175,2,95.6250036478044,2|0|0,1:2|1:2|1:2,0:2:0:0:
344,262,77773,2,0,P|336:295|330:328,3,63.7500024318696,8|0|0|0,0:2|0:0|0:0|0:0,0:0:0:0:
245,367,78411,1,0,0:0:0:0:
245,367,78570,2,0,P|233:304|218:237,1,127.500004863739,0|0,0:0|1:2,0:0:0:0:
70,313,79049,1,8,0:2:0:0:
69,312,79209,2,0,P|96:363|151:316,1,127.500004863739,2|0,0:3|0:0,0:0:0:0:
219,242,79687,6,0,P|264:219|322:241,2,95.6250036478044,0|0|0,1:2|1:2|1:2,0:2:0:0:
129,204,80326,2,0,P|115:141|94:65,1,127.500004863739,10|0,0:2|0:0,0:0:0:0:
252,16,80964,1,0,0:0:0:0:
252,16,81124,2,0,P|212:70|226:130,1,127.500004863739,0|0,0:0|1:2,0:0:0:0:
353,208,81602,1,8,0:2:0:0:
353,208,81762,2,0,P|287:196|292:260,1,127.500004863739,2|0,1:3|0:0,0:0:0:0:
397,293,82241,6,0,P|380:345|366:396,2,95.6250036478044,2|0|0,1:2|1:2|1:2,0:0:0:0:
512,159,82879,2,0,P|498:113|483:67,2,95.6250036478044,8|0|0,0:2|1:2|1:2,0:0:0:0:
397,213,83517,2,0,P|443:211|463:252,2,95.6250036478044,2|0|2,1:2|1:2|1:2,0:0:0:0:
283,253,84156,2,0,P|274:225|260:189,1,63.7500024318696,0|2,0:0|0:3,0:0:0:0:
206,75,84475,1,0,0:0:0:0:
38,247,84794,5,4,1:1:0:0:
38,247,84953,1,0,1:2:0:0:
140,320,85113,2,0,L|119:230,1,85,10|0,0:2|0:2,0:0:0:0:
28,111,85432,2,0,P|65:137|124:131,1,85,2|2,1:2|0:2,0:0:0:0:
214,103,85751,2,0,P|255:90|308:77,1,85,10|0,0:2|0:2,0:2:0:0:
396,144,86070,6,0,P|339:106|384:20,1,170,2|10,0:2|0:2,0:2:0:0:
461,75,86549,1,10,0:3:0:0:
461,75,86629,1,8,0:3:0:0:
461,75,86709,1,8,0:3:0:0:
388,155,86868,2,0,P|401:201|416:263,1,85,2|8,0:2|0:2,0:2:0:0:
445,378,87187,1,2,0:2:0:0:
512,289,87347,5,0,1:0:0:0:
512,289,87507,1,0,1:2:0:0:
344,333,87666,2,0,P|307:311|246:320,1,85,8|0,0:2|0:3,0:2:0:0:
228,329,87906,1,8,0:3:0:0:
228,329,87985,1,8,0:3:0:0:
94,384,88145,1,2,1:2:0:0:
126,279,88305,2,0,P|137:240|155:186,1,85,10|2,0:2|0:2,0:0:0:0:
146,66,88624,6,0,P|177:90|222:91,1,85,2|0,1:2|1:2,0:2:0:0:
348,40,88943,2,0,P|311:101|334:159,1,127.5,10|8,0:2|0:3,0:2:0:0:
373,221,89262,1,10,0:3:0:0:
373,221,89422,1,0,0:2:0:0:
460,64,89581,2,0,P|474:124|438:175,1,127.5,10|0,0:2|0:0,0:2:0:0:
395,109,89900,5,0,1:2:0:0:
395,109,90060,1,0,1:2:0:0:
271,182,90219,1,10,0:2:0:0:
175,136,90379,1,2,0:2:0:0:
47,181,90539,2,0,P|28:247|11:309,1,127.5,2|0,1:2|0:0,0:0:0:0:
3,345,90858,1,10,0:2:0:0:
102,381,91017,1,2,0:2:0:0:
206,317,91177,6,0,P|243:300|310:320,1,85,2|0,1:2|1:0,0:2:0:0:
421,357,91496,1,10,0:2:0:0:
378,255,91655,1,8,0:3:0:0:
378,255,91735,1,10,0:3:0:0:
378,255,91814,1,8,0:3:0:0:
462,105,91975,1,2,2:0:0:0:
505,207,92134,2,0,P|465:192|415:178,1,85,8|2,0:2|1:2,0:0:0:0:
266,133,92453,5,0,1:2:0:0:
266,133,92613,1,0,1:2:0:0:
369,52,92773,2,0,P|371:97|340:140,1,85,10|0,0:2|0:2,0:2:0:0:
246,229,93092,1,2,0:2:0:0:
246,229,93252,1,0,0:2:0:0:
352,301,93412,2,0,P|354:256|323:213,1,85,10|2,0:2|0:2,0:0:0:0:
176,158,93730,5,0,1:2:0:0:
176,158,94049,1,0,1:2:0:0:
176,158,94368,1,0,1:2:0:0:
176,158,94687,1,0,1:2:0:0:
49,248,95007,6,0,L|59:205,5,34,0|0|0|0|0|0,0:2|0:0|0:2|0:0|0:2|0:0,0:0:0:0:
18,33,95964,1,8,0:2:0:0:
254,153,96283,5,6,1:2:0:0:
153,259,96443,2,0,L|181:364,1,101.999996887207,2|8,0:2|0:2,0:2:0:0:
359,246,96762,1,2,0:2:0:0:
258,140,96922,2,0,L|286:35,1,101.999996887207,2|0,1:2|0:2,0:2:0:0:
508,134,97241,2,0,P|431:90|345:161,1,203.999993774414,8|0,0:2|1:2,0:2:0:0:
441,368,97719,5,2,0:2:0:0:
316,249,97879,1,10,0:2:0:0:
472,221,98039,1,2,0:2:0:0:
328,354,98198,1,2,1:2:0:0:
201,293,98358,1,2,0:2:0:0:
65,344,98517,1,10,0:2:0:0:
65,344,98677,1,0,0:2:0:0:
151,203,98836,5,2,1:2:0:0:
37,91,98996,2,0,L|63:211,1,101.999996887207,2|8,0:2|0:2,0:2:0:0:
201,293,99315,1,2,0:2:0:0:
315,181,99475,2,0,L|289:301,1,101.999996887207,0|0,1:2|0:2,0:2:0:0:
454,365,99794,2,0,L|429:248,1,101.999996887207,10|0,0:2|0:0,0:2:0:0:
396,83,100113,6,0,P|443:21|491:74,1,152.999995330811,0|0,1:2|0:0,0:2:0:0:
383,90,100432,2,0,P|332:75|267:60,1,101.999996887207,10|0,0:2|0:0,0:2:0:0:
115,110,100751,2,0,P|175:109|154:26,1,152.999995330811,0|0,1:2|0:0,0:2:0:0:
102,116,101070,2,0,P|92:166|129:211,1,101.999996887207,10|0,0:2|0:0,0:2:0:0:
283,278,101390,1,4,1:1:0:0:
283,278,101709,6,0,B|260:313|260:313|265:357,1,85,10|0,0:2|0:2,0:2:0:0:
364,378,102028,2,0,B|387:343|387:343|382:299,1,85,2|0,1:2|0:2,0:2:0:0:
315,178,102347,2,0,B|352:205|352:205|398:200,1,93.5000028533936,10|0,0:2|0:2,0:2:0:0:
428,91,102666,2,0,B|390:63|390:63|344:68,1,93.5000028533936,2|0,1:2|0:2,0:2:0:0:
212,139,102985,2,0,B|246:102|246:102|228:46,1,101.999996887207,10|0,0:2|0:2,0:2:0:0:
108,29,103305,2,0,B|74:66|74:66|92:122,1,101.999996887207,2|0,1:2|0:2,0:2:0:0:
189,254,103624,2,0,P|139:208|54:238,1,152.999995330811,10|0,1:2|0:0,0:0:0:0:
33,262,103943,5,2,1:2:0:0:
137,329,104102,1,2,0:2:0:0:
282,258,104262,2,0,P|334:267|391:281,1,101.999996887207,10|0,0:2|0:2,0:2:0:0:
450,327,104501,1,8,0:2:0:0:
450,327,104581,2,0,P|431:281|456:215,1,101.999996887207,0|10,1:2|0:2,0:0:0:0:
510,106,104900,1,2,1:2:0:0:
331,33,105060,1,2,0:2:0:0:
297,44,105140,1,8,0:2:0:0:
263,55,105220,5,2,1:2:0:0:
271,159,105380,1,10,0:2:0:0:
304,147,105459,2,0,L|361:128,1,50.9999984436036,8|8,0:2|0:0,0:0:0:0:
352,231,105618,1,8,0:2:0:0:
319,242,105699,1,8,0:2:0:0:
285,253,105778,1,8,0:2:0:0:
251,265,105858,1,10,0:3:0:0:
229,233,105937,1,8,0:3:0:0:
196,214,106017,1,4,0:3:0:0:
158,212,106097,1,4,0:3:0:0:
123,226,106177,1,10,0:2:0:0:
163,335,106336,1,2,1:2:0:0:
227,100,106496,5,14,0:2:0:0:
100,137,106656,2,0,P|51:126|-27:112,1,101.999996887207,2|0,1:2|0:2,0:2:0:0:
163,335,106975,1,10,0:2:0:0:
290,298,107135,2,0,P|339:309|417:323,1,101.999996887207,0|0,1:2|1:2,0:2:0:0:
512,376,107453,2,0,P|480:338|484:266,1,101.999996887207,8|0,0:2|1:2,0:2:0:0:
512,85,107773,6,0,B|452:81|411:140|446:132|408:192|351:190,1,203.999993774414,8|2,0:2|0:2,0:2:0:0:
153,84,108251,1,10,0:2:0:0:
300,44,108411,1,2,1:2:0:0:
254,172,108570,1,2,1:2:0:0:
308,341,108730,1,10,0:2:0:0:
308,341,108890,1,0,1:2:0:0:
254,172,109049,5,10,0:2:0:0:
119,235,109209,2,0,P|105:192|82:130,1,101.999996887207,2|0,1:2|0:2,0:2:0:0:
350,75,109528,1,10,0:2:0:0:
215,12,109688,2,0,P|201:55|178:117,1,101.999996887207,2|0,1:2|1:2,0:2:0:0:
272,269,110007,2,0,P|207:272|184:297,1,101.999996887207,14|0,0:2|0:0,0:2:0:0:
338,377,110326,5,8,0:2:0:0:
349,337,110405,1,8,0:2:0:0:
361,297,110485,1,8,0:2:0:0:
372,258,110565,1,8,0:2:0:0:
384,218,110645,2,0,L|401:157,1,50.9999984436036,10|8,0:3|0:3,0:2:0:0:
447,84,110805,1,8,0:3:0:0:
447,84,110884,1,8,0:3:0:0:
447,84,110964,2,0,P|422:85|397:69,3,50.9999984436036,6|4|4|4,0:3|0:3|0:3|0:3,0:0:0:0:
303,3,111283,1,10,0:2:0:0:
303,3,111443,1,2,1:2:0:0:
218,118,111602,5,14,0:2:0:0:
218,118,111762,2,0,P|232:164|243:209,1,85,0|0,1:2|0:0,0:0:0:0:
83,289,112081,2,0,P|95:243|111:200,1,85,0|0,1:2|0:0,0:0:0:0:
276,311,112400,1,0,1:2:0:0:
276,311,112480,1,0,1:0:0:0:
276,311,112560,1,8,0:2:0:0:
377,257,112719,6,0,P|431:242|512:324,2,170,0|0|0,1:2|1:2|1:2,0:0:0:0:
301,231,113437,1,0,1:2:0:0:
301,231,113517,1,8,0:2:0:0:
353,334,113677,1,8,0:2:0:0:
214,279,113836,1,8,0:2:0:0:
126,324,113996,1,0,1:2:0:0:
20,262,114156,5,12,0:2:0:0:
20,262,114315,2,0,P|32:203|67:73,1,170,0|0,1:2|1:2,0:0:0:0:
205,180,114794,2,0,P|160:206|110:183,1,85,2|0,0:0|1:2,0:0:0:0:
224,85,115113,1,8,0:2:0:0:
224,85,115273,1,0,1:2:0:0:
328,138,115432,6,0,P|381:90|449:117,1,140.25000428009,2|0,0:2|1:2,0:2:0:0:
472,138,115991,1,0,1:2:0:0:
472,138,116070,1,8,0:2:0:0:
318,246,116283,1,8,0:3:0:0:
484,359,116496,1,4,0:3:0:0:
445,247,116709,5,4,1:1:0:0:
78,253,126922,6,0,P|68:298|89:340,1,93.5000028533936,2|0,1:2|1:2,0:0:0:0:
181,328,127560,2,0,P|190:283|170:241,1,93.5000028533936,0|0,1:2|1:2,0:0:0:0:
113,167,128198,2,0,B|90:130|90:130|109:69,1,93.5000028533936,2|0,1:2|1:2,0:0:0:0:
197,71,128836,2,0,B|220:108|220:108|201:169,1,93.5000028533936,0|0,1:2|1:2,0:0:0:0:
269,223,129475,6,0,L|373:206,1,93.5000028533936,2|0,1:2|1:2,0:0:0:0:
451,232,130113,2,0,L|435:139,1,93.5000028533936,0|0,1:2|1:2,0:0:0:0:
459,49,130751,2,0,L|355:66,1,93.5000028533936,2|0,1:2|1:2,0:0:0:0:
283,106,131389,2,0,L|190:90,1,93.5000028533936,0|0,1:2|1:2,0:0:0:0:
81,71,132028,6,0,P|47:114|58:173,1,110.499994941712,2|0,1:2|1:2,0:0:0:0:
114,223,132507,2,0,B|147:223|170:253|149:250|170:279|209:283,1,110.499994941712
269,235,132985,2,0,P|277:269|286:299,1,55.2499974708558,0|0,1:2|0:0,0:0:0:0:
402,336,133305,6,0,P|416:284|441:207,1,110.499994941712,2|0,1:2|1:2,0:0:0:0:
507,194,133783,2,0,P|472:155|401:153,1,110.499994941712
345,190,134262,2,0,P|335:160|321:120,1,55.2499974708558,0|0,1:2|0:0,0:0:0:0:
233,45,134581,6,0,P|213:105|197:165,1,110.499994941712,2|0,1:2|1:2,0:0:0:0:
260,215,135060,2,0,P|208:201|156:245,1,110.499994941712
100,300,135539,1,0,1:2:0:0:
100,300,135698,1,0,0:0:0:0:
29,237,135858,2,0,L|49:161,1,55.2499974708558,2|0,1:2|0:0,0:0:0:0:
38,89,136177,2,0,L|91:103,1,55.2499974708558,0|0,1:2|0:0,0:0:0:0:
173,54,136496,1,0,1:2:0:0:
173,54,136656,2,0,L|226:39,1,55.2499974708558,8|0,0:2|1:2,0:0:0:0:
140,180,136975,1,8,0:2:0:0:
242,249,137134,5,6,1:2:0:0:
242,249,137294,2,0,P|281:235|338:218,1,85,2|2,1:2|0:2,0:0:0:0:
469,284,137613,2,0,P|410:227|436:136,1,170,10|10,0:2|0:2,0:2:0:0:
275,91,138092,1,0,1:2:0:0:
339,0,138252,2,0,P|352:40|364:81,1,85,2|0,1:2|0:2,0:2:0:0:
237,201,138571,2,0,B|185:183|185:183|128:212|128:212|63:189,1,170,2|10,1:2|0:2,0:2:0:0:
0,130,139049,1,0,1:2:0:0:
117,104,139209,1,0,1:2:0:0:
193,279,139369,1,8,0:2:0:0:
7,323,139528,1,0,1:2:0:0:
112,365,139688,5,6,1:2:0:0:
112,365,139847,2,0,L|90:278,1,85,2|2,1:2|0:2,0:0:0:0:
279,374,140166,2,0,P|330:321|436:345,1,170,10|10,0:2|0:2,0:2:0:0:
512,231,140645,1,0,1:2:0:0:
395,151,140805,2,0,P|410:190|424:231,1,85,2|0,1:2|1:2,0:0:0:0:
512,86,141124,2,0,P|431:65|325:32,1,170,10|10,0:2|0:2,0:2:0:0:
173,77,141603,1,0,1:2:0:0:
255,160,141762,1,2,1:2:0:0:
125,316,141922,1,10,0:2:0:0:
43,233,142081,1,0,1:2:0:0:
234,283,142241,5,6,1:2:0:0:
234,283,142400,2,0,P|273:272|320:263,1,85,2|2,1:2|1:2,0:0:0:0:
169,384,142720,2,0,P|154:310|127:202,1,170,10|8,0:2|0:2,0:2:0:0:
210,114,143198,1,2,1:2:0:0:
140,10,143358,2,0,P|127:51|112:91,1,85,2|2,1:2|1:2,0:0:0:0:
238,217,143677,2,0,B|286:223|327:175|293:178|331:131|383:142,1,170,2|8,1:2|0:2,0:2:0:0:
502,206,144156,1,2,1:2:0:0:
391,328,144315,1,2,1:2:0:0:
498,357,144475,1,10,0:2:0:0:
400,234,144635,1,2,1:2:0:0:
241,308,144794,5,0,1:2:0:0:
241,308,144954,2,0,P|228:271|207:225,1,85,0|2,1:2|0:2,0:0:0:0:
46,117,145273,2,0,B|99:102|99:102|132:49|132:49|195:33,1,170,10|10,0:2|0:2,0:2:0:0:
381,112,145752,1,0,1:2:0:0:
312,0,145911,2,0,P|293:41|278:84,1,85,0|0,1:2|0:2,0:0:0:0:
230,245,146230,1,10,0:2:0:0:
230,245,146390,1,0,0:0:0:0:
381,112,146549,1,10,0:2:0:0:
342,216,146709,1,0,1:2:0:0:
402,289,146868,1,0,1:2:0:0:
370,384,147028,1,8,0:2:0:0:
402,289,147188,1,0,1:2:0:0:
227,337,147347,6,0,L|152:324,1,42.5,0|0,1:2|0:0,0:0:0:0:
221,347,147507,2,0,L|146:334,1,42.5,0|0,1:2|0:0,0:0:0:0:
215,357,147666,2,0,L|140:344,1,42.5,0|0,1:2|0:0,0:0:0:0:
209,367,147826,2,0,L|134:354,1,42.5,0|0,1:2|0:0,0:0:0:0:
45,336,147985,5,14,0:2:0:0:
119,221,148145,1,2,1:2:0:0:
76,130,148305,1,2,1:2:0:0:
181,24,148464,2,0,P|244:1|321:61,1,170,2|2,1:2|1:2,0:2:0:0:
347,134,148863,1,0,1:2:0:0:
347,134,148943,1,8,0:2:0:0:
209,171,149102,2,0,P|221:134|243:84,1,85,2|0,1:2|0:2,0:2:0:0:
410,67,149422,6,0,P|426:105|440:146,1,85,2|2,1:2|0:2,0:2:0:0:
501,298,149741,1,2,1:2:0:0:
501,298,149820,1,0,1:2:0:0:
501,298,149900,1,8,0:2:0:0:
403,234,150060,1,2,1:2:0:0:
270,301,150219,2,0,P|223:301|183:269,1,85,2|0,0:2|1:2,0:0:0:0:
132,239,150459,1,0,1:2:0:0:
132,239,150539,5,10,0:2:0:0:
33,267,150698,1,2,1:2:0:0:
0,85,150858,1,2,1:2:0:0:
161,137,151017,2,0,B|215:124|215:124|265:153|265:153|323:140,1,170,2|2,1:2|1:2,0:2:0:0:
398,126,151416,1,0,1:2:0:0:
398,126,151496,1,8,0:2:0:0:
294,232,151656,2,0,B|252:240|252:240|212:219,1,85,2|0,1:2|0:2,0:0:0:0:
150,40,151975,6,0,P|124:129|95:221,1,170,2|2,1:2|1:2,0:2:0:0:
83,280,152374,1,0,1:2:0:0:
83,280,152453,1,8,0:2:0:0:
49,381,152613,1,2,1:2:0:0:
285,283,152773,1,10,0:2:0:0:
186,237,152932,1,0,1:2:0:0:
186,237,153012,1,0,1:2:0:0:
186,237,153092,5,10,0:2:0:0:
301,86,153251,1,0,1:2:0:0:
169,13,153411,5,10,0:2:0:0:
272,189,153570,1,0,1:2:0:0:
470,0,153730,5,10,0:2:0:0:
380,36,153890,1,0,1:2:0:0:
380,36,153969,1,0,1:2:0:0:
380,36,154049,5,10,0:2:0:0:
476,164,154209,1,0,1:2:0:0:
370,342,154368,5,10,0:2:0:0:
512,248,154528,1,0,1:2:0:0:
271,128,154687,5,10,0:2:0:0:
356,232,154847,1,0,1:2:0:0:
356,232,154927,1,0,1:2:0:0:
356,232,155007,5,10,0:2:0:0:
277,384,155166,1,0,1:2:0:0:
474,321,155326,5,10,0:2:0:0:
367,134,155485,1,0,1:2:0:0:
461,17,155645,5,10,0:2:0:0:
271,128,155805,1,0,1:2:0:0:
271,128,155885,1,0,1:2:0:0:
271,128,155964,5,10,0:2:0:0:
132,51,156124,1,0,1:2:0:0:
225,217,156283,5,10,0:2:0:0:
314,41,156443,1,0,1:2:0:0:
40,8,156602,5,10,0:2:0:0:
125,239,156762,1,0,1:2:0:0:
125,239,156842,1,0,1:2:0:0:
125,239,156922,5,10,0:2:0:0:
50,352,157081,1,0,1:2:0:0:
310,268,157241,5,10,0:2:0:0:
162,146,157400,1,0,1:2:0:0:
197,329,157560,5,8,0:2:0:0:
207,294,157639,1,8,0:2:0:0:
218,259,157719,1,8,0:2:0:0:
230,224,157799,1,8,0:2:0:0:
241,190,157879,1,8,0:2:0:0:
254,156,157958,1,8,0:2:0:0:
267,122,158038,1,8,0:2:0:0:
280,88,158118,1,8,0:2:0:0:
512,266,158358,5,10,0:2:0:0:
347,311,158517,1,2,1:2:0:0:
411,210,158677,1,2,1:2:0:0:
345,19,158836,5,10,0:2:0:0:
449,80,158996,1,2,1:2:0:0:
299,228,159156,1,2,1:2:0:0:
477,383,159315,5,10,0:2:0:0:
477,383,159634,5,10,0:2:0:0:
416,268,159794,1,2,1:2:0:0:
214,331,159953,1,2,1:2:0:0:
319,135,160113,5,10,0:2:0:0:
249,39,160273,1,2,1:2:0:0:
440,99,160432,1,10,0:2:0:0:
198,218,160592,5,6,1:2:0:0:
256,192,160672,12,0,166815,0:0:0:0:
17,106,167134,5,6,1:2:0:0:
142,16,167294,2,0,P|124:70|110:128,1,110.499994941712,2|8,0:2|0:2,0:2:0:0:
0,264,167612,1,2,0:2:0:0:
125,354,167772,2,0,P|107:300|93:242,1,110.499994941712,2|0,1:2|0:2,0:2:0:0:
227,111,168092,2,0,B|294:103|341:162|298:156|347:222|420:207,1,220.999989883423,8|0,0:2|1:2,0:2:0:0:
512,148,168570,5,2,0:2:0:0:
390,318,168730,1,10,0:2:0:0:
491,276,168890,1,2,0:2:0:0:
400,113,169049,1,2,1:2:0:0:
448,0,169209,1,2,0:2:0:0:
309,87,169368,1,10,0:2:0:0:
309,87,169528,1,2,0:2:0:0:
144,20,169687,5,2,1:2:0:0:
226,140,169847,2,0,L|202:258,1,110.499994941712,2|8,0:2|0:2,0:2:0:0:
133,30,170165,1,2,0:2:0:0:
51,150,170325,2,0,L|75:268,1,110.499994941712,2|0,1:2|0:2,0:2:0:0:
188,359,170644,2,0,P|233:331|299:346,1,110.499994941712,10|0,0:2|0:0,0:2:0:0:
431,296,170964,6,0,B|384:247|320:257|320:257|344:268|362:297,1,165.749992412568,0|0,1:2|0:0,0:2:0:0:
438,310,171283,2,0,P|456:259|481:205,1,110.499994941712,10|0,0:2|0:0,0:2:0:0:
422,66,171602,2,0,P|423:6|506:30,1,165.749992412568,0|0,1:2|0:0,0:2:0:0:
415,79,171921,2,0,P|362:89|316:58,1,110.499994941712,10|0,0:2|0:0,0:2:0:0:
163,110,172241,5,4,1:1:0:0:
163,110,172560,6,0,P|185:73|171:12,1,93.5000028533936,10|0,0:2|0:2,0:2:0:0:
77,8,172878,2,0,P|55:45|69:106,1,93.5000028533936,2|0,1:2|0:2,0:2:0:0:
142,208,173197,2,0,P|105:184|40:200,1,101.999996887207,10|0,0:2|0:2,0:2:0:0:
32,303,173516,2,0,P|69:327|134:311,1,101.999996887207,2|0,1:2|0:2,0:2:0:0:
238,238,173836,2,0,P|210:280|223:341,1,110.499994941712,10|0,0:2|0:2,0:2:0:0:
340,354,174155,2,0,P|368:312|355:251,1,110.499994941712,2|0,1:2|0:2,0:2:0:0:
200,91,174474,1,10,0:2:0:0:
238,238,174634,1,2,0:2:0:0:
433,70,174794,5,2,1:2:0:0:
305,132,174953,1,2,0:2:0:0:
396,336,175113,2,0,P|412:287|443:213,1,110.499994941712,8|0,0:2|0:0,0:2:0:0:
505,197,175352,1,0,0:0:0:0:
505,197,175432,2,0,P|456:196|407:133,1,110.499994941712,0|2,1:2|0:2,0:0:0:0:
326,29,175751,1,10,0:2:0:0:
326,29,175910,1,2,0:2:0:0:
148,145,176070,5,10,0:2:0:0:
240,271,176229,2,0,P|251:216|267:155,1,110.499994941712,10|0,0:2|1:2,0:2:0:0:
420,307,176548,2,0,P|388:335|319:322,1,110.499994941712,10|2,0:2|1:2,0:0:0:0:
145,234,176868,1,10,0:2:0:0:
212,348,177027,1,2,1:2:0:0:
7,376,177187,1,8,0:2:0:0:
7,376,177266,1,8,0:2:0:0:
7,376,177346,5,2,1:2:0:0:
60,200,177506,2,0,P|48:145|37:88,1,110.499994941712,2|8,0:2|0:2,0:2:0:0:
266,284,177825,1,2,0:2:0:0:
212,111,177985,2,0,P|224:56|235:-1,1,110.499994941712,2|0,1:2|0:2,0:2:0:0:
499,128,178304,6,0,P|401:117|356:180,1,165.749992412568,10|0,0:2|0:0,0:2:0:0:
346,243,178623,2,0,P|367:298|386:360,1,110.499994941712,0|0,1:2|0:2,0:2:0:0:
156,365,178942,2,0,P|181:288|204:187,1,165.749992412568,10|0,0:2|0:0,0:2:0:0:
268,156,179261,2,0,P|214:165|176:112,1,110.499994941712,0|0,1:2|0:2,0:2:0:0:
36,16,179580,2,0,P|54:74|72:134,1,110.499994941712,10|0,0:2|0:2,0:2:0:0:
8,340,179899,5,2,1:2:0:0:
165,283,180059,2,0,L|289:311,1,110.499994941712,2|8,0:2|0:2,0:2:0:0:
69,121,180378,1,2,0:2:0:0:
226,178,180538,2,0,L|350:150,1,110.499994941712,2|0,1:2|0:2,0:2:0:0:
192,10,180857,6,0,P|160:55|165:112,1,110.499994941712,10|0,0:2|0:0,0:2:0:0:
331,240,181176,2,0,B|444:214|444:214|400:259,1,165.749992412568,0|0,1:2|0:0,0:2:0:0:
320,255,181495,2,0,P|276:223|204:238,1,110.499994941712,10|0,0:2|0:2,0:2:0:0:
35,265,181814,2,0,P|95:266|67:349,1,165.749992412568,2|0,1:2|0:0,0:2:0:0:
20,262,182133,2,0,P|4:202|46:152,1,110.499994941712,10|0,0:2|0:2,0:2:0:0:
251,334,182453,6,0,B|309:317|309:317|355:241|355:241|424:223,1,220.999989883423,2|8,1:2|0:2,0:0:0:0:
512,373,182931,1,2,0:2:0:0:
414,316,183091,1,2,1:2:0:0:
498,127,183251,1,2,0:2:0:0:
344,210,183410,1,10,0:2:0:0:
241,150,183570,1,2,0:2:0:0:
69,209,183729,6,0,P|42:117|-5:-11,1,220.999989883423,0|8,1:2|0:2,0:2:0:0:
145,107,184208,1,2,0:2:0:0:
331,1,184368,1,2,1:2:0:0:
275,120,184527,1,2,0:2:0:0:
369,237,184687,2,0,L|479:210,1,110.499994941712,10|2,0:2|0:2,0:0:0:0:
270,360,185006,6,0,B|205:367|162:297|204:307|163:244|95:246,1,220.999989883423,0|8,1:2|0:2,0:2:0:0:
0,335,185485,1,10,0:2:0:0:
0,335,185564,1,8,0:2:0:0:
0,335,185644,1,2,1:2:0:0:
124,384,185804,1,10,0:2:0:0:
244,188,185963,2,0,P|207:151|139:181,1,110.499994941712,2|10,1:2|0:2,0:0:0:0:
184,238,186203,1,8,0:2:0:0:
184,238,186282,5,2,1:2:0:0:
17,71,186442,1,8,0:2:0:0:
54,61,186522,2,0,L|117:45,1,55.2499974708558,0|8,0:0|0:2,0:0:0:0:
273,0,186681,1,8,0:2:0:0:
234,14,186760,1,8,0:3:0:0:
208,41,186840,1,8,0:3:0:0:
196,78,186920,1,8,0:3:0:0:
203,117,187000,1,4,0:3:0:0:
225,149,187079,1,4,0:3:0:0:
259,167,187159,1,4,0:3:0:0:
299,168,187239,1,8,0:2:0:0:
176,243,187399,1,0,1:2:0:0:
430,306,187559,5,14,0:2:0:0:
307,381,187719,2,0,P|325:326|341:261,1,93.5000028533936,2|0,1:2|0:2,0:2:0:0:
486,150,188038,1,2,1:2:0:0:
363,75,188198,2,0,P|381:130|397:191,1,93.5000028533936,2|0,0:2|1:2,0:2:0:0:
242,300,188516,1,8,0:2:0:0:
242,300,188676,2,0,P|167:235|76:264,1,187.000005706787,0|0,1:2|1:2,0:2:0:0:
0,89,189155,6,0,P|42:124|109:111,1,93.5000028533936,0|0,0:0|1:2,0:0:0:0:
161,103,189394,1,0,1:2:0:0:
161,103,189474,1,8,0:2:0:0:
303,0,189634,1,8,0:2:0:0:
269,123,189793,2,0,P|285:177|299:238,1,93.5000028533936,8|0,0:2|1:2,0:0:0:0:
496,184,190112,5,14,0:2:0:0:
356,120,190272,2,0,P|300:108|257:134,1,93.5000028533936,2|0,1:2|0:2,0:2:0:0:
171,226,190591,1,2,1:2:0:0:
144,82,190751,2,0,P|117:31|76:12,1,93.5000028533936,2|0,0:2|1:2,0:2:0:0:
0,194,191070,2,0,P|54:177|117:165,1,93.5000028533936,10|0,0:2|0:2,0:2:0:0:
246,336,191389,6,0,P|145:352|90:263,1,191.250007295609,2|0,0:2|1:2,0:2:0:0:
91,262,191947,1,0,1:2:0:0:
91,262,192027,1,10,0:2:0:0:
270,153,192266,1,8,0:2:0:0:
84,35,192506,1,8,0:2:0:0:
150,161,192665,5,6,1:2:0:0:
150,161,192825,2,0,P|163:121|186:65,1,85,0|2,1:2|0:2,0:0:0:0:
329,19,193144,2,0,P|352:104|375:202,1,170,8|10,0:2|0:2,0:0:0:0:
233,286,193623,1,2,1:2:0:0:
302,384,193783,2,0,P|316:340|329:299,1,85,2|0,1:2|0:0,0:2:0:0:
229,166,194102,2,0,B|182:166|146:214|175:211|144:258|95:256,1,170,2|10,1:2|0:2,0:0:0:0:
0,193,194580,1,0,1:2:0:0:
129,61,194740,1,2,1:2:0:0:
10,12,194900,1,8,0:2:0:0:
87,169,195059,1,6,1:2:0:0:
294,59,195219,5,2,1:2:0:0:
294,59,195378,2,0,P|250:61|210:86,1,85,2|2,1:2|0:2,0:0:0:0:
340,237,195697,2,0,B|390:253|390:253|426:311|426:311|488:331,1,170,10|10,0:2|0:2,0:0:0:0:
250,369,196176,1,2,1:2:0:0:
324,243,196336,2,0,P|308:204|294:164,1,85,2|0,1:2|0:2,0:0:0:0:
433,54,196655,2,0,P|353:42|247:22,1,170,10|10,0:2|0:2,0:0:0:0:
145,2,197134,1,0,3:0:0:0:
208,115,197293,1,2,1:2:0:0:
71,287,197453,1,8,0:2:0:0:
8,174,197612,1,6,1:2:0:0:
209,249,197772,5,2,1:2:0:0:
209,249,197931,2,0,P|250:235|297:223,1,85,2|2,1:2|0:2,0:0:0:0:
434,301,198251,2,0,P|377:231|421:143,1,170,8|10,0:2|0:2,0:0:0:0:
502,27,198729,1,2,1:2:0:0:
384,55,198889,2,0,P|344:40|303:28,1,85,2|0,1:2|0:0,0:2:0:0:
138,110,199208,2,0,B|152:164|152:164|206:197|206:197|222:263,1,170,2|10,1:2|0:2,0:0:0:0:
79,373,199687,1,0,1:2:0:0:
133,254,199846,1,2,1:2:0:0:
0,164,200006,1,8,0:2:0:0:
46,284,200166,1,6,1:2:0:0:
138,110,200325,5,2,1:2:0:0:
138,110,200485,2,0,P|150:62|157:22,1,85,2|2,1:2|0:2,0:0:0:0:
305,166,200804,2,0,P|367:112|443:147,1,170,10|10,0:2|0:2,0:0:0:0:
510,292,201283,1,2,1:2:0:0:
396,377,201442,2,0,P|409:337|423:288,1,85,0|0,1:2|0:0,0:0:0:0:
209,177,201761,2,0,P|235:268|259:360,1,170,10|10,0:2|0:2,0:0:0:0:
380,205,202240,1,0,0:0:0:0:
270,254,202399,1,2,1:2:0:0:
70,164,202559,1,8,0:2:0:0:
144,266,202719,1,6,1:2:0:0:
22,359,202878,5,2,1:2:0:0:
22,359,203038,2,0,P|35:316|49:268,1,85,2|2,1:2|0:2,0:0:0:0:
30,70,203357,2,0,P|57:119|161:118,1,170,8|10,0:2|0:2,0:0:0:0:
282,4,203836,1,2,1:2:0:0:
255,119,203995,1,2,1:2:0:0:
228,234,204155,1,0,1:0:0:0:
364,367,204314,2,0,P|344:282|324:179,1,170,10|2,0:2|1:2,0:0:0:0:
497,106,204793,1,8,0:2:0:0:
497,106,204953,1,10,0:2:0:0:
424,0,205112,2,0,P|412:42|401:99,1,85,8|0,0:2|1:2,0:0:0:0:
495,262,205431,5,14,0:2:0:0:
382,176,205591,1,0,1:2:0:0:
197,240,205751,1,8,0:2:0:0:
49,179,205910,2,0,P|83:155|135:159,1,85,10|0,0:2|1:2,0:0:0:0:
283,273,206229,1,8,0:2:0:0:
83,322,206389,2,0,P|96:276|115:221,1,85,2|0,1:2|1:2,0:2:0:0:
98,11,206708,5,8,0:2:0:0:
118,47,206787,1,8,0:0:0:0:
153,71,206867,1,2,1:2:0:0:
195,74,206947,1,0,1:2:0:0:
233,58,207027,2,0,P|271:39|321:25,1,85,8|0,0:2|1:2,0:0:0:0:
107,240,207346,1,10,0:2:0:0:
315,327,207506,1,8,0:2:0:0:
180,384,207665,2,0,P|193:342|206:292,1,85,10|0,0:2|1:2,0:0:0:0:
109,134,207985,5,6,1:2:0:0:
203,217,208144,1,0,1:2:0:0:
448,119,208304,1,8,0:2:0:0:
329,44,208463,2,0,P|353:128|376:225,1,170,6|0,1:2|1:2,0:2:0:0:
412,383,208942,1,6,1:2:0:0:
504,254,209102,1,8,0:2:0:0:
303,345,209261,1,8,0:2:0:0:
152,259,209421,2,0,B|105:253|63:302|100:297|60:345|12:343,1,170,0|0,1:2|1:2,0:2:0:0:
158,384,209899,5,8,0:2:0:0:
32,216,210059,1,0,1:2:0:0:
109,20,210219,1,8,0:2:0:0:
240,184,210378,1,6,1:2:0:0:
256,192,210458,12,0,219474,0:2:0:0:
