osu file format v14

[General]
AudioFilename: audio.mp3
AudioLeadIn: 0
PreviewTime: 167055
Countdown: 0
SampleSet: Soft
StackLeniency: 0.7
Mode: 0
LetterboxInBreaks: 0
WidescreenStoryboard: 0

[Editor]
DistanceSpacing: 1.4
BeatDivisor: 3
GridSize: 32
TimelineZoom: 2.899999

[Metadata]
Title:Answer is near
TitleUnicode:アンサイズニア
Artist:ONE OK ROCK
ArtistUnicode:ONE OK ROCK
Creator:Nevo
Version:Mordred's Extra
Source:
Tags:mordred smokelind armin a_r_m_i_n soop so0p frostwich synderes Kuki1537 ook japanese rock smoke kudosu reform kujinn
BeatmapID:2323878
BeatmapSetID:1110954

[Difficulty]
HPDrainRate:7
CircleSize:4
OverallDifficulty:8
ApproachRate:9
SliderMultiplier:1.7
SliderTickRate:1

[Events]
//Background and Video events
0,0,"itstheoldonebuthigherresolution.jpg",0,0
//Break Periods
2,23717,32811
2,64568,73981
2,116909,126322
2,160792,166534
//Storyboard Layer 0 (Background)
//Storyboard Layer 1 (Fail)
//Storyboard Layer 2 (Pass)
//Storyboard Layer 3 (Foreground)
//Storyboard Layer 4 (Overlay)
//Storyboard Sound Samples

[TimingPoints]
13305,319.148936170213,4,2,5,70,1,0
33411,-100,4,2,5,60,0,0
43943,-83.3333333333333,4,2,5,80,0,1
47693,-83.3333333333333,4,2,5,5,0,1
47773,-83.3333333333333,4,2,5,80,0,1
48331,-83.3333333333333,4,2,5,5,0,1
48411,-83.3333333333333,4,2,5,80,0,1
57666,-66.6666666666667,4,2,5,80,0,1
57985,-83.3333333333333,4,2,5,80,0,1
59262,-125,4,2,5,80,0,1
63092,-100,4,2,5,80,0,1
64368,-100,4,2,5,80,0,0
74581,-166.666666666667,4,2,5,50,0,0
74741,-166.666666666667,4,2,5,5,0,0
74820,-166.666666666667,4,2,5,50,0,0
74980,-166.666666666667,4,2,5,5,0,0
75060,-166.666666666667,4,2,5,50,0,0
76656,-166.666666666667,4,2,6,50,0,0
77134,-166.666666666667,4,2,5,50,0,0
77294,-166.666666666667,4,2,5,5,0,0
77373,-166.666666666667,4,2,5,50,0,0
77533,-166.666666666667,4,2,5,5,0,0
77613,-166.666666666667,4,2,5,50,0,0
79209,-166.666666666667,4,2,6,50,0,0
79687,-166.666666666667,4,2,5,50,0,0
79847,-166.666666666667,4,2,5,5,0,0
79926,-166.666666666667,4,2,5,50,0,0
80086,-166.666666666667,4,2,5,5,0,0
80166,-166.666666666667,4,2,5,50,0,0
81762,-166.666666666667,4,2,6,50,0,0
82241,-166.666666666667,4,2,5,50,0,0
84315,-166.666666666667,4,2,6,50,0,0
84794,-100,4,2,5,60,0,0
95007,-100,4,2,5,40,0,0
95964,-100,4,2,5,70,0,0
96004,-100,4,2,5,5,0,0
96283,-83.3333333333333,4,2,5,80,0,1
100033,-83.3333333333333,4,2,5,5,0,1
100113,-83.3333333333333,4,2,5,80,0,1
100672,-83.3333333333333,4,2,5,5,0,1
100751,-83.3333333333333,4,2,5,80,0,1
110007,-66.6666666666667,4,2,5,80,0,1
110326,-83.3333333333333,4,2,5,80,0,1
111602,-125,4,2,5,80,0,1
116283,-125,4,2,5,70,0,1
116496,-125,4,2,5,60,0,1
116709,-181.818181818181,4,2,5,50,0,0
132028,-133.333333333333,4,2,5,60,0,0
137134,-100,4,2,5,70,0,0
147347,-100,4,2,5,50,0,0
147985,-100,4,2,5,70,0,0
151017,-83.3333333333333,4,2,5,70,0,0
151656,-100,4,2,5,70,0,0
153092,-83.3333333333333,4,2,5,70,0,0
167134,319.148936170213,4,2,5,60,1,0
167134,-76.9230769230769,4,2,5,80,0,1
170884,-76.9230769230769,4,2,5,5,0,1
170963,-76.9230769230769,4,2,5,80,0,1
171522,-76.9230769230769,4,2,5,5,0,1
171602,-76.9230769230769,4,2,5,80,0,1
178543,-76.9230769230769,4,2,5,5,0,1
178623,-76.9230769230769,4,2,5,80,0,1
179181,-76.9230769230769,4,2,5,5,0,1
179261,-76.9230769230769,4,2,5,80,0,1
181096,-76.9230769230769,4,2,5,5,0,1
181176,-76.9230769230769,4,2,5,80,0,1
187559,-100,4,2,5,80,0,1
191389,-166.666666666667,4,2,5,70,0,0
192665,-100,4,2,5,70,0,0
205431,-76.9230769230769,4,2,5,80,0,0
211814,-76.9230769230769,4,2,5,65,0,0
213091,-76.9230769230769,4,2,5,60,0,0
213729,-76.9230769230769,4,2,5,55,0,0
214368,-76.9230769230769,4,2,5,50,0,0
215006,-76.9230769230769,4,2,5,45,0,0
215644,-76.9230769230769,4,2,5,40,0,0
216282,-76.9230769230769,4,2,5,35,0,0
216921,-76.9230769230769,4,2,5,30,0,0
217559,-76.9230769230769,4,2,5,25,0,0
218197,-76.9230769230769,4,2,5,20,0,0
218836,-76.9230769230769,4,2,5,10,0,0
219474,-100,4,2,5,5,0,0

[Colours]
Combo1 : 255,94,94
Combo2 : 128,128,255
Combo3 : 255,153,51

[HitObjects]
64,320,13304,5,6,1:2:0:0:
64,320,13464,1,0,1:2:0:0:
0,224,13624,2,0,L|16:135,1,85,2|8,0:2|0:2,0:2:0:0:
160,32,13943,1,2,0:2:0:0:
87,86,14102,1,10,0:2:0:0:
160,224,14262,1,2,1:2:0:0:
160,223,14422,2,0,P|241:224|287:291,1,170,2|2,1:2|1:2,0:2:0:0:
480,192,14900,1,2,0:2:0:0:
378,362,15060,2,0,L|391:278,1,85,10|0,0:2|1:2,0:2:0:0:
493,108,15379,2,0,L|480:192,1,85,2|8,1:2|0:2,0:2:0:0:
355,45,15698,5,6,1:2:0:0:
319,124,15858,1,2,1:2:0:0:
406,116,16017,1,2,1:2:0:0:
268,52,16177,2,0,P|226:62|184:67,1,85,2|8,0:2|0:2,0:2:0:0:
32,32,16496,1,2,0:2:0:0:
124,1,16656,1,10,0:2:0:0:
14,127,16815,1,2,1:2:0:0:
14,127,16975,2,0,P|-4:209|-16:294,1,170,2|10,1:2|0:2,0:2:0:0:
160,384,17453,1,2,0:2:0:0:
92,209,17613,2,0,P|95:251|102:293,1,85,10|0,0:2|1:2,0:2:0:0:
320,288,17932,2,0,P|282:269|242:254,1,85,2|8,1:2|0:2,0:2:0:0:
14,127,18251,5,6,1:2:0:0:
113,102,18411,1,2,1:2:0:0:
210,78,18570,1,2,1:2:0:0:
336,208,18730,2,0,P|377:215|419:220,1,85,2|8,0:2|0:2,0:2:0:0:
512,80,19049,1,2,0:2:0:0:
504,177,19209,1,10,0:2:0:0:
443,11,19368,1,2,1:2:0:0:
443,11,19528,2,0,L|268:-1,1,170,2|2,1:2|1:2,0:2:0:0:
64,64,20007,1,2,0:2:0:0:
224,160,20166,2,0,L|218:72,1,85,10|0,0:2|1:2,0:2:0:0:
32,160,20485,2,0,L|37:244,1,85,2|8,1:2|0:2,0:2:0:0:
181,379,20805,5,6,1:2:0:0:
215,294,20964,1,2,1:2:0:0:
125,307,21124,1,2,1:2:0:0:
271,366,21283,2,0,P|313:360|354:350,1,85,2|8,0:2|0:2,0:2:0:0:
480,224,21602,1,2,0:2:0:0:
461,336,21762,1,10,0:2:0:0:
288,256,21922,1,2,1:2:0:0:
287,255,22081,2,0,P|269:170|260:88,1,170,2|10,1:2|0:2,0:2:0:0:
448,0,22560,5,2,0:2:0:0:
511,162,22719,1,0,1:2:0:0:
455,228,22879,1,8,0:3:0:0:
375,196,23039,1,10,0:3:0:0:
380,110,23198,1,4,0:3:0:0:
463,88,23358,1,4,0:3:0:0:
490,331,23517,1,4,1:2:0:0:
32,64,33411,5,8,0:2:0:0:
454,265,33730,2,0,L|442:349,2,85,0|0|8,1:2|1:2|0:2,0:2:0:0:
512,160,34209,1,2,0:2:0:0:
351,224,34368,2,0,P|311:239|269:249,1,85,2|2,1:2|0:2,0:2:0:0:
430,135,34687,2,0,P|470:150|512:160,1,85,10|2,0:2|0:2,0:2:0:0:
298,6,35007,6,0,P|235:56|255:134,1,170,2|8,0:2|0:2,0:2:0:0:
37,164,35485,2,0,P|28:124|15:82,1,85,2|0,0:2|1:2,0:2:0:0:
160,224,35805,2,0,P|147:264|138:305,1,85,0|8,1:2|0:2,0:2:0:0:
296,368,36124,1,2,0:2:0:0:
296,368,36203,1,0,0:2:0:0:
296,368,36283,1,0,1:2:0:0:
192,384,36443,1,0,1:2:0:0:
335,273,36602,2,0,L|431:307,1,85,10|0,0:2|0:2,0:2:0:0:
203,57,36922,2,0,L|259:218,1,170,2|8,1:2|0:2,0:2:0:0:
258,217,37400,1,2,0:2:0:0:
400,80,37560,6,0,P|438:62|479:51,1,85,2|0,0:2|1:2,0:2:0:0:
512,224,37879,2,0,P|473:206|432:195,1,85,10|0,0:2|0:2,0:2:0:0:
283,270,38198,2,0,P|265:308|254:349,1,85,2|0,1:2|1:2,0:2:0:0:
427,382,38517,2,0,P|409:343|398:302,1,85,10|0,0:2|0:2,0:2:0:0:
400,80,38836,1,2,1:2:0:0:
400,80,38996,1,0,1:2:0:0:
224,192,39156,6,0,L|140:177,1,85,10|0,0:2|0:2,0:2:0:0:
0,80,39475,1,2,1:2:0:0:
0,80,39634,2,0,L|83:65,1,85,2|8,0:2|0:2,0:2:0:0:
256,0,39953,1,2,0:2:0:0:
256,0,40113,2,0,L|271:83,1,85,2|0,0:2|1:2,0:2:0:0:
336,256,40432,1,10,0:2:0:0:
336,256,40592,2,0,L|253:271,1,85,2|0,0:2|1:2,0:2:0:0:
48,368,40911,2,0,L|131:353,1,85,2|8,1:2|0:2,0:2:0:0:
384,384,41230,5,2,1:2:0:0:
384,384,41310,1,0,1:2:0:0:
384,384,41390,1,0,1:2:0:0:
480,352,41549,1,0,1:2:0:0:
311,302,41709,2,0,L|292:201,1,85,10|0,0:2|0:2,0:2:0:0:
492,262,42028,2,0,L|511:161,1,85,2|0,0:2|0:2,0:2:0:0:
384,32,42347,1,10,0:2:0:0:
384,32,42507,1,2,0:2:0:0:
384,32,43624,6,0,L|378:5,1,21.25,8|8,0:2|0:2,0:2:0:0:
32,96,43943,5,6,1:2:0:0:
192,256,44102,2,0,L|316:270,1,101.999996887207,2|8,0:2|0:2,0:2:0:0:
32,288,44422,1,2,0:2:0:0:
192,128,44581,2,0,L|316:114,1,101.999996887207,2|0,1:2|0:2,0:2:0:0:
512,321,44900,2,0,P|470:234|374:239,1,203.999993774414,8|0,0:2|1:2,0:2:0:0:
224,384,45379,5,2,0:2:0:0:
32,256,45539,1,10,0:2:0:0:
238,153,45698,1,2,0:2:0:0:
90,375,45858,1,2,1:2:0:0:
105,145,46018,1,2,0:2:0:0:
297,272,46177,2,0,L|413:291,1,101.999996887207,10|0,0:2|0:2,0:2:0:0:
512,19,46496,5,2,1:2:0:0:
352,179,46655,2,0,L|228:193,1,101.999996887207,2|8,0:2|0:2,0:2:0:0:
512,224,46975,1,2,0:2:0:0:
352,64,47134,2,0,L|228:50,1,101.999996887207,2|0,1:2|0:2,0:2:0:0:
0,279,47453,6,0,B|48:299|48:299|153:276,1,152.999995330811,10|0,0:2|0:2,0:2:0:0:
175,208,47773,2,0,L|183:95,1,101.999996887207,0|0,1:2|0:2,0:2:0:0:
480,0,48092,2,0,B|500:47|500:47|477:153,1,152.999995330811,10|0,0:2|0:2,0:2:0:0:
409,175,48412,2,0,L|296:183,1,101.999996887207,0|0,1:2|0:2,0:2:0:0:
59,32,48730,2,0,L|261:58,1,203.999993774414,8|4,0:2|1:1,0:2:0:0:
261,58,49368,6,0,P|245:108|237:157,1,101.999996887207,10|0,0:2|0:2,0:2:0:0:
384,256,49687,2,0,P|375:205|360:157,1,101.999996887207,2|0,1:2|0:2,0:2:0:0:
160,256,50007,2,0,P|110:272|60:279,1,101.999996887207,10|0,0:2|0:2,0:2:0:0:
324,347,50326,2,0,P|374:363|423:370,1,101.999996887207,2|0,1:2|0:2,0:2:0:0:
512,160,50645,2,0,P|461:167|413:182,1,101.999996887207,10|0,0:2|0:2,0:2:0:0:
224,384,50964,2,0,P|232:333|247:285,1,101.999996887207,2|0,1:2|0:2,0:2:0:0:
368,80,51283,5,10,0:2:0:0:
483,252,51443,1,2,0:2:0:0:
488,26,51602,1,2,1:2:0:0:
307,183,51762,1,2,0:2:0:0:
192,32,51922,2,0,L|76:21,1,101.999996887207,8|0,0:2|0:2,0:2:0:0:
0,96,52161,1,8,0:2:0:0:
8,125,52241,1,0,1:2:0:0:
250,108,52400,1,8,0:2:0:0:
160,288,52560,6,0,L|177:187,1,101.999996887207,10|2,1:2|0:2,0:2:0:0:
279,100,52799,1,8,0:2:0:0:
308,92,52879,1,10,0:2:0:0:
363,183,53039,1,10,0:2:0:0:
392,175,53119,1,8,0:2:0:0:
447,266,53278,1,8,0:2:0:0:
476,258,53358,2,0,L|526:267,1,50.9999984436036,10|8,0:2|0:2,0:2:0:0:
381,370,53517,1,10,0:3:0:0:
345,383,53596,1,8,0:3:0:0:
308,377,53676,1,6,0:3:0:0:
278,354,53756,1,4,0:3:0:0:
264,318,53836,2,0,P|266:292|274:262,1,50.9999984436036,10|0,0:2|0:2,0:2:0:0:
371,232,53996,2,0,P|369:207|363:183,1,50.9999984436036,2|0,1:2|0:2,0:2:0:0:
288,32,54156,5,14,0:2:0:0:
160,256,54315,2,0,L|43:275,1,101.999996887207,2|0,1:2|0:2,0:2:0:0:
146,0,54634,1,10,0:2:0:0:
274,224,54794,2,0,L|391:243,1,101.999996887207,2|0,1:2|1:2,0:2:0:0:
46,155,55113,6,0,L|22:43,1,101.999996887207,12|0,0:2|1:2,0:2:0:0:
467,322,55432,2,0,L|491:210,1,101.999996887207,12|2,0:2|1:2,0:2:0:0:
448,32,55751,1,2,0:2:0:0:
304,155,55911,1,10,0:2:0:0:
493,141,56070,1,2,1:2:0:0:
332,42,56230,1,2,1:2:0:0:
276,267,56390,2,0,P|227:282|176:290,1,101.999996887207,10|0,0:2|1:2,0:2:0:0:
64,224,56709,5,10,0:2:0:0:
254,366,56868,2,0,L|355:375,1,101.999996887207,2|0,1:2|0:2,0:2:0:0:
81,328,57187,1,10,0:2:0:0:
271,186,57347,2,0,L|372:176,1,101.999996887207,2|0,1:2|0:2,0:2:0:0:
104,74,57666,6,0,B|79:46|29:57|29:57|8:132|64:224,1,255.000009727478,14|10,0:2|0:2,0:2:0:0:
112,235,58065,1,8,0:2:0:0:
161,248,58145,1,8,0:2:0:0:
210,261,58225,1,8,0:2:0:0:
259,274,58305,2,0,L|309:269,1,50.9999984436036,10|8,0:3|0:3,0:2:0:0:
500,147,58464,1,8,0:3:0:0:
476,112,58543,1,8,0:3:0:0:
438,94,58624,1,6,0:3:0:0:
396,98,58703,1,4,0:3:0:0:
362,124,58783,1,4,0:3:0:0:
347,163,58862,1,4,0:3:0:0:
353,204,58943,1,10,0:2:0:0:
464,16,59102,1,2,1:2:0:0:
512,240,59262,5,12,0:2:0:0:
512,240,59422,2,0,L|494:380,2,136,0|0|0,1:2|1:2|1:2,0:2:0:0:
240,42,60219,1,8,0:2:0:0:
240,42,60379,2,0,L|258:182,2,136,0|0|0,1:2|1:2|1:2,0:2:0:0:
240,42,61097,1,0,1:2:0:0:
240,42,61177,5,8,0:2:0:0:
216,213,61336,1,8,0:2:0:0:
192,384,61496,1,8,0:2:0:0:
118,286,61656,5,2,1:2:0:0:
384,64,61815,1,14,0:2:0:0:
384,64,61975,2,0,L|533:43,1,136,0|0,1:2|1:2,0:2:0:0:
432,240,62453,2,0,L|357:229,1,68,2|0,0:2|1:2,0:2:0:0:
364,230,62693,1,0,1:2:0:0:
364,230,62773,1,10,0:2:0:0:
512,192,62932,1,0,1:2:0:0:
344,321,63092,6,0,P|270:229|346:139,1,255,2|0,0:2|1:2,0:2:0:0:
346,139,63650,1,0,1:2:0:0:
346,139,63730,1,10,0:2:0:0:
32,256,63969,1,8,0:2:0:0:
256,384,64209,1,8,0:2:0:0:
208,240,64368,5,6,1:2:0:0:
42,306,74581,6,0,L|36:255,1,50.9999984436036,4|0,1:1|0:2,0:2:0:0:
66,223,74820,2,0,L|60:172,1,50.9999984436036,0|0,1:2|0:2,0:2:0:0:
83,132,75060,1,0,1:2:0:0:
145,28,75219,2,0,P|194:39|245:42,1,101.999996887207,8|0,0:2|0:2,0:2:0:0:
320,128,75698,1,0,0:2:0:0:
320,128,75778,1,0,0:2:0:0:
320,128,75858,2,0,P|270:139|219:142,1,101.999996887207,0|0,0:2|0:2,0:2:0:0:
219,142,76336,1,0,1:2:0:0:
480,224,76496,1,8,0:2:0:0:
480,224,76656,2,0,L|495:119,1,101.999996887207,2|0,1:3|0:2,0:2:0:0:
384,288,77134,6,0,L|333:293,1,50.9999984436036,2|0,1:2|0:2,0:2:0:0:
303,327,77374,2,0,L|252:332,1,50.9999984436036,0|0,1:2|0:2,0:2:0:0:
222,366,77613,1,0,1:2:0:0:
32,288,77773,2,0,L|132:306,1,101.999996887207,8|0,0:2|0:2,0:2:0:0:
224,192,78251,1,0,0:2:0:0:
224,192,78331,1,0,0:2:0:0:
224,192,78411,2,0,L|123:210,1,101.999996887207,0|0,0:2|0:2,0:2:0:0:
123,210,78890,1,0,1:2:0:0:
288,352,79049,1,8,0:2:0:0:
288,352,79209,2,0,P|338:361|388:367,1,101.999996887207,2|0,0:3|0:2,0:2:0:0:
496,336,79687,6,0,L|502:285,1,50.9999984436036,0|0,1:2|0:2,0:2:0:0:
472,253,79927,2,0,L|478:202,1,50.9999984436036,0|0,1:2|0:2,0:2:0:0:
455,162,80166,1,0,1:2:0:0:
512,32,80326,1,10,0:2:0:0:
512,32,80645,1,2,0:2:0:0:
384,224,80964,2,0,P|333:232|282:236,1,101.999996887207,0|0,0:2|0:2,0:2:0:0:
282,236,81443,1,0,1:2:0:0:
192,32,81602,1,8,0:2:0:0:
288,0,81762,2,0,L|271:115,1,101.999996887207,2|0,1:3|0:2,0:2:0:0:
192,224,82241,5,2,1:2:0:0:
64,96,82480,1,0,1:2:0:0:
18,271,82719,1,0,1:2:0:0:
91,197,82879,5,8,0:2:0:0:
219,325,83118,1,0,1:2:0:0:
265,150,83357,1,0,1:2:0:0:
192,224,83517,5,2,1:2:0:0:
238,49,83756,1,0,1:2:0:0:
366,177,83996,1,2,1:2:0:0:
64,96,84315,1,2,0:3:0:0:
64,96,84794,5,4,1:1:0:0:
64,96,84953,1,0,1:2:0:0:
127,191,85113,2,0,P|169:201|211:204,1,85,10|0,0:2|0:2,0:2:0:0:
352,64,85432,2,0,P|309:66|268:76,1,85,2|0,1:2|0:2,0:2:0:0:
324,293,85751,2,0,P|333:251|336:209,1,85,10|0,0:2|0:2,0:2:0:0:
74,354,86070,6,0,L|243:336,1,170,2|10,0:2|0:2,0:2:0:0:
448,384,86549,1,10,0:3:0:0:
448,384,86629,1,8,0:3:0:0:
448,384,86709,1,8,0:3:0:0:
505,279,86868,2,0,L|494:194,1,85,2|8,0:2|0:2,0:2:0:0:
388,16,87187,5,2,0:2:0:0:
379,96,87347,1,0,1:2:0:0:
453,64,87507,1,0,1:2:0:0:
383,288,87666,2,0,P|342:298|300:301,1,85,8|0,0:2|0:3,0:2:0:0:
272,291,87906,1,8,0:3:0:0:
244,281,87985,1,8,0:3:0:0:
173,197,88145,1,2,1:2:0:0:
89,268,88304,1,10,0:2:0:0:
160,352,88464,1,2,0:2:0:0:
328,210,88624,6,0,L|345:126,1,85,2|0,1:2|1:2,0:2:0:0:
89,268,88943,2,0,L|71:184,1,85,10|8,0:2|0:3,0:2:0:0:
240,16,89182,1,8,0:3:0:0:
240,16,89262,2,0,L|324:33,1,85,10|0,0:3|0:2,0:2:0:0:
512,256,89581,2,0,L|428:239,1,85,10|0,0:2|0:2,0:2:0:0:
256,288,89900,5,0,1:2:0:0:
256,288,90060,1,0,1:2:0:0:
188,198,90219,1,10,0:2:0:0:
166,356,90379,1,2,0:2:0:0:
324,378,90539,2,0,L|408:361,1,85,2|0,1:2|0:2,0:2:0:0:
480,224,90858,1,10,0:2:0:0:
512,384,91017,1,2,0:2:0:0:
297,288,91177,6,0,P|283:247|275:206,1,85,2|0,0:2|1:2,0:2:0:0:
288,32,91496,1,10,0:2:0:0:
96,96,91656,1,8,0:3:0:0:
96,96,91735,1,10,0:3:0:0:
96,96,91815,1,8,0:3:0:0:
296,117,91975,2,0,P|337:109|379:99,1,85,2|8,0:2|0:2,0:2:0:0:
512,224,92294,5,2,1:2:0:0:
512,224,92374,1,0,1:2:0:0:
512,224,92453,1,0,1:2:0:0:
416,192,92613,1,0,1:2:0:0:
384,288,92773,2,0,L|298:298,1,85,10|0,0:2|0:2,0:2:0:0:
379,99,93092,2,0,L|293:89,1,85,2|0,0:2|0:2,0:2:0:0:
176,176,93411,1,10,0:2:0:0:
176,176,93570,1,2,0:2:0:0:
32,32,93730,5,0,1:2:0:0:
48,144,94049,1,0,1:2:0:0:
64,256,94368,1,0,1:2:0:0:
80,368,94687,1,0,1:2:0:0:
250,320,95007,5,0,0:2:0:0:
232,292,95326,1,0,0:2:0:0:
204,310,95645,1,0,0:2:0:0:
222,338,95964,2,0,L|252:341,1,21.25,8|0,0:2|0:2,0:2:0:0:
480,64,96283,5,6,1:2:0:0:
353,244,96443,2,0,L|337:344,1,101.999996887207,2|8,0:2|0:2,0:2:0:0:
469,48,96762,1,2,0:2:0:0:
289,175,96922,2,0,L|188:190,1,101.999996887207,2|0,1:2|0:2,0:2:0:0:
0,32,97241,2,0,P|95:34|127:124,1,203.999993774414,8|0,0:2|1:2,0:2:0:0:
0,320,97719,5,2,0:2:0:0:
42,111,97879,1,10,0:2:0:0:
98,295,98039,1,2,0:2:0:0:
47,87,98199,1,2,1:2:0:0:
176,230,98357,1,2,0:2:0:0:
287,32,98517,2,0,P|337:19|387:11,1,101.999996887207,10|0,0:2|0:2,0:2:0:0:
508,183,98836,5,2,1:2:0:0:
288,128,98996,2,0,L|178:108,1,101.999996887207,2|8,0:2|0:2,0:2:0:0:
511,202,99315,1,2,0:2:0:0:
256,288,99475,2,0,L|155:306,1,101.999996887207,0|0,1:2|0:2,0:2:0:0:
9,37,99794,6,0,B|50:67|50:67|33:167,1,152.999995330811,10|0,0:2|0:2,0:2:0:0:
0,240,100113,2,0,L|18:342,1,101.999996887207,0|0,1:2|0:2,0:2:0:0:
288,384,100432,2,0,B|247:354|247:354|263:253,1,152.999995330811,10|0,0:2|0:2,0:2:0:0:
297,181,100751,2,0,L|279:79,1,101.999996887207,0|0,1:2|0:2,0:2:0:0:
512,0,101070,2,0,L|486:202,1,203.999993774414,10|4,0:2|1:1,0:2:0:0:
486,202,101709,6,0,P|436:190|385:182,1,101.999996887207,10|0,0:2|0:2,0:2:0:0:
192,320,102028,2,0,P|242:312|292:300,1,101.999996887207,2|0,1:2|0:2,0:2:0:0:
128,160,102347,2,0,P|108:112|96:63,1,101.999996887207,10|0,0:2|0:2,0:2:0:0:
353,5,102666,2,0,P|341:54|321:101,1,101.999996887207,2|0,1:2|0:2,0:2:0:0:
374,310,102985,2,0,L|474:328,1,101.999996887207,10|0,0:2|0:2,0:2:0:0:
207,232,103305,2,0,L|107:250,1,101.999996887207,2|0,1:2|0:2,0:2:0:0:
0,368,103624,2,0,L|100:350,1,101.999996887207,10|0,1:2|0:2,0:2:0:0:
256,128,103943,5,2,1:2:0:0:
228,359,104102,1,2,0:2:0:0:
16,208,104262,2,0,L|0:104,1,101.999996887207,10|0,0:2|0:2,0:2:0:0:
68,12,104501,1,8,0:2:0:0:
97,4,104581,1,0,1:2:0:0:
176,144,104741,1,10,0:2:0:0:
320,32,104900,6,0,L|430:47,1,101.999996887207,2|2,1:2|0:2,0:2:0:0:
504,119,105140,1,8,0:2:0:0:
512,148,105220,1,2,1:2:0:0:
416,192,105379,1,10,0:2:0:0:
424,221,105459,1,8,0:2:0:0:
328,265,105618,1,8,0:2:0:0:
336,294,105698,2,0,L|281:282,1,50.9999984436036,8|8,0:2|0:2,0:2:0:0:
62,319,105858,1,10,0:3:0:0:
80,351,105937,1,8,0:3:0:0:
113,370,106017,1,4,0:3:0:0:
151,369,106097,1,4,0:3:0:0:
182,347,106177,2,0,P|195:326|204:302,1,50.9999984436036,10|0,0:2|0:2,0:2:0:0:
128,224,106336,2,0,P|114:202|105:178,1,50.9999984436036,2|0,1:2|0:2,0:2:0:0:
160,0,106496,5,14,0:2:0:0:
320,160,106656,2,0,L|431:170,1,101.999996887207,2|0,1:2|0:2,0:2:0:0:
98,80,106975,1,10,0:2:0:0:
258,240,107134,2,0,L|369:250,1,101.999996887207,2|0,1:2|1:2,0:2:0:0:
502,14,107453,2,0,L|477:127,1,101.999996887207,12|0,0:2|1:2,0:2:0:0:
0,61,107773,2,0,L|25:174,1,101.999996887207,12|2,0:2|1:2,0:2:0:0:
128,352,108092,5,2,0:2:0:0:
149,155,108251,1,10,0:2:0:0:
10,307,108411,1,2,1:2:0:0:
163,133,108570,1,2,1:2:0:0:
253,339,108730,2,0,P|303:352|354:358,1,101.999996887207,10|0,0:2|0:2,0:2:0:0:
512,192,109049,5,10,0:2:0:0:
512,192,109209,2,0,P|461:198|411:210,1,101.999996887207,2|0,1:2|0:2,0:2:0:0:
129,32,109528,1,10,0:2:0:0:
129,32,109688,2,0,P|179:38|229:50,1,101.999996887207,2|0,1:2|1:2,0:2:0:0:
104,310,110007,6,0,B|79:338|29:327|29:327|8:252|64:160,1,255.000009727478,14|8,0:2|0:2,0:2:0:0:
112,147,110406,1,8,0:2:0:0:
161,134,110485,1,8,0:2:0:0:
210,121,110566,1,8,0:2:0:0:
259,108,110645,2,0,L|309:113,1,50.9999984436036,10|8,0:3|0:3,0:2:0:0:
500,237,110805,1,8,0:3:0:0:
476,272,110884,1,8,0:3:0:0:
438,290,110964,1,6,0:3:0:0:
396,286,111044,1,4,0:3:0:0:
362,260,111124,1,4,0:3:0:0:
347,221,111203,1,4,0:3:0:0:
353,180,111284,1,10,0:2:0:0:
512,96,111443,1,2,1:2:0:0:
398,375,111602,5,14,0:2:0:0:
398,375,111762,2,0,L|260:385,2,136,0|0|0,1:2|1:2|1:2,0:2:0:0:
122,351,112560,1,8,0:2:0:0:
122,351,112719,2,0,L|140:211,2,136,0|0|0,1:2|1:2|1:2,0:2:0:0:
122,351,113437,1,0,1:2:0:0:
122,351,113517,5,8,0:2:0:0:
98,180,113676,1,8,0:2:0:0:
74,9,113836,1,8,0:2:0:0:
0,107,113996,5,0,1:2:0:0:
288,32,114156,1,12,0:2:0:0:
288,32,114315,2,0,L|422:48,2,136,0|0|0,1:2|1:2|1:2,0:2:0:0:
288,32,115033,1,0,1:2:0:0:
288,32,115113,1,8,0:2:0:0:
224,128,115273,1,0,1:2:0:0:
399,153,115432,6,0,P|457:200|380:298,1,204,0|0,0:2|1:2,0:2:0:0:
403,296,115991,1,0,1:2:0:0:
403,296,116070,1,8,0:2:0:0:
224,224,116283,1,8,0:3:0:0:
128,288,116496,1,4,0:3:0:0:
48,256,116709,5,4,1:1:0:0:
51,151,126922,5,2,1:2:0:0:
20,67,127241,1,0,1:2:0:0:
104,36,127560,1,0,1:2:0:0:
133,120,127879,1,0,1:2:0:0:
461,151,128198,5,2,1:2:0:0:
492,67,128517,1,0,1:2:0:0:
408,36,128836,1,0,1:2:0:0:
379,120,129155,1,0,1:2:0:0:
83,210,129475,5,2,1:2:0:0:
40,323,129794,1,0,1:2:0:0:
155,367,130113,1,0,1:2:0:0:
198,254,130432,1,0,1:2:0:0:
428,210,130751,5,2,1:2:0:0:
471,323,131070,1,0,1:2:0:0:
357,367,131389,1,0,1:2:0:0:
314,254,131708,1,0,1:2:0:0:
128,96,132028,5,2,1:2:0:0:
160,320,132347,1,0,1:2:0:0:
384,288,132666,1,0,1:2:0:0:
352,64,132985,1,0,1:2:0:0:
81,170,133305,5,2,1:2:0:0:
234,366,133624,1,0,1:2:0:0:
430,213,133943,1,0,1:2:0:0:
277,17,134262,1,0,1:2:0:0:
79,267,134581,5,2,1:2:0:0:
331,368,134900,1,0,1:2:0:0:
432,116,135219,1,0,1:2:0:0:
180,15,135538,1,0,1:2:0:0:
131,358,135858,5,2,1:2:0:0:
422,316,136177,1,0,1:2:0:0:
380,25,136496,1,0,1:2:0:0:
256,192,136656,1,8,0:2:0:0:
89,67,136815,1,0,1:2:0:0:
256,192,136975,1,8,0:2:0:0:
32,288,137134,5,6,1:2:0:0:
32,288,137294,2,0,L|39:203,1,85,2|2,1:2|0:2,0:2:0:0:
258,46,137613,2,0,P|216:52|173:55,1,85,10|0,0:2|0:2,0:2:0:0:
416,128,137932,1,10,0:2:0:0:
288,288,138092,1,0,1:2:0:0:
288,288,138251,2,0,L|281:373,1,85,2|0,1:2|0:2,0:2:0:0:
382,355,138570,2,0,L|389:270,1,85,2|0,1:2|0:2,0:2:0:0:
128,32,138890,5,10,0:2:0:0:
160,128,139049,1,0,1:2:0:0:
160,128,139209,1,0,1:2:0:0:
462,74,139368,1,8,0:2:0:0:
386,17,139528,1,0,1:2:0:0:
330,93,139687,1,6,1:2:0:0:
406,150,139847,2,0,L|495:162,1,85,2|2,1:2|0:2,0:2:0:0:
279,365,140166,6,0,P|293:324|299:282,1,85,10|0,0:2|0:2,0:2:0:0:
128,32,140485,1,10,0:2:0:0:
67,131,140645,1,0,1:2:0:0:
89,122,140805,1,2,1:2:0:0:
86,145,140964,1,0,1:2:0:0:
0,352,141124,2,0,P|41:343|83:340,1,85,10|0,0:2|0:2,0:2:0:0:
383,294,141443,2,0,P|341:291|300:283,1,85,10|0,0:2|1:2,0:2:0:0:
480,96,141762,1,2,1:2:0:0:
512,320,141922,1,10,0:2:0:0:
512,320,142081,1,0,1:2:0:0:
320,96,142241,5,6,1:2:0:0:
333,125,142400,1,2,1:2:0:0:
352,100,142560,1,2,1:2:0:0:
282,325,142719,2,0,B|239:337|215:330|215:330|193:351|193:351|163:344|117:356,1,170,10|8,0:2|0:2,0:2:0:0:
4,157,143198,1,2,1:2:0:0:
35,167,143358,1,2,1:2:0:0:
11,188,143517,1,2,1:2:0:0:
192,32,143677,6,0,B|226:72|226:72|185:189,1,170,2|8,1:2|0:2,0:2:0:0:
352,352,144156,1,2,1:2:0:0:
192,320,144315,1,2,1:2:0:0:
416,249,144475,1,10,0:2:0:0:
480,352,144634,1,2,1:2:0:0:
512,96,144794,1,0,1:2:0:0:
512,96,144953,2,0,P|471:84|429:78,1,85,0|2,1:2|0:2,0:2:0:0:
128,320,145273,6,0,B|148:282|148:282|135:241,1,85,10|0,0:2|0:2,0:2:0:0:
16,16,145592,2,0,B|-4:54|-4:54|8:94,1,85,10|0,0:2|1:2,0:2:0:0:
206,187,145911,2,0,L|294:194,1,85,0|0,1:2|0:2,0:2:0:0:
510,31,146230,2,0,B|471:15|471:15|427:38,1,85,10|0,0:2|0:2,0:2:0:0:
352,256,146549,1,10,0:2:0:0:
449,300,146709,2,0,L|437:205,1,85,0|0,1:2|1:2,0:2:0:0:
288,64,147028,1,8,0:2:0:0:
224,320,147187,1,0,1:2:0:0:
128,256,147347,5,0,1:2:0:0:
125,234,147507,1,0,1:2:0:0:
122,212,147666,1,0,1:2:0:0:
119,191,147826,1,0,1:2:0:0:
32,352,147985,5,14,0:2:0:0:
256,192,148145,1,2,1:2:0:0:
32,96,148305,1,2,1:2:0:0:
192,320,148464,2,0,B|264:332|264:332|290:358|290:358|349:368,1,170,2|2,1:2|1:2,0:2:0:0:
349,368,148863,1,0,1:2:0:0:
349,368,148943,1,8,0:2:0:0:
121,384,149102,2,0,L|104:300,1,85,2|0,1:2|0:2,0:2:0:0:
337,284,149422,2,0,L|353:200,1,85,2|2,1:2|0:2,0:2:0:0:
192,32,149741,5,2,1:2:0:0:
192,32,149820,1,0,1:2:0:0:
192,32,149900,1,8,0:2:0:0:
342,119,150060,2,0,P|384:117|426:111,1,85,2|2,1:2|0:2,0:2:0:0:
512,288,150379,1,0,1:2:0:0:
512,288,150459,1,0,1:2:0:0:
512,288,150539,1,10,0:2:0:0:
430,115,150698,1,2,1:2:0:0:
352,224,150858,1,2,1:2:0:0:
256,32,151017,6,0,B|243:9|203:6|203:6|147:39|155:137,1,203.999993774414,2|2,1:2|1:2,0:2:0:0:
167,160,151416,1,0,1:2:0:0:
180,187,151496,1,8,0:2:0:0:
345,125,151656,2,0,L|430:115,1,85,2|0,1:2|0:2,0:2:0:0:
192,288,151975,2,0,L|107:277,1,85,2|0,1:2|0:2,0:2:0:0:
384,384,152294,5,2,1:2:0:0:
384,384,152374,1,0,1:2:0:0:
384,384,152453,1,8,0:2:0:0:
180,187,152613,1,2,1:2:0:0:
430,115,152773,1,10,0:2:0:0:
352,256,152932,1,0,1:2:0:0:
352,256,153012,1,0,1:2:0:0:
351,256,153092,6,0,P|301:267|250:274,1,101.999996887207,10|0,0:2|1:2,0:2:0:0:
0,96,153411,2,0,P|49:84|100:77,1,101.999996887207,10|0,0:2|1:2,0:2:0:0:
337,146,153730,1,10,0:2:0:0:
103,231,153890,1,0,1:2:0:0:
103,231,153969,1,0,1:2:0:0:
103,231,154049,1,10,0:2:0:0:
243,25,154209,1,0,1:2:0:0:
250,274,154368,2,0,P|291:305|334:332,1,101.999996887207,10|0,0:2|1:2,0:2:0:0:
512,124,154687,2,0,P|463:138|416:158,1,101.999996887207,10|0,0:2|1:2,0:2:0:0:
400,185,154927,1,0,1:2:0:0:
384,211,155007,5,10,0:2:0:0:
243,25,155166,1,0,1:2:0:0:
128,259,155326,1,10,0:2:0:0:
314,118,155485,1,0,1:2:0:0:
362,375,155645,1,10,0:2:0:0:
221,189,155804,1,0,1:2:0:0:
221,189,155884,1,0,1:2:0:0:
221,189,155964,6,0,P|205:140|201:89,1,101.999996887207,10|0,0:2|1:2,0:2:0:0:
512,199,156283,2,0,P|507:249|492:298,1,101.999996887207,10|0,0:2|1:2,0:2:0:0:
288,384,156602,1,10,0:2:0:0:
379,138,156762,1,0,1:2:0:0:
379,138,156842,1,0,1:2:0:0:
379,138,156922,1,10,0:2:0:0:
133,48,157081,1,0,1:2:0:0:
42,294,157241,2,0,L|147:280,1,101.999996887207,10|0,0:2|1:2,0:2:0:0:
323,52,157560,5,8,0:2:0:0:
289,89,157639,1,8,0:2:0:0:
279,138,157719,1,8,0:2:0:0:
295,186,157799,1,8,0:2:0:0:
334,218,157879,1,8,0:2:0:0:
368,255,157959,1,8,0:2:0:0:
378,304,158039,1,8,0:2:0:0:
362,352,158119,1,8,0:2:0:0:
64,32,158358,5,10,0:2:0:0:
15,248,158517,1,2,1:2:0:0:
187,71,158677,1,2,1:2:0:0:
157,373,158836,5,10,0:2:0:0:
108,157,158995,1,2,1:2:0:0:
280,334,159155,1,2,1:2:0:0:
448,32,159315,5,10,0:2:0:0:
448,32,159634,5,10,0:2:0:0:
497,248,159793,1,2,1:2:0:0:
325,71,159953,1,2,1:2:0:0:
355,373,160113,5,10,0:2:0:0:
404,157,160273,1,2,1:2:0:0:
124,284,160431,1,10,0:2:0:0:
497,248,160592,5,6,1:2:0:0:
96,64,167134,5,6,1:2:0:0:
288,256,167293,2,0,L|426:281,1,110.499994941712,2|8,0:2|0:2,0:2:0:0:
23,142,167612,1,2,0:2:0:0:
215,334,167772,2,0,L|353:359,1,110.499994941712,2|0,1:2|0:2,0:2:0:0:
512,64,168091,2,0,P|411:50|383:147,1,220.999989883423,8|0,0:2|1:2,0:2:0:0:
512,384,168570,5,2,0:2:0:0:
458,123,168729,1,10,0:2:0:0:
323,353,168889,1,2,0:2:0:0:
269,92,169048,1,2,1:2:0:0:
485,254,169208,1,2,0:2:0:0:
208,336,169368,2,0,L|98:323,1,110.499994941712,10|0,0:2|0:2,0:2:0:0:
0,32,169687,5,2,1:2:0:0:
0,32,169846,2,0,L|110:45,1,110.499994941712,2|8,0:2|0:2,0:2:0:0:
512,32,170165,1,2,0:2:0:0:
512,32,170325,2,0,L|402:45,1,110.499994941712,2|0,1:2|0:2,0:2:0:0:
350,359,170644,6,0,P|418:312|406:207,1,165.749992412568,10|0,0:2|0:2,0:2:0:0:
373,175,170963,2,0,L|263:162,1,110.499994941712,0|0,1:2|0:2,0:2:0:0:
12,309,171282,2,0,P|59:377|164:365,1,165.749992412568,10|0,0:2|0:2,0:2:0:0:
196,332,171602,2,0,L|209:222,1,110.499994941712,0|0,1:2|0:2,0:2:0:0:
16,0,171921,2,0,L|42:220,1,220.999989883423,10|4,0:2|1:1,0:2:0:0:
42,220,172559,6,0,P|96:226|151:236,1,110.499994941712,10|0,0:2|0:2,0:2:0:0:
480,128,172878,2,0,P|425:121|370:111,1,110.499994941712,2|0,1:2|0:2,0:2:0:0:
95,125,173197,2,0,P|105:70|112:16,1,110.499994941712,10|0,0:2|0:2,0:2:0:0:
426,222,173516,2,0,P|416:277|410:332,1,110.499994941712,2|0,1:2|0:2,0:2:0:0:
109,228,173836,2,0,P|55:234|0:244,1,110.499994941712,10|0,0:2|0:2,0:2:0:0:
256,32,174155,2,0,P|310:26|365:16,1,110.499994941712,2|0,1:2|0:2,0:2:0:0:
512,192,174474,5,10,0:2:0:0:
365,15,174634,1,2,0:2:0:0:
320,288,174793,1,2,1:2:0:0:
468,60,174953,1,2,0:2:0:0:
512,343,175112,2,0,L|293:307,1,220.999989883423,8|0,0:2|1:2,0:2:0:0:
32,352,175591,1,2,0:2:0:0:
129,161,175751,1,10,0:2:0:0:
192,384,175910,1,2,0:2:0:0:
0,128,176070,5,10,0:2:0:0:
294,307,176229,2,0,L|403:289,1,110.499994941712,10|0,0:2|1:2,0:2:0:0:
403,289,176548,1,10,0:2:0:0:
129,161,176708,1,2,1:2:0:0:
332,25,176868,1,10,0:2:0:0:
161,273,177027,1,2,1:2:0:0:
332,25,177187,1,8,0:2:0:0:
332,25,177266,1,8,0:2:0:0:
332,25,177346,5,2,1:2:0:0:
129,161,177506,2,0,P|75:174|20:180,1,110.499994941712,2|8,0:2|0:2,0:2:0:0:
390,210,177825,1,2,0:2:0:0:
187,74,177985,2,0,P|133:60|78:54,1,110.499994941712,2|0,1:2|0:2,0:2:0:0:
0,352,178304,6,0,B|47:375|47:375|159:348,1,165.749992412568,10|0,0:2|0:2,0:2:0:0:
203,289,178623,2,0,L|216:176,1,110.499994941712,0|0,1:2|0:2,0:2:0:0:
512,8,178942,2,0,B|535:55|535:55|508:167,1,165.749992412568,10|0,0:2|0:2,0:2:0:0:
449,211,179261,2,0,L|336:224,1,110.499994941712,0|0,1:2|0:2,0:2:0:0:
78,54,179580,2,0,P|133:60|187:74,1,110.499994941712,10|0,0:2|0:2,0:2:0:0:
413,315,179899,5,2,1:2:0:0:
136,256,180059,2,0,L|113:147,1,110.499994941712,2|8,0:2|0:2,0:2:0:0:
431,338,180378,1,2,0:2:0:0:
209,146,180538,2,0,L|247:29,1,110.499994941712,2|0,1:2|0:2,0:2:0:0:
512,224,180857,2,0,P|471:293|392:304,1,165.749992412568,10|0,0:2|0:2,0:2:0:0:
328,351,181176,2,0,L|192:337,1,110.499994941712,0|0,1:2|0:2,0:2:0:0:
60,54,181495,6,0,P|97:95|114:148,1,110.499994941712,10|0,0:2|0:2,0:2:0:0:
0,384,181814,2,0,P|17:332|54:291,1,110.499994941712,2|0,1:2|0:2,0:2:0:0:
315,271,182134,2,0,P|261:281|207:270,1,110.499994941712,10|0,0:2|0:2,0:2:0:0:
0,32,182453,2,0,L|228:66,1,220.999989883423,2|8,1:2|0:2,0:2:0:0:
218,64,182931,5,2,0:2:0:0:
0,160,183091,1,2,1:2:0:0:
207,270,183251,1,2,0:2:0:0:
96,64,183410,1,10,0:2:0:0:
32,352,183570,1,2,0:2:0:0:
256,160,183729,2,0,P|350:204|429:136,1,220.999989883423,0|8,1:2|0:2,0:2:0:0:
429,134,184208,5,2,0:2:0:0:
480,352,184368,1,2,1:2:0:0:
336,104,184527,1,2,0:2:0:0:
285,321,184687,1,10,0:2:0:0:
480,64,184846,1,2,0:2:0:0:
385,358,185006,2,0,L|149:379,1,220.999989883423,0|8,1:2|0:2,0:2:0:0:
32,224,185485,5,10,0:2:0:0:
32,224,185564,1,8,0:2:0:0:
32,224,185644,1,2,1:2:0:0:
285,321,185804,1,10,0:2:0:0:
15,331,185963,1,2,1:2:0:0:
264,224,186123,1,10,0:2:0:0:
264,224,186203,1,8,0:2:0:0:
264,224,186282,1,2,1:2:0:0:
101,18,186442,5,8,0:2:0:0:
62,55,186521,1,8,0:2:0:0:
55,109,186601,1,8,0:2:0:0:
84,155,186681,1,8,0:2:0:0:
135,173,186761,1,8,0:3:0:0:
146,160,186841,1,8,0:3:0:0:
156,147,186921,1,8,0:3:0:0:
166,134,187001,1,4,0:3:0:0:
176,121,187080,1,4,0:3:0:0:
187,108,187160,1,4,0:3:0:0:
198,95,187240,1,8,0:2:0:0:
352,160,187399,1,0,1:2:0:0:
192,0,187559,5,14,0:2:0:0:
320,256,187719,2,0,L|404:267,1,85,2|0,1:2|0:2,0:2:0:0:
291,44,188038,1,2,1:2:0:0:
163,300,188198,2,0,L|78:311,1,85,2|0,0:2|1:2,0:2:0:0:
78,311,188437,1,0,1:2:0:0:
78,311,188516,1,8,0:2:0:0:
256,384,188676,2,0,L|424:360,2,170,0|0|0,1:2|1:2|1:2,0:2:0:0:
256,384,189394,1,0,1:2:0:0:
256,384,189474,5,8,0:2:0:0:
304,208,189634,1,8,0:2:0:0:
352,32,189793,1,8,0:2:0:0:
416,144,189953,5,0,1:2:0:0:
416,144,190032,1,0,1:2:0:0:
416,144,190112,1,14,0:2:0:0:
250,54,190272,2,0,L|162:47,1,85,2|0,1:2|0:2,0:2:0:0:
416,144,190591,1,2,1:2:0:0:
250,234,190751,2,0,L|162:241,1,85,2|0,0:2|1:2,0:2:0:0:
448,384,191070,2,0,B|470:348|470:348|454:293,1,85,10|0,0:2|0:2,0:2:0:0:
321,67,191389,6,0,L|333:225,1,152.999995330811,2|0,0:2|1:2,0:2:0:0:
333,219,191947,1,0,1:2:0:0:
333,219,192027,1,10,0:2:0:0:
64,96,192266,1,8,0:2:0:0:
416,32,192506,1,8,0:2:0:0:
304,16,192665,5,6,1:2:0:0:
304,16,192825,1,0,1:2:0:0:
227,136,192985,2,0,L|310:120,1,85,2|8,0:2|0:2,0:2:0:0:
480,192,193304,1,2,0:2:0:0:
419,110,193463,1,10,0:2:0:0:
407,288,193623,1,2,1:2:0:0:
406,287,193782,2,0,P|326:273|268:330,1,170,2|2,1:2|1:2,0:2:0:0:
32,288,194261,1,2,0:2:0:0:
131,384,194421,2,0,P|143:344|149:301,1,85,10|0,0:2|1:2,0:2:0:0:
0,118,194740,2,0,P|6:159|18:200,1,85,2|8,1:2|0:2,0:2:0:0:
224,224,195059,5,6,1:2:0:0:
356,206,195219,1,2,1:2:0:0:
488,188,195378,2,0,L|508:98,1,85,2|0,1:2|0:2,0:2:0:0:
313,384,195697,2,0,L|294:301,1,85,10|2,0:2|0:2,0:2:0:0:
336,16,196016,1,10,0:2:0:0:
420,60,196176,1,2,1:2:0:0:
339,110,196336,2,0,L|243:120,1,85,2|0,1:2|0:2,0:2:0:0:
71,223,196655,1,10,0:2:0:0:
199,231,196814,1,2,0:2:0:0:
96,32,196974,2,0,L|106:128,1,85,10|0,0:2|1:2,0:2:0:0:
9,344,197293,2,0,L|0:259,1,85,2|8,1:2|0:2,0:2:0:0:
199,231,197612,5,6,1:2:0:0:
331,249,197772,1,2,1:2:0:0:
463,267,197931,1,2,1:2:0:0:
271,384,198091,2,0,P|256:344|254:301,1,85,2|8,0:2|0:2,0:2:0:0:
413,144,198410,1,2,0:2:0:0:
463,267,198570,1,10,0:2:0:0:
280,134,198729,1,2,1:2:0:0:
280,134,198889,2,0,L|110:121,1,170,2|2,1:2|1:2,0:2:0:0:
352,0,199368,1,2,0:2:0:0:
448,64,199527,2,0,P|459:104|464:147,1,85,10|0,0:2|1:2,0:2:0:0:
343,345,199846,2,0,P|348:302|359:261,1,85,2|8,1:2|0:2,0:2:0:0:
332,81,200165,5,6,1:2:0:0:
200,63,200325,1,2,1:2:0:0:
68,45,200485,2,0,L|-36:62,1,85,2|0,1:2|0:2,0:2:0:0:
0,320,200804,1,10,0:2:0:0:
0,320,200963,1,2,0:2:0:0:
192,192,201123,1,10,0:2:0:0:
192,192,201282,1,2,1:2:0:0:
105,384,201442,2,0,L|84:215,1,170,0|10,1:2|0:2,0:2:0:0:
224,0,201921,1,2,0:2:0:0:
0,112,202080,2,0,L|84:101,1,85,10|0,0:2|1:2,0:2:0:0:
384,128,202399,2,0,L|299:138,1,85,2|8,1:2|0:2,0:2:0:0:
160,320,202719,5,6,1:2:0:0:
153,344,202878,1,2,1:2:0:0:
146,368,203038,1,2,1:2:0:0:
352,304,203197,2,0,P|364:263|372:221,1,85,2|8,0:2|0:2,0:2:0:0:
293,28,203516,1,2,0:2:0:0:
445,133,203676,1,10,0:2:0:0:
240,231,203836,1,2,1:2:0:0:
240,231,203995,2,0,P|188:212|180:84,1,170,2|10,1:2|0:2,0:2:0:0:
384,0,204474,1,2,0:2:0:0:
445,133,204634,1,2,1:2:0:0:
445,133,204713,1,0,1:2:0:0:
445,133,204793,1,8,0:2:0:0:
224,32,204953,1,10,0:2:0:0:
110,259,205112,1,8,0:2:0:0:
110,259,205272,1,0,1:2:0:0:
0,64,205431,6,0,L|109:78,1,110.499994941712,14|0,0:2|1:2,0:2:0:0:
320,288,205751,1,8,0:2:0:0:
224,32,205910,1,10,0:2:0:0:
148,164,206070,1,0,1:2:0:0:
448,64,206229,1,8,0:2:0:0:
510,195,206389,2,0,L|401:174,1,110.499994941712,2|0,1:2|1:2,0:2:0:0:
182,0,206708,6,0,L|158:122,1,110.499994941712,8|2,0:2|1:2,0:2:0:0:
160,108,206947,1,0,1:2:0:0:
160,108,207027,1,8,0:2:0:0:
0,96,207187,1,0,1:2:0:0:
262,121,207346,1,10,0:2:0:0:
61,13,207506,1,8,0:2:0:0:
0,256,207665,2,0,L|120:247,1,110.499994941712,10|0,0:2|1:2,0:2:0:0:
384,96,207985,5,6,1:2:0:0:
448,320,208144,1,0,1:2:0:0:
288,256,208304,1,8,0:2:0:0:
426,9,208463,2,0,B|485:68|485:68|438:212,1,220.999989883423,6|0,1:2|1:2,0:2:0:0:
256,384,208942,1,6,1:2:0:0:
256,384,209022,1,0,1:2:0:0:
256,384,209102,1,8,0:2:0:0:
192,128,209261,1,8,0:2:0:0:
62,329,209421,2,0,L|30:110,1,220.999989883423,0|0,1:2|1:2,0:2:0:0:
326,13,209899,5,8,0:2:0:0:
192,128,210059,1,0,1:2:0:0:
448,192,210219,1,8,0:2:0:0:
157,16,210378,5,6,1:2:0:0:
256,192,210458,12,0,219474,0:2:0:0:
