osu file format v14

[General]
AudioFilename: audio.mp3
AudioLeadIn: 0
PreviewTime: 167055
Countdown: 0
SampleSet: Soft
StackLeniency: 0.7
Mode: 0
LetterboxInBreaks: 0
WidescreenStoryboard: 1

[Editor]
DistanceSpacing: 1.4
BeatDivisor: 4
GridSize: 4
TimelineZoom: 1.6

[Metadata]
Title:Answer is near
TitleUnicode:アンサイズニア
Artist:ONE OK ROCK
ArtistUnicode:ONE OK ROCK
Creator:Nevo
Version:Kuki's Normal
Source:
Tags:mordred smokelind armin a_r_m_i_n soop so0p frostwich synderes Kuki1537 ook japanese rock smoke kudosu reform kujinn
BeatmapID:2353643
BeatmapSetID:1110954

[Difficulty]
HPDrainRate:3
CircleSize:3.6
OverallDifficulty:4
ApproachRate:5.5
SliderMultiplier:0.999999999999999
SliderTickRate:1

[Events]
//Background and Video events
0,0,"72026743_p14.jpg",0,0
//Break Periods
2,23717,32286
2,116909,125797
//Storyboard Layer 0 (Background)
//Storyboard Layer 1 (Fail)
//Storyboard Layer 2 (Pass)
//Storyboard Layer 3 (Foreground)
//Storyboard Layer 4 (Overlay)
//Storyboard Sound Samples

[TimingPoints]
13305,319.148936170213,4,2,5,70,1,0
33411,-100,4,2,5,60,0,0
43943,-100,4,2,5,80,0,1
47693,-100,4,2,5,5,0,1
47773,-100,4,2,5,80,0,1
48331,-100,4,2,5,5,0,1
48411,-100,4,2,5,80,0,1
63092,-100,4,2,5,80,0,1
64368,-100,4,2,5,80,0,0
74581,-100,4,2,5,50,0,0
74741,-100,4,2,5,5,0,0
74820,-100,4,2,5,50,0,0
74980,-100,4,2,5,5,0,0
75060,-100,4,2,5,50,0,0
76656,-100,4,2,6,50,0,0
77134,-100,4,2,5,50,0,0
77294,-100,4,2,5,5,0,0
77373,-100,4,2,5,50,0,0
77533,-100,4,2,5,5,0,0
77613,-100,4,2,5,50,0,0
79209,-100,4,2,6,50,0,0
79687,-100,4,2,5,50,0,0
79847,-100,4,2,5,5,0,0
79926,-100,4,2,5,50,0,0
80086,-100,4,2,5,5,0,0
80166,-100,4,2,5,50,0,0
81762,-100,4,2,6,50,0,0
82241,-100,4,2,5,50,0,0
84315,-100,4,2,6,50,0,0
84794,-100,4,2,5,60,0,0
95007,-100,4,2,5,40,0,0
95964,-100,4,2,5,70,0,0
96004,-100,4,2,5,5,0,0
96283,-100,4,2,5,80,0,1
100033,-100,4,2,5,5,0,1
100113,-100,4,2,5,80,0,1
100672,-100,4,2,5,5,0,1
100751,-100,4,2,5,80,0,1
111602,-100,4,2,5,80,0,1
115432,-100,4,2,5,80,0,0
116283,-100,4,2,5,70,0,0
116496,-100,4,2,5,60,0,0
116709,-100,4,2,5,50,0,0
132028,-100,4,2,5,60,0,0
137134,-100,4,2,5,70,0,0
147347,-100,4,2,5,50,0,0
147985,-100,4,2,5,70,0,0
167134,319.148936170213,4,2,5,80,1,0
167134,-100,4,2,5,80,0,1
170884,-100,4,2,5,5,0,1
170963,-100,4,2,5,80,0,1
171522,-100,4,2,5,5,0,1
171602,-100,4,2,5,80,0,1
178543,-100,4,2,5,5,0,1
178623,-100,4,2,5,80,0,1
179181,-100,4,2,5,5,0,1
179261,-100,4,2,5,80,0,1
181096,-100,4,2,5,5,0,1
181176,-100,4,2,5,80,0,1
191389,-100,4,2,5,70,0,0
192665,-100,4,2,5,70,0,0
205431,-100,4,2,5,80,0,0
211814,-100,4,2,5,65,0,0
213091,-100,4,2,5,60,0,0
213729,-100,4,2,5,55,0,0
214368,-100,4,2,5,50,0,0
215006,-100,4,2,5,45,0,0
215644,-100,4,2,5,40,0,0
216282,-100,4,2,5,35,0,0
216921,-100,4,2,5,30,0,0
217559,-100,4,2,5,25,0,0
218197,-100,4,2,5,20,0,0
218836,-100,4,2,5,10,0,0
219474,-100,4,2,5,5,0,0

[Colours]
Combo1 : 255,94,94
Combo2 : 128,128,255
Combo3 : 255,153,51

[HitObjects]
106,82,13304,5,6,1:2:0:0:
115,115,13464,1,0,1:2:0:0:
79,207,13783,2,0,P|73:261|70:314,1,99.9999999999999,8|10,0:2|0:2,0:0:0:0:
99,347,14262,1,2,1:2:0:0:
99,347,14422,2,0,P|136:361|197:335,1,99.9999999999999,2|2,1:2|1:2,0:2:0:0:
288,342,15060,1,10,0:2:0:0:
288,342,15219,2,0,P|325:353|348:357,1,50,0|2,1:2|1:2,0:0:0:0:
381,333,15539,1,8,0:2:0:0:
478,353,15858,5,2,1:2:0:0:
486,319,16017,1,2,1:2:0:0:
458,224,16336,2,0,P|414:194|361:201,1,99.9999999999999,8|10,0:2|0:2,0:0:0:0:
327,225,16815,1,2,1:2:0:0:
327,225,16975,2,0,P|292:243|226:222,1,99.9999999999999,2|10,1:2|0:2,0:2:0:0:
136,216,17613,1,10,0:2:0:0:
136,216,17773,2,0,P|129:183|116:160,1,50,0|2,1:2|1:2,0:0:0:0:
84,136,18092,1,8,0:2:0:0:
49,42,18411,5,2,1:2:0:0:
82,32,18570,1,2,1:2:0:0:
174,71,18890,2,0,P|213:79|275:84,1,99.9999999999999,8|10,0:2|0:2,0:0:0:0:
314,55,19368,1,2,1:2:0:0:
314,55,19528,2,0,P|365:41|415:60,1,99.9999999999999,2|2,1:2|1:2,0:2:0:0:
360,142,20166,1,10,0:2:0:0:
360,142,20326,2,0,P|363:182|365:201,1,50,0|2,1:2|1:2,0:0:0:0:
402,223,20645,1,8,0:2:0:0:
389,322,20964,5,2,1:2:0:0:
355,331,21124,1,2,1:2:0:0:
256,327,21443,2,0,P|232:304|163:294,1,99.9999999999999,8|10,0:2|0:2,0:0:0:0:
123,315,21922,1,2,1:2:0:0:
123,315,22081,2,0,P|126:266|127:195,1,99.9999999999999,2|10,1:2|0:2,0:2:0:0:
195,142,22719,2,0,L|254:129,1,50,0|8,1:2|0:3,0:0:0:0:
279,92,23039,2,0,L|289:39,2,50,10|4|4,0:3|0:3|0:3,0:0:0:0:
295,138,23517,5,4,1:2:0:0:
121,128,33411,5,8,0:2:0:0:
180,47,33730,6,0,P|223:35|238:34,1,50,0|0,1:2|0:0,0:2:0:0:
277,44,34049,1,8,0:2:0:0:
370,78,34368,2,0,P|379:48|376:17,2,50,2|2|10,1:2|0:2|0:2,0:2:0:0:
296,145,35007,2,0,P|276:192|293:243,1,99.9999999999999,2|8,0:2|0:2,0:2:0:0:
335,253,35485,2,0,P|382:265|411:305,2,99.9999999999999,2|0|2,0:2|1:2|0:2,0:2:0:0:
296,284,36283,6,0,P|261:318|244:324,1,50,0|0,1:0|1:2,0:0:0:0:
211,325,36602,1,10,0:2:0:0:
120,368,36922,2,0,P|111:316|106:252,1,99.9999999999999,2|8,1:2|0:2,0:0:0:0:
98,219,37400,1,2,0:2:0:0:
98,219,37560,2,0,P|66:192|4:188,2,99.9999999999999,2|10|2,0:2|0:2|1:2,0:2:0:0:
137,249,38358,2,0,P|180:239|196:229,1,50,0|10,1:2|0:2,0:0:0:0:
237,151,38836,6,0,P|270:162|298:165,1,50,2|0,1:2|1:2,0:0:0:0:
332,148,39156,1,10,0:2:0:0:
414,91,39475,1,2,1:2:0:0:
414,91,39634,2,0,P|426:139|432:193,1,99.9999999999999,2|2,0:2|0:2,0:2:0:0:
406,232,40113,1,2,0:2:0:0:
414,331,40432,1,10,0:2:0:0:
414,331,40592,2,0,P|464:352|509:345,2,99.9999999999999,2|2|2,0:2|1:2|1:2,0:2:0:0:
364,335,41390,6,0,P|321:341|310:345,1,50,0|0,1:2|1:2,0:0:0:0:
270,366,41709,1,10,0:2:0:0:
193,301,42028,2,0,P|158:293|139:291,1,50,2|0,0:2|0:2,0:2:0:0:
95,304,42347,2,0,P|99:268|101:235,1,50,10|0,0:2|0:0,0:0:0:0:
34,57,43624,5,8,0:2:0:0:
116,113,43943,5,6,1:2:0:0:
116,113,44102,2,0,P|149:100|178:95,1,50,2|8,0:2|0:2,0:2:0:0:
212,108,44422,1,2,0:2:0:0:
212,108,44581,2,0,P|251:143|310:149,1,99.9999999999999,2|8,1:2|0:2,0:2:0:0:
368,81,45219,2,0,P|407:46|466:40,1,99.9999999999999,0|10,1:2|0:2,0:0:0:0:
498,57,45698,1,2,0:2:0:0:
498,57,45858,2,0,P|503:28|505:3,2,50,2|2|10,1:2|0:2|0:2,0:0:0:0:
452,145,46496,5,2,1:2:0:0:
452,145,46656,2,0,P|457:182|458:196,1,50,2|8,0:2|0:2,0:2:0:0:
474,225,46975,1,2,0:2:0:0:
492,254,47134,1,2,1:2:0:0:
463,349,47453,1,10,0:2:0:0:
362,349,47773,2,0,P|314:355|245:363,2,99.9999999999999,0|10|0,1:2|0:2|1:2,0:2:0:0:
388,252,48730,1,8,0:2:0:0:
358,156,49049,5,4,1:1:0:0:
258,142,49368,2,0,P|254:104|251:30,2,99.9999999999999,10|2|10,0:2|1:2|0:2,0:2:0:0:
303,233,50326,2,0,P|259:247|192:229,1,99.9999999999999,2|10,1:2|0:2,0:2:0:0:
142,161,50964,2,0,P|106:136|31:136,1,99.9999999999999,2|10,1:2|0:2,0:2:0:0:
7,155,51443,1,2,0:2:0:0:
7,155,51602,6,0,P|14:187|19:212,1,50,2|2,1:2|0:2,0:0:0:0:
32,252,51922,2,0,P|20:293|14:331,2,75,8|8|8,0:2|0:2|0:2,0:2:0:0:
71,220,52560,1,10,1:2:0:0:
149,266,52879,2,0,P|189:288|252:278,1,99.9999999999999,10|0,0:2|0:0,0:0:0:0:
280,252,53358,1,10,0:2:0:0:
280,252,53517,2,0,P|272:209|271:188,2,50,10|6|10,0:3|0:3|0:2,0:0:0:0:
346,327,54156,5,14,0:2:0:0:
346,327,54315,2,0,P|378:341|400:345,1,50,2|0,1:2|0:2,0:2:0:0:
436,367,54634,1,10,0:2:0:0:
436,367,54794,2,0,P|441:313|441:252,1,99.9999999999999,2|8,1:2|0:2,0:2:0:0:
371,196,55432,2,0,P|349:165|360:102,1,99.9999999999999,8|2,0:2|0:2,0:2:0:0:
395,74,55911,2,0,P|424:82|461:83,2,50,10|2|2,0:2|1:2|1:2,0:0:0:0:
349,52,56390,1,10,0:2:0:0:
257,12,56709,5,10,0:2:0:0:
257,12,56868,2,0,P|225:20|196:23,1,50,2|0,1:2|0:2,0:2:0:0:
173,24,57187,1,10,0:2:0:0:
138,20,57347,1,2,1:2:0:0:
172,113,57666,1,14,0:2:0:0:
102,183,57985,2,0,P|78:201|69:267,1,99.9999999999999,10|10,0:2|0:3,0:0:0:0:
103,302,58464,1,8,0:3:0:0:
103,302,58624,2,0,P|131:297|159:294,1,50,6|4,0:3|0:3,0:0:0:0:
198,315,58943,1,10,0:2:0:0:
294,290,59262,5,12,0:2:0:0:
294,290,59422,2,0,P|327:309|404:290,2,99.9999999999999,0|0|0,1:2|1:2|1:2,0:0:0:0:
270,245,60219,1,8,0:2:0:0:
270,245,60379,2,0,P|269:206|215:149,2,99.9999999999999,0|0|0,1:2|1:2|1:2,0:0:0:0:
239,278,61177,2,0,P|206:300|191:322,2,50,8|8|8,0:2|0:2|0:2,0:0:0:0:
332,312,61815,6,0,P|372:322|436:323,2,99.9999999999999,14|0|2,0:2|0:0|0:2,0:0:0:0:
256,377,62773,1,10,0:2:0:0:
165,334,63092,2,0,B|151:250|185:256|168:175,1,150,2|0,0:2|1:2,0:2:0:0:
137,146,63730,2,0,P|102:132|59:144,2,75,10|8|8,0:2|0:2|0:2,0:0:0:0:
187,142,64368,5,6,1:2:0:0:
219,129,64528,1,0,1:0:0:0:
312,93,64847,2,0,P|357:75|423:91,1,99.9999999999999,8|8,0:0|0:0,0:0:0:0:
435,123,65326,1,6,1:2:0:0:
435,123,65485,2,0,P|427:189|426:236,1,99.9999999999999,0|0,1:0|1:0,0:0:0:0:
486,302,66124,1,8,0:0:0:0:
486,302,66283,2,0,P|453:308|432:313,1,50,0|0,1:0|1:0,0:0:0:0:
400,345,66602,1,8,0:0:0:0:
318,287,66922,5,6,1:2:0:0:
285,275,67081,1,0,1:0:0:0:
188,302,67400,2,0,P|153:347|112:360,1,99.9999999999999,8|8,0:0|0:0,0:0:0:0:
66,377,67879,1,0,1:0:0:0:
66,377,68039,2,0,P|62:331|54:260,1,99.9999999999999,0|8,1:0|0:0,0:0:0:0:
22,183,68677,1,8,0:0:0:0:
22,183,68836,2,0,P|27:151|27:128,1,50,0|0,1:0|1:0,0:0:0:0:
4,88,69156,1,8,0:0:0:0:
80,23,69475,5,6,1:2:0:0:
113,32,69634,1,0,1:0:0:0:
186,101,69953,2,0,P|204:128|271:145,1,99.9999999999999,8|8,0:0|0:0,0:0:0:0:
312,125,70432,1,0,1:0:0:0:
312,125,70592,2,0,P|306:170|300:234,1,99.9999999999999,0|0,1:0|1:0,0:0:0:0:
370,295,71230,1,8,0:0:0:0:
370,295,71390,2,0,P|403:312|427:311,1,50,0|0,1:0|1:0,0:0:0:0:
464,302,71709,1,8,0:0:0:0:
418,212,72028,5,2,1:2:0:0:
409,178,72187,1,0,1:0:0:0:
480,107,72507,2,0,P|491:74|453:22,1,99.9999999999999,8|8,0:0|0:0,0:0:0:0:
411,2,72985,1,0,1:0:0:0:
411,2,73145,2,0,P|380:17|312:26,1,99.9999999999999,0|8,1:0|0:0,0:0:0:0:
272,52,73624,2,0,B|164:26|193:129|74:94,1,200,8|8,0:0|0:0,0:0:0:0:
0,146,74581,6,0,P|-10:88|0:57,2,74.9999999999999,4|0|0,1:1|1:2|1:2,0:2:0:0:
38,179,75219,2,0,P|50:215|41:285,1,99.9999999999999,8|0,0:2|0:0,0:0:0:0:
11,370,75858,2,0,P|45:362|111:357,1,99.9999999999999
151,330,76336,1,0,1:2:0:0:
151,330,76496,2,0,P|193:340|220:340,1,50,8|2,0:2|1:3,0:0:0:0:
332,270,77134,6,0,P|325:231|320:174,2,74.9999999999999,2|0|0,1:2|1:2|1:2,0:2:0:0:
370,303,77773,2,0,P|407:319|470:288,1,99.9999999999999,8|0,0:2|0:0,0:0:0:0:
506,210,78411,2,0,P|496:169|486:101,1,99.9999999999999
497,62,78890,1,0,1:2:0:0:
497,62,79049,2,0,P|504:28|506:5,1,50,8|2,0:2|0:3,0:0:0:0:
374,85,79687,6,0,P|377:124|366:167,2,74.9999999999999,0|0|0,1:2|1:2|1:2,0:2:0:0:
342,45,80326,1,10,0:2:0:0:
250,4,80645,1,0,0:0:0:0:
161,50,80964,2,0,P|166:80|103:132,1,99.9999999999999
74,127,81443,1,0,1:2:0:0:
74,127,81602,2,0,P|69:168|66:192,1,50,8|2,0:2|1:3,0:0:0:0:
186,268,82241,6,0,P|222:289|272:283,2,74.9999999999999,2|0|0,1:2|1:2|1:2,0:0:0:0:
174,219,82879,2,0,P|174:177|143:137,2,74.9999999999999,8|0|0,0:2|1:2|1:2,0:0:0:0:
135,251,83517,2,0,P|98:271|79:317,2,74.9999999999999,2|0|2,1:2|1:2|1:2,0:0:0:0:
222,299,84315,2,0,P|251:294|276:291,1,50,2|0,0:3|0:0,0:0:0:0:
348,355,84794,6,0,P|381:363|411:367,1,50,4|0,1:1|1:2,0:0:0:0:
444,348,85113,1,10,0:2:0:0:
486,257,85432,2,0,P|516:253|549:253,2,50,2|2|10,1:2|0:2|0:2,0:0:0:0:
416,185,86070,5,2,0:2:0:0:
391,87,86390,1,10,0:2:0:0:
391,87,86549,2,0,P|417:82|487:114,2,99.9999999999999,10|2|2,0:3|0:2|0:2,0:0:0:0:
348,60,87347,2,0,P|305:84|256:82,1,99.9999999999999,0|8,1:0|0:2,0:0:0:0:
161,50,87985,1,8,0:3:0:0:
161,50,88145,2,0,P|168:22|171:-6,2,50,2|10|2,1:2|0:2|0:2,0:0:0:0:
127,87,88624,6,0,P|80:103|17:78,2,99.9999999999999,2|10|10,1:2|0:2|0:3,0:2:0:0:
192,162,89581,1,10,0:2:0:0:
246,245,89900,1,0,1:2:0:0:
192,329,90219,2,0,P|164:335|141:333,2,50,10|2|2,0:2|0:2|1:2,0:0:0:0:
292,331,90858,1,10,0:2:0:0:
323,315,91017,1,2,0:2:0:0:
355,302,91177,6,0,P|400:287|458:307,1,99.9999999999999,2|10,1:2|0:2,0:2:0:0:
488,331,91656,1,8,0:3:0:0:
496,231,91975,1,2,2:0:0:0:
502,131,92294,2,0,B|421:106|428:159|345:137,1,150,2|10,1:2|0:2,0:0:0:0:
283,69,93092,2,0,P|287:37|290:12,2,50,2|0|10,0:2|0:2|0:2,0:2:0:0:
208,135,93730,5,0,1:2:0:0:
113,168,94049,1,0,1:2:0:0:
146,263,94368,1,0,1:2:0:0:
241,230,94687,1,0,1:2:0:0:
87,66,95964,5,8,0:2:0:0:
37,152,96283,5,6,1:2:0:0:
37,152,96443,2,0,P|67:164|104:165,1,50,2|8,0:2|0:2,0:2:0:0:
132,151,96762,1,2,0:2:0:0:
132,151,96922,2,0,P|170:135|239:161,1,99.9999999999999,2|8,1:2|0:2,0:2:0:0:
278,233,97560,2,0,P|337:246|394:251,1,99.9999999999999,0|10,1:2|0:2,0:0:0:0:
424,237,98039,1,2,0:2:0:0:
424,237,98198,2,0,P|419:274|416:306,2,50,2|2|10,1:2|0:2|0:2,0:0:0:0:
496,168,98836,5,2,1:2:0:0:
496,168,98996,2,0,P|488:127|486:103,1,50,2|8,0:2|0:2,0:2:0:0:
495,84,99315,1,2,0:2:0:0:
506,50,99475,1,0,1:2:0:0:
413,13,99794,1,10,0:2:0:0:
371,103,100113,2,0,P|376:146|383:225,2,99.9999999999999,0|10|0,1:2|0:2|1:2,0:2:0:0:
311,22,101070,1,10,0:2:0:0:
232,84,101390,5,4,1:1:0:0:
146,32,101709,2,0,P|108:16|31:29,2,99.9999999999999,10|2|10,0:2|1:2|0:2,0:2:0:0:
148,131,102666,2,0,P|140:180|132:242,1,99.9999999999999,2|10,1:2|0:2,0:2:0:0:
76,312,103305,2,0,P|125:320|187:328,1,99.9999999999999,2|10,1:2|1:2,0:2:0:0:
244,255,103943,6,0,P|277:245|312:245,1,50,2|2,1:2|0:2,0:0:0:0:
337,265,104262,2,0,P|346:291|334:358,2,74.9999999999999,10|8|10,0:2|0:2|0:2,0:2:0:0:
330,215,104900,1,2,1:2:0:0:
271,133,105219,2,0,P|276:102|277:78,1,50,2|10,1:2|0:2,0:0:0:0:
252,39,105539,2,0,P|231:23|152:34,2,99.9999999999999,8|10|10,0:0|0:3|0:2,0:0:0:0:
351,49,106496,5,14,0:2:0:0:
351,49,106656,2,0,P|384:41|409:38,1,50,2|0,1:2|0:2,0:2:0:0:
446,21,106975,1,10,0:2:0:0:
446,21,107134,2,0,P|441:58|434:135,1,99.9999999999999,0|8,1:2|0:2,0:2:0:0:
505,191,107773,2,0,P|513:245|518:306,1,99.9999999999999,8|2,0:2|0:2,0:2:0:0:
477,321,108251,2,0,P|474:361|470:380,2,50,10|2|2,0:2|1:2|1:2,0:0:0:0:
437,290,108730,1,10,0:2:0:0:
356,230,109049,5,10,0:2:0:0:
356,230,109209,2,0,P|323:248|298:250,1,50,2|0,1:2|0:2,0:2:0:0:
278,237,109528,1,10,0:2:0:0:
248,218,109687,1,2,1:2:0:0:
157,175,110007,1,14,0:2:0:0:
72,228,110326,2,0,P|52:272|61:333,1,99.9999999999999,8|10,0:2|0:3,0:0:0:0:
88,361,110805,1,8,0:3:0:0:
88,361,110964,2,0,P|123:351|157:349,1,50,6|4,0:3|0:3,0:0:0:0:
185,357,111283,1,10,0:2:0:0:
265,297,111602,5,14,0:2:0:0:
265,297,111762,2,0,P|312:303|369:315,2,99.9999999999999,0|0|0,1:2|1:2|1:2,0:0:0:0:
227,263,112560,1,8,0:2:0:0:
227,263,112719,2,0,P|180:269|123:281,2,99.9999999999999,0|0|0,1:2|1:2|1:2,0:0:0:0:
264,229,113517,2,0,P|297:232|324:237,2,50,8|8|8,0:2|0:2|0:2,0:0:0:0:
182,170,114156,6,0,P|142:139|133:82,2,99.9999999999999,12|0|2,0:2|0:0|0:0,0:0:0:0:
275,135,115113,1,8,0:2:0:0:
366,95,115432,2,0,B|384:187|342:164|365:259,1,150,2|0,0:2|1:2,0:2:0:0:
400,274,116070,2,0,P|438:286|473:289,2,66.6666666666666,8|8|4,0:2|0:3|0:3,0:0:0:0:
353,292,116709,5,4,1:1:0:0:
114,121,126922,6,0,P|110:162|103:225,1,99.9999999999999,2|0,1:2|1:2,0:0:0:0:
83,266,127400,2,0,P|124:270|187:277,1,99.9999999999999
249,202,128039,1,0,0:0:0:0:
249,202,128198,2,0,P|281:241|285:290,1,99.9999999999999,2|0,1:2|1:2,0:0:0:0:
276,338,128677,2,0,P|341:318|391:312,1,99.9999999999999
430,232,129315,1,0,0:0:0:0:
430,232,129475,6,0,P|425:197|419:125,1,99.9999999999999,2|0,1:2|1:2,0:0:0:0:
397,88,129953,2,0,P|455:105|501:84,2,99.9999999999999
356,57,130751,1,2,1:2:0:0:
269,9,131070,1,0,1:2:0:0:
172,35,131390,1,0,1:2:0:0:
126,123,131709,1,0,1:2:0:0:
113,155,131868,1,0,0:0:0:0:
99,187,132028,6,0,P|61:198|39:202,2,50,2|0|0,1:2|0:0|1:2,0:0:0:0:
133,223,132507,2,0,P|170:231|231:242,1,99.9999999999999
319,195,133145,1,0,0:0:0:0:
319,195,133305,2,0,P|331:232|313:303,1,99.9999999999999,2|0,1:2|1:2,0:0:0:0:
286,327,133783,2,0,P|234:335|178:345,1,99.9999999999999
92,374,134422,1,0,0:0:0:0:
92,374,134581,6,0,P|83:321|78:260,1,99.9999999999999,2|0,1:2|1:2,0:0:0:0:
41,241,135060,2,0,P|50:188|55:127,1,99.9999999999999
29,98,135539,1,0,1:2:0:0:
97,25,135858,1,2,1:2:0:0:
186,70,136177,1,0,1:2:0:0:
274,23,136496,1,0,1:2:0:0:
274,23,136656,2,0,P|306:61|371:62,1,99.9999999999999,8|8,0:2|0:2,0:0:0:0:
386,55,137134,5,6,1:2:0:0:
417,40,137294,1,2,1:2:0:0:
510,74,137613,2,0,P|504:105|496:182,1,99.9999999999999,10|10,0:2|0:2,0:2:0:0:
457,204,138092,1,0,1:2:0:0:
457,204,138251,2,0,P|463:235|471:312,1,99.9999999999999,2|2,1:2|1:2,0:2:0:0:
392,366,138890,1,10,0:2:0:0:
392,366,139049,2,0,P|363:351|330:347,1,50,0|0,1:2|1:2,0:0:0:0:
296,350,139368,1,8,0:2:0:0:
199,376,139687,5,6,1:2:0:0:
166,363,139847,1,2,1:2:0:0:
67,377,140166,2,0,P|41:343|42:280,1,99.9999999999999,10|10,0:2|0:2,0:2:0:0:
74,252,140645,1,0,1:2:0:0:
74,252,140805,2,0,P|100:218|99:155,1,99.9999999999999,2|10,1:2|0:2,0:0:0:0:
38,85,141443,1,10,0:2:0:0:
38,85,141602,2,0,P|62:69|94:63,1,50,0|2,1:2|1:2,0:0:0:0:
132,68,141921,1,10,0:2:0:0:
215,123,142241,5,6,1:2:0:0:
247,111,142400,1,2,1:2:0:0:
318,40,142719,2,0,P|355:20|429:37,1,99.9999999999999,10|8,0:2|0:2,0:2:0:0:
448,59,143198,1,2,1:2:0:0:
448,59,143358,2,0,P|443:99|436:162,1,99.9999999999999,2|2,1:2|1:2,0:0:0:0:
483,246,143996,1,8,0:2:0:0:
483,246,144156,2,0,P|443:255|426:255,1,50,2|2,1:2|1:2,0:0:0:0:
384,246,144475,1,10,0:2:0:0:
304,185,144794,5,0,1:2:0:0:
271,172,144953,1,0,1:2:0:0:
182,125,145273,2,0,P|123:137|74:142,1,99.9999999999999,10|10,0:2|0:2,0:2:0:0:
34,133,145751,1,0,1:2:0:0:
34,133,145911,2,0,P|45:163|26:237,1,99.9999999999999,0|10,1:2|0:2,0:0:0:0:
5,324,146549,1,10,0:2:0:0:
5,324,146709,2,0,P|41:311|66:309,1,50,0|0,1:2|1:2,0:0:0:0:
101,318,147028,1,8,0:2:0:0:
188,270,147347,2,0,L|193:322,2,50,0|0|0,1:2|1:2|1:2,0:0:0:0:
206,223,147826,1,0,1:0:0:0:
206,223,147985,6,0,P|208:195|211:169,1,50,14|2,1:2|1:2,0:0:0:0:
251,83,148464,2,0,P|288:64|356:77,1,99.9999999999999,2|2,1:2|1:2,0:2:0:0:
372,91,148943,1,8,0:2:0:0:
391,119,149102,1,2,1:2:0:0:
303,168,149422,2,0,P|294:214|286:268,1,99.9999999999999,2|2,1:2|1:2,0:2:0:0:
306,312,149900,1,8,0:2:0:0:
395,355,150219,1,2,0:2:0:0:
480,336,150539,6,0,P|485:297|486:282,1,50,10|2,0:2|1:2,0:0:0:0:
439,197,151017,2,0,P|433:165|453:93,1,99.9999999999999,2|2,1:2|1:2,0:2:0:0:
469,72,151496,1,8,0:2:0:0:
492,46,151656,1,2,1:2:0:0:
398,9,151975,2,0,P|366:37|302:45,1,99.9999999999999,2|2,1:2|1:2,0:2:0:0:
262,34,152453,1,8,0:2:0:0:
167,1,152773,1,10,0:2:0:0:
73,35,153092,5,10,0:2:0:0:
27,123,153411,1,10,0:2:0:0:
27,123,153570,2,0,P|37:167|39:227,1,99.9999999999999,0|0,1:2|1:2,0:0:0:0:
20,268,154049,1,10,0:2:0:0:
70,354,154368,1,10,0:2:0:0:
70,354,154528,2,0,P|108:371|169:361,1,99.9999999999999,0|0,1:2|1:2,0:0:0:0:
197,325,155007,1,10,0:2:0:0:
242,235,155326,1,10,0:2:0:0:
300,315,155645,5,10,0:2:0:0:
395,344,155964,1,10,0:2:0:0:
395,344,156124,2,0,B|447:337|447:337|480:291,1,99.9999999999999,0|0,1:2|1:2,0:0:0:0:
499,255,156602,1,10,0:2:0:0:
449,167,156922,1,10,0:2:0:0:
495,78,157241,2,0,P|465:74|435:64,1,50,10|0,0:2|1:2,0:2:0:0:
405,38,157560,2,0,B|292:6|327:103|212:72,1,200,8|0,0:2|0:0,0:0:0:0:
177,45,158358,6,0,P|169:94|165:155,1,99.9999999999999,10|2,0:2|1:2,0:0:0:0:
199,180,158836,2,0,P|207:226|204:298,1,99.9999999999999,10|2,0:2|1:2,0:0:0:0:
185,324,159315,1,10,0:2:0:0:
94,365,159634,2,0,P|51:352|23:293,1,99.9999999999999,10|2,0:2|1:2,0:0:0:0:
35,258,160113,2,0,P|42:221|44:199,1,50,10|2,0:2|1:2,0:0:0:0:
36,174,160432,1,10,0:2:0:0:
22,141,160592,1,6,1:2:0:0:
256,192,160751,12,0,166496,0:0:0:0:
350,62,167134,5,6,1:2:0:0:
350,62,167293,2,0,P|357:97|359:122,1,50,2|8,0:2|0:2,0:2:0:0:
330,152,167612,1,2,0:2:0:0:
330,152,167772,2,0,P|322:190|317:261,1,99.9999999999999,2|8,1:2|0:2,0:2:0:0:
371,334,168410,2,0,P|324:354|270:338,1,99.9999999999999,0|10,1:2|0:2,0:0:0:0:
235,318,168889,1,2,0:2:0:0:
235,318,169048,2,0,P|229:279|228:258,2,50,2|2|10,1:2|0:2|0:2,0:0:0:0:
143,359,169687,5,2,1:2:0:0:
143,359,169846,2,0,P|116:373|83:373,1,50,2|8,0:2|0:2,0:2:0:0:
62,366,170165,1,2,0:2:0:0:
29,352,170325,1,2,1:2:0:0:
18,252,170644,1,10,0:2:0:0:
96,190,170963,2,0,P|146:196|204:201,2,99.9999999999999,0|10|0,1:2|0:2|1:2,0:2:0:0:
54,98,171921,1,10,0:2:0:0:
126,29,172240,5,4,1:1:0:0:
224,44,172559,2,0,P|248:84|242:140,2,99.9999999999999,10|2|10,0:2|1:2|0:2,0:2:0:0:
148,109,173516,2,0,P|143:158|168:200,1,99.9999999999999,2|10,1:2|0:2,0:2:0:0:
261,236,174155,2,0,P|305:215|330:172,1,99.9999999999999,2|10,1:2|0:2,0:2:0:0:
331,122,174634,1,2,0:2:0:0:
331,122,174793,6,0,P|334:86|336:65,1,50,2|2,1:2|0:2,0:0:0:0:
351,24,175112,1,8,0:2:0:0:
449,9,175431,1,0,1:2:0:0:
502,93,175751,2,0,P|492:136|489:151,1,50,10|2,0:2|0:2,0:0:0:0:
457,179,176070,1,10,0:2:0:0:
457,179,176229,2,0,P|466:221|471:292,1,99.9999999999999,10|10,0:2|0:2,0:2:0:0:
445,320,176708,1,2,1:2:0:0:
364,379,177027,1,2,1:2:0:0:
272,337,177346,5,2,1:2:0:0:
272,337,177506,2,0,P|232:322|215:321,1,50,2|8,0:2|0:2,0:2:0:0:
190,328,177825,1,2,0:2:0:0:
157,341,177985,1,2,1:2:0:0:
62,373,178304,2,0,P|34:342|32:268,1,99.9999999999999,10|0,0:2|1:2,0:2:0:0:
104,223,178942,2,0,P|99:173|95:117,1,99.9999999999999,10|0,0:2|1:2,0:2:0:0:
124,27,179580,2,0,P|154:12|183:9,1,50,10|0,0:2|0:2,0:2:0:0:
210,38,179899,6,0,P|231:73|301:88,1,99.9999999999999,2|8,1:2|0:2,0:0:0:0:
319,83,180378,1,2,0:2:0:0:
350,68,180538,1,2,1:2:0:0:
444,101,180857,1,10,0:2:0:0:
488,190,181176,2,0,P|484:239|463:285,2,99.9999999999999,0|10|2,1:2|0:2|1:2,0:2:0:0:
388,177,182134,1,10,0:2:0:0:
313,243,182453,6,0,P|267:271|214:262,1,99.9999999999999,2|8,1:2|0:2,0:0:0:0:
178,244,182931,1,2,0:2:0:0:
178,244,183091,2,0,P|173:268|167:292,2,50,2|2|10,1:2|0:2|0:2,0:0:0:0:
251,176,183729,2,0,P|245:130|237:61,1,99.9999999999999,0|8,1:2|0:2,0:2:0:0:
222,29,184208,1,2,0:2:0:0:
222,29,184368,2,0,P|254:25|287:26,2,50,2|2|10,1:2|0:2|0:2,0:0:0:0:
127,60,185006,6,0,P|95:72|60:141,1,99.9999999999999,0|8,1:2|0:2,0:2:0:0:
72,174,185485,1,10,0:2:0:0:
72,174,185644,2,0,P|104:177|136:183,2,50,2|10|2,1:2|0:2|1:2,0:0:0:0:
19,258,186282,1,2,1:2:0:0:
91,327,186602,2,0,P|85:370|82:389,2,50,8|8|8,0:2|0:3|0:3,0:0:0:0:
171,267,187240,2,0,P|205:257|228:258,1,50,8|0,0:2|1:2,0:0:0:0:
264,278,187559,5,14,0:2:0:0:
264,278,187719,2,0,P|296:303|366:306,1,99.9999999999999,2|2,1:2|1:2,0:2:0:0:
398,288,188197,1,2,0:2:0:0:
420,190,188516,1,8,0:2:0:0:
420,190,188676,2,0,P|461:214|526:203,2,99.9999999999999,0|0|0,1:2|1:2|1:2,0:2:0:0:
397,145,189474,2,0,P|402:118|404:90,2,50,8|8|8,0:2|0:2|0:2,0:0:0:0:
306,186,190112,5,14,0:2:0:0:
306,186,190272,2,0,P|257:164|204:173,1,99.9999999999999,2|2,1:2|1:2,0:2:0:0:
171,197,190751,1,2,0:2:0:0:
96,263,191070,1,10,0:2:0:0:
17,201,191389,2,0,P|28:159|36:95,1,99.9999999999999,2|0,0:2|0:0,0:2:0:0:
83,15,192027,2,0,P|47:6|-1:8,2,74.9999999999999,10|8|8,0:2|0:2|0:2,0:0:0:0:
115,27,192665,5,6,1:2:0:0:
145,43,192825,1,0,1:2:0:0:
244,35,193144,2,0,P|286:15|347:33,1,99.9999999999999,8|10,0:2|0:2,0:0:0:0:
371,61,193623,1,2,1:2:0:0:
371,61,193782,2,0,P|367:88|362:166,1,99.9999999999999,2|2,1:2|1:2,0:2:0:0:
433,231,194421,1,10,0:2:0:0:
433,231,194580,2,0,P|438:269|438:288,1,50,0|2,1:2|1:2,0:0:0:0:
424,328,194899,1,8,0:2:0:0:
335,375,195219,5,2,1:2:0:0:
302,363,195378,1,2,1:2:0:0:
221,303,195697,2,0,P|226:267|231:201,1,99.9999999999999,10|10,0:2|0:2,0:0:0:0:
204,160,196176,1,2,1:2:0:0:
204,160,196336,2,0,P|198:108|194:42,1,99.9999999999999,2|10,1:2|0:2,0:0:0:0:
107,11,196974,1,10,0:2:0:0:
107,11,197134,2,0,P|101:48|98:67,1,50,0|2,3:0|1:2,0:0:0:0:
106,109,197453,1,8,0:2:0:0:
30,174,197772,5,2,1:2:0:0:
23,208,197931,1,2,1:2:0:0:
53,303,198251,2,0,P|78:325|143:327,1,99.9999999999999,8|10,0:2|0:2,0:0:0:0:
174,289,198729,1,2,1:2:0:0:
174,289,198889,2,0,P|227:278|277:277,1,99.9999999999999,2|2,1:2|1:2,0:2:0:0:
340,350,199527,1,10,0:2:0:0:
340,350,199687,2,0,P|376:365|409:366,1,50,0|2,1:2|1:2,0:0:0:0:
436,361,200006,1,8,0:2:0:0:
500,284,200325,5,2,1:2:0:0:
491,250,200485,1,2,1:2:0:0:
425,174,200804,2,0,P|391:159|317:172,1,99.9999999999999,10|10,0:2|0:2,0:0:0:0:
301,206,201282,1,2,1:2:0:0:
301,206,201442,2,0,P|245:216|184:222,1,99.9999999999999,0|10,1:2|0:2,0:0:0:0:
105,196,202080,1,10,0:2:0:0:
105,196,202240,2,0,P|96:165|94:135,1,50,0|2,0:0|1:2,0:0:0:0:
102,97,202559,1,8,0:2:0:0:
181,36,202878,5,2,1:2:0:0:
214,24,203038,1,2,1:2:0:0:
302,71,203357,2,0,P|331:86|405:76,1,99.9999999999999,8|10,0:2|0:2,0:0:0:0:
433,47,203836,1,2,1:2:0:0:
433,47,203995,2,0,P|439:98|446:169,1,99.9999999999999,2|10,1:2|0:2,0:0:0:0:
485,237,204634,1,2,1:2:0:0:
485,237,204793,2,0,P|456:239|425:248,1,50,8|10,0:2|0:2,0:0:0:0:
394,272,205112,2,0,P|359:272|331:265,1,50,8|0,0:2|1:2,0:0:0:0:
298,249,205431,5,14,0:2:0:0:
218,188,205751,1,8,0:2:0:0:
218,188,205910,2,0,P|199:223|206:285,1,99.9999999999999,10|8,0:2|0:2,0:0:0:0:
235,320,206389,1,2,1:2:0:0:
150,373,206708,1,8,0:2:0:0:
150,373,206867,2,0,P|129:339|71:314,1,99.9999999999999,2|0,1:2|1:2,0:0:0:0:
27,322,207346,1,10,0:2:0:0:
52,225,207665,1,10,0:2:0:0:
25,128,207985,6,0,P|72:119|134:113,1,99.9999999999999,6|8,1:2|0:2,0:0:0:0:
167,137,208463,2,0,P|225:146|288:158,1,99.9999999999999,6|0,1:2|1:2,0:2:0:0:
305,184,208942,2,0,P|312:224|309:241,2,50,6|8|8,1:2|0:2|0:2,0:0:0:0:
315,135,209421,1,0,1:2:0:0:
351,41,209740,1,0,1:2:0:0:
351,41,209899,2,0,P|382:30|407:28,1,50,8|0,0:2|1:2,0:0:0:0:
434,29,210219,1,8,0:2:0:0:
466,42,210378,5,6,1:2:0:0:
256,192,210458,12,0,219474,0:2:0:0:
