osu file format v14

[General]
AudioFilename: audio.mp3
AudioLeadIn: 0
PreviewTime: 167055
Countdown: 0
SampleSet: Soft
StackLeniency: 0.7
Mode: 0
LetterboxInBreaks: 0
WidescreenStoryboard: 0

[Editor]
DistanceSpacing: 2.5
BeatDivisor: 4
GridSize: 4
TimelineZoom: 1

[Metadata]
Title:Answer is near
TitleUnicode:アンサイズニア
Artist:ONE OK ROCK
ArtistUnicode:ONE OK ROCK
Creator:Nevo
Version:Expert
Source:
Tags:mordred smokelind armin a_r_m_i_n soop so0p frostwich synderes Kuki1537 ook japanese rock smoke kudosu reform kujinn
BeatmapID:2321246
BeatmapSetID:1110954

[Difficulty]
HPDrainRate:6
CircleSize:4
OverallDifficulty:9
ApproachRate:9.3
SliderMultiplier:1.7
SliderTickRate:1

[Events]
//Background and Video events
0,0,"72026743_p14.jpg",0,0
//Break Periods
2,23717,32857
2,116909,126368
//Storyboard Layer 0 (Background)
//Storyboard Layer 1 (Fail)
//Storyboard Layer 2 (Pass)
//Storyboard Layer 3 (Foreground)
//Storyboard Layer 4 (Overlay)
//Storyboard Sound Samples

[TimingPoints]
13305,319.148936170213,4,2,5,70,1,0
33411,-100,4,2,5,60,0,0
43943,-83.3333333333333,4,2,5,80,0,1
47693,-83.3333333333333,4,2,5,5,0,1
47773,-83.3333333333333,4,2,5,80,0,1
48331,-83.3333333333333,4,2,5,5,0,1
48411,-83.3333333333333,4,2,5,80,0,1
63092,-100,4,2,5,80,0,1
64368,-100,4,2,5,80,0,0
74581,-133.333333333333,4,2,5,50,0,0
74741,-133.333333333333,4,2,5,5,0,0
74820,-133.333333333333,4,2,5,50,0,0
74980,-133.333333333333,4,2,5,5,0,0
75060,-133.333333333333,4,2,5,50,0,0
76656,-133.333333333333,4,2,6,50,0,0
77134,-133.333333333333,4,2,5,50,0,0
77294,-133.333333333333,4,2,5,5,0,0
77373,-133.333333333333,4,2,5,50,0,0
77533,-133.333333333333,4,2,5,5,0,0
77613,-133.333333333333,4,2,5,50,0,0
79209,-133.333333333333,4,2,6,50,0,0
79687,-133.333333333333,4,2,5,50,0,0
79847,-133.333333333333,4,2,5,5,0,0
79926,-133.333333333333,4,2,5,50,0,0
80086,-133.333333333333,4,2,5,5,0,0
80166,-133.333333333333,4,2,5,50,0,0
81762,-133.333333333333,4,2,6,50,0,0
82241,-133.333333333333,4,2,5,50,0,0
84315,-133.333333333333,4,2,6,50,0,0
84794,-100,4,2,5,60,0,0
95007,-100,4,2,5,40,0,0
95964,-100,4,2,5,70,0,0
96004,-100,4,2,5,5,0,0
96283,-83.3333333333333,4,2,5,80,0,1
100033,-83.3333333333333,4,2,5,5,0,1
100113,-83.3333333333333,4,2,5,80,0,1
100672,-83.3333333333333,4,2,5,5,0,1
100751,-83.3333333333333,4,2,5,80,0,1
111602,-100,4,2,5,80,0,1
115432,-181.818181818181,4,2,5,80,0,0
116283,-181.818181818181,4,2,5,70,0,0
116496,-181.818181818181,4,2,5,60,0,0
116709,-181.818181818181,4,2,5,50,0,0
132028,-133.333333333333,4,2,5,60,0,0
137134,-100,4,2,5,70,0,0
147347,-100,4,2,5,50,0,0
147985,-100,4,2,5,70,0,0
167134,319.148936170213,4,2,5,80,1,0
167134,-76.9230769230769,4,2,5,80,0,1
170884,-76.9230769230769,4,2,5,5,0,1
170963,-76.9230769230769,4,2,5,80,0,1
171522,-76.9230769230769,4,2,5,5,0,1
171602,-76.9230769230769,4,2,5,80,0,1
178543,-76.9230769230769,4,2,5,5,0,1
178623,-76.9230769230769,4,2,5,80,0,1
179181,-76.9230769230769,4,2,5,5,0,1
179261,-76.9230769230769,4,2,5,80,0,1
181096,-76.9230769230769,4,2,5,5,0,1
181176,-76.9230769230769,4,2,5,80,0,1
191389,-133.333333333333,4,2,5,70,0,0
192665,-100,4,2,5,70,0,0
205431,-100,4,2,5,80,0,0
211814,-100,4,2,5,65,0,0
213091,-100,4,2,5,60,0,0
213729,-100,4,2,5,55,0,0
214368,-100,4,2,5,50,0,0
215006,-100,4,2,5,45,0,0
215644,-100,4,2,5,40,0,0
216282,-100,4,2,5,35,0,0
216921,-100,4,2,5,30,0,0
217559,-100,4,2,5,25,0,0
218197,-100,4,2,5,20,0,0
218836,-100,4,2,5,10,0,0
219474,-100,4,2,5,5,0,0

[Colours]
Combo1 : 255,94,94
Combo2 : 128,128,255
Combo3 : 255,153,51

[HitObjects]
144,151,13304,6,0,L|158:258,1,85,6|0,1:2|1:2,0:0:0:0:
199,70,13624,1,2,0:2:0:0:
70,204,13783,1,8,0:2:0:0:
227,293,13943,2,0,P|264:301|320:278,2,85,2|10|2,0:2|0:2|1:2,0:0:0:0:
272,128,14422,6,0,L|259:212,1,85,2|0,1:2|0:0,0:2:0:0:
34,302,14741,1,2,1:2:0:0:
150,185,14900,1,2,0:2:0:0:
217,370,15060,2,0,P|259:366|298:350,1,85,10|0,0:2|1:2,0:2:0:0:
143,297,15379,1,2,1:2:0:0:
255,190,15539,2,0,L|242:282,1,85,8|6,0:2|1:2,0:0:0:0:
206,111,15858,5,2,1:2:0:0:
338,240,16017,1,2,1:2:0:0:
150,185,16177,1,2,0:2:0:0:
290,55,16336,1,8,0:2:0:0:
335,146,16496,2,0,L|419:156,2,85,2|10|2,0:2|0:2|1:2,0:0:0:0:
453,1,16975,6,0,L|469:84,1,85,2|0,1:2|0:0,0:2:0:0:
501,206,17294,1,10,0:2:0:0:
366,58,17453,1,2,0:2:0:0:
294,222,17613,1,10,0:2:0:0:
419,156,17773,1,0,1:2:0:0:
250,120,17932,1,2,1:2:0:0:
349,316,18092,1,8,0:2:0:0:
335,146,18251,1,6,1:2:0:0:
187,346,18411,5,2,1:2:0:0:
391,239,18570,1,2,1:2:0:0:
134,206,18730,2,0,L|46:195,1,85,2|8,0:2|0:2,0:2:0:0:
151,36,19049,2,0,L|239:25,1,85,2|10,0:2|0:2,0:0:0:0:
315,101,19368,1,2,1:2:0:0:
468,4,19528,6,0,P|499:45|515:86,1,85,2|0,1:2|0:0,0:2:0:0:
380,215,19847,1,2,1:2:0:0:
412,101,20007,1,2,0:2:0:0:
465,295,20166,1,10,0:2:0:0:
281,232,20326,1,0,1:2:0:0:
483,175,20485,1,2,1:2:0:0:
262,236,20645,2,0,L|168:221,1,85,8|6,0:2|1:2,0:0:0:0:
38,44,20964,6,0,P|83:78|101:118,1,85,2|2,1:2|1:2,0:0:0:0:
61,286,21283,2,0,L|52:193,1,85,2|8,0:2|0:2,0:2:0:0:
215,109,21602,1,2,0:2:0:0:
36,191,21762,1,10,0:2:0:0:
256,261,21922,1,2,1:2:0:0:
141,351,22081,6,0,L|155:267,1,85,2|0,1:2|0:0,0:2:0:0:
395,323,22400,2,0,P|331:335|284:313,1,85,10|2,0:2|0:2,0:0:0:0:
218,138,22719,1,0,1:2:0:0:
442,192,22879,1,8,0:3:0:0:
141,208,23038,1,10,0:3:0:0:
384,114,23198,1,4,0:3:0:0:
117,64,23357,1,4,0:3:0:0:
256,261,23517,5,4,1:2:0:0:
194,269,33411,5,8,0:2:0:0:
194,269,33730,6,0,B|267:260|267:260|290:273|290:273|372:267,1,170,0|8,1:2|0:2,0:2:0:0:
450,213,34209,1,2,0:2:0:0:
331,98,34368,2,0,P|314:147|320:187,1,85,2|2,1:2|0:2,0:2:0:0:
512,143,34687,2,0,P|514:100|498:61,1,85,10|2,0:2|0:2,0:2:0:0:
291,15,35007,6,0,L|207:30,1,85,2|0,0:2|1:0,0:2:0:0:
104,81,35326,1,8,0:2:0:0:
181,224,35485,2,0,P|191:168|185:127,1,85,2|0,0:2|1:2,0:2:0:0:
19,261,35805,2,0,P|9:205|15:164,1,85,0|8,1:2|0:2,0:2:0:0:
190,323,36124,6,0,P|239:304|357:325,1,170,2|0,0:2|1:2,0:0:0:0:
462,367,36602,1,10,0:2:0:0:
483,278,36762,1,0,0:2:0:0:
345,197,36922,1,2,1:2:0:0:
388,297,37081,1,0,0:0:0:0:
512,187,37241,2,0,L|422:168,1,85,8|2,0:2|0:2,0:0:0:0:
345,21,37560,6,0,P|388:53|410:84,1,85,2|0,0:2|1:2,0:2:0:0:
223,117,37879,2,0,P|276:109|313:115,1,85,10|0,0:2|0:2,0:2:0:0:
200,223,38198,2,0,P|157:189|122:176,1,85,2|0,1:2|1:2,0:2:0:0:
138,365,38517,2,0,P|131:311|115:277,1,85,10|0,0:2|0:2,0:2:0:0:
0,204,38836,6,0,L|15:293,1,85,2|0,1:2|1:2,0:0:0:0:
129,178,39156,2,0,L|144:89,1,85,10|0,0:2|0:2,0:2:0:0:
45,121,39475,1,2,1:2:0:0:
216,220,39634,2,0,P|261:203|330:203,1,85,2|8,0:2|0:2,0:2:0:0:
413,254,39953,1,2,0:2:0:0:
386,59,40113,6,0,L|397:150,1,85,2|0,0:2|1:2,0:2:0:0:
485,193,40432,1,10,0:2:0:0:
287,101,40592,2,0,B|244:88|244:88|197:94,1,85,2|0,0:2|1:2,0:2:0:0:
64,222,40911,2,0,B|107:235|107:235|154:229,1,85,2|8,1:2|0:2,0:2:0:0:
228,187,41230,1,2,1:2:0:0:
103,62,41390,6,0,L|121:163,1,85,0|0,1:2|1:2,0:0:0:0:
189,9,41709,2,0,L|207:110,1,85,10|0,0:2|0:2,0:2:0:0:
423,139,42028,6,0,L|405:240,1,85,2|0,0:2|0:2,0:2:0:0:
337,86,42347,2,0,L|319:187,1,85,10|2,0:2|0:2,0:0:0:0:
106,245,42666,6,0,L|122:343,2,85
29,175,43145,1,0,0:0:0:0:
198,214,43305,2,0,P|256:220|294:210,1,85
139,40,43624,1,8,0:2:0:0:
139,40,43943,5,6,1:2:0:0:
106,245,44102,2,0,L|122:126,1,101.999996887207,2|8,0:2|0:2,0:2:0:0:
355,8,44422,5,2,0:2:0:0:
388,213,44581,2,0,L|372:94,1,101.999996887207,2|0,1:2|0:2,0:2:0:0:
182,311,44900,2,0,P|120:346|76:342,1,101.999996887207,8|0,0:2|0:0,0:2:0:0:
202,216,45219,6,0,L|331:231,1,101.999996887207,0|2,1:2|0:2,0:0:0:0:
57,93,45539,1,10,0:2:0:0:
106,245,45698,1,2,0:2:0:0:
215,26,45858,1,2,1:2:0:0:
202,216,46017,1,2,0:2:0:0:
380,16,46177,1,10,0:2:0:0:
317,218,46336,1,2,0:2:0:0:
120,24,46496,5,2,1:2:0:0:
365,132,46656,2,0,L|496:104,1,101.999996887207,2|8,0:2|0:2,0:2:0:0:
366,316,46975,5,2,0:2:0:0:
133,158,47135,2,0,L|33:136,1,101.999996887207,2|0,1:2|0:2,0:2:0:0:
249,15,47453,2,0,B|264:67|264:67|250:121,1,101.999996887207,10|0,0:2|0:0,0:2:0:0:
150,268,47773,6,0,P|176:236|245:210,1,101.999996887207,0|0,1:2|0:2,0:2:0:0:
372,4,48092,2,0,P|386:42|374:115,1,101.999996887207,10|0,0:2|0:0,0:2:0:0:
489,328,48411,2,0,P|448:321|391:274,1,101.999996887207,0|0,1:2|0:2,0:2:0:0:
497,120,48730,2,0,L|482:230,1,101.999996887207,8|0,0:2|0:0,0:2:0:0:
247,312,49049,5,4,1:1:0:0:
247,312,49368,6,0,L|357:298,1,101.999996887207,10|0,0:2|0:2,0:2:0:0:
31,170,49687,2,0,L|141:156,1,101.999996887207,2|0,1:2|0:2,0:2:0:0:
244,36,50007,2,0,L|142:23,1,101.999996887207,10|0,0:2|0:2,0:2:0:0:
320,216,50326,2,0,L|219:204,1,101.999996887207,2|0,1:2|0:2,0:2:0:0:
411,40,50645,2,0,P|433:95|434:142,1,101.999996887207,10|0,0:2|0:2,0:2:0:0:
343,313,50964,2,0,P|321:258|320:211,1,101.999996887207,2|0,1:2|0:2,0:2:0:0:
331,111,51283,1,10,0:2:0:0:
216,292,51443,1,2,0:2:0:0:
112,111,51602,5,2,1:2:0:0:
319,215,51762,1,2,0:2:0:0:
60,375,51922,2,0,L|45:265,1,101.999996887207,8|0,0:2|0:2,0:2:0:0:
46,273,52161,1,8,0:2:0:0:
46,273,52241,1,0,1:2:0:0:
177,115,52400,1,8,0:2:0:0:
21,164,52560,1,10,1:2:0:0:
156,266,52719,1,2,0:2:0:0:
156,266,52799,1,8,0:2:0:0:
156,266,52879,5,10,0:2:0:0:
319,10,53039,1,10,0:2:0:0:
345,52,53118,1,8,0:2:0:0:
351,103,53198,1,8,0:2:0:0:
335,150,53278,1,8,0:2:0:0:
299,186,53358,1,10,0:2:0:0:
272,229,53437,1,8,0:2:0:0:
266,280,53517,1,10,0:3:0:0:
282,327,53597,1,8,0:3:0:0:
318,363,53677,2,0,L|372:349,1,50.9999984436036,6|4,0:3|0:3,0:0:0:0:
507,295,53836,5,10,0:2:0:0:
236,87,53996,1,2,1:2:0:0:
510,144,54156,5,14,0:2:0:0:
156,266,54315,2,0,L|22:252,1,101.999996887207,2|0,1:2|0:2,0:2:0:0:
236,87,54634,5,10,0:2:0:0:
398,343,54793,2,0,L|499:332,1,101.999996887207,2|0,1:2|1:2,0:2:0:0:
338,85,55113,2,0,P|320:146|337:195,1,101.999996887207,8|0,0:2|1:2,0:2:0:0:
444,7,55432,6,0,B|362:17|362:17|328:47|328:47|245:55,1,203.999993774414,10|2,1:2|0:2,0:2:0:0:
59,55,55911,1,10,0:2:0:0:
273,169,56070,1,2,1:2:0:0:
19,200,56230,1,2,1:2:0:0:
229,270,56390,1,10,0:2:0:0:
0,353,56549,1,0,1:2:0:0:
171,102,56709,5,10,0:2:0:0:
143,384,56868,2,0,L|132:274,1,101.999996887207,2|0,1:2|0:2,0:2:0:0:
349,34,57187,5,10,0:2:0:0:
406,317,57347,2,0,L|417:207,1,101.999996887207,2|0,1:2|0:2,0:2:0:0:
161,190,57666,2,0,B|208:217|208:217|273:210,1,101.999996887207,14|0,0:2|0:0,0:2:0:0:
166,75,57985,5,10,0:2:0:0:
115,75,58064,1,8,0:2:0:0:
71,100,58144,1,8,0:2:0:0:
45,144,58224,1,8,0:2:0:0:
44,194,58305,2,0,L|51:251,3,50.9999984436036,10|8|8|8,0:3|0:3|0:3|0:3,0:2:0:0:
124,294,58624,2,0,L|117:351,3,50.9999984436036,6|4|4|4,0:3|0:3|0:3|0:3,0:0:0:0:
193,226,58943,1,10,0:2:0:0:
234,383,59102,1,2,1:2:0:0:
387,309,59262,6,0,L|270:298,1,101.999996887207,12|0,0:2|1:2,0:0:0:0:
449,128,59581,1,0,0:0:0:0:
463,225,59741,1,0,1:2:0:0:
338,122,59900,1,0,0:0:0:0:
376,37,60060,1,0,1:2:0:0:
376,37,60140,1,0,1:0:0:0:
376,37,60219,2,0,P|326:18|242:27,1,101.999996887207,8|0,0:2|1:2,0:0:0:0:
138,179,60539,6,0,P|188:177|236:159,1,101.999996887207,0|0,0:0|1:2,0:0:0:0:
51,106,60858,2,0,L|38:223,1,101.999996887207,0|0,0:0|1:2,0:0:0:0:
39,207,61097,1,0,1:2:0:0:
39,207,61177,1,8,0:2:0:0:
170,67,61336,1,8,0:2:0:0:
222,288,61496,1,8,0:2:0:0:
258,21,61656,1,2,1:2:0:0:
405,253,61815,5,14,0:2:0:0:
138,179,61975,1,0,1:2:0:0:
415,101,62134,1,0,0:0:0:0:
170,67,62294,5,0,1:2:0:0:
326,180,62453,2,0,L|312:289,1,101.999996887207,2|0,0:2|1:2,0:2:0:0:
251,119,62773,1,10,0:2:0:0:
405,253,62932,1,0,1:2:0:0:
254,360,63092,6,0,B|182:393|123:355|123:355|74:322|-2:352,1,255,2|0,0:2|1:2,0:2:0:0:
9,347,63650,1,0,1:2:0:0:
9,347,63730,1,10,0:2:0:0:
196,254,63969,1,8,0:2:0:0:
22,145,64209,1,8,0:2:0:0:
88,291,64368,6,0,L|100:187,1,85,6|0,1:2|1:0,0:0:0:0:
183,84,64687,1,0,0:0:0:0:
256,177,64847,1,8,0:0:0:0:
362,79,65007,2,0,L|266:89,2,85,0|8|6,0:0|0:0|1:2,0:0:0:0:
457,203,65485,6,0,L|367:192,1,85,0|0,1:0|0:0,0:0:0:0:
428,9,65805,2,0,P|459:63|449:103,1,85,0|0,1:0|0:0,0:0:0:0:
256,177,66124,1,8,0:0:0:0:
362,79,66283,1,0,1:0:0:0:
124,91,66443,1,0,1:0:0:0:
253,196,66602,1,8,0:0:0:0:
37,249,66762,1,0,1:0:0:0:
140,193,66922,6,0,L|128:305,2,85,6|0|0,1:2|1:0|0:0,0:0:0:0:
244,366,67400,2,0,L|233:281,1,85,8|0,0:0|0:0,0:0:0:0:
344,166,67719,1,8,0:0:0:0:
371,274,67879,1,0,1:0:0:0:
501,213,68039,6,0,L|490:297,1,85,0|0,1:0|0:0,0:0:0:0:
282,104,68358,2,0,B|321:78|321:78|374:84,1,85,8|0,0:0|0:0,0:0:0:0:
261,225,68677,1,8,0:0:0:0:
144,133,68836,1,0,1:0:0:0:
344,166,68996,1,0,1:0:0:0:
184,343,69156,1,8,0:0:0:0:
166,244,69315,1,0,1:0:0:0:
278,369,69475,6,0,P|349:385|422:320,1,170,6|0,1:2|0:0,0:0:0:0:
406,189,69953,1,8,0:0:0:0:
333,293,70113,1,0,0:0:0:0:
269,140,70273,1,8,0:0:0:0:
510,276,70432,1,0,1:0:0:0:
394,104,70592,6,0,L|405:188,1,85,0|0,1:0|0:0,0:0:0:0:
280,55,70911,2,0,L|268:139,1,85,0|0,1:0|0:0,0:0:0:0:
204,237,71230,1,8,0:0:0:0:
128,144,71390,1,0,1:0:0:0:
39,283,71549,1,0,1:0:0:0:
17,93,71709,1,8,0:0:0:0:
117,232,71868,1,0,1:0:0:0:
200,81,72028,6,0,P|262:56|303:57,2,85,2|0|0,1:2|1:0|0:0,0:0:0:0:
253,241,72507,2,0,L|267:133,1,85,8|0,0:0|0:0,0:0:0:0:
199,311,72826,1,8,0:0:0:0:
348,208,72985,1,0,1:0:0:0:
161,189,73145,6,0,L|76:198,1,85,0|0,1:0|0:0,0:0:0:0:
253,241,73464,1,8,0:0:0:0:
279,54,73624,1,8,0:0:0:0:
374,323,73783,1,0,1:0:0:0:
342,158,73943,1,0,1:0:0:0:
227,370,74102,1,8,0:0:0:0:
421,235,74262,1,8,0:0:0:0:
193,174,74422,1,0,1:0:0:0:
394,352,74581,6,0,P|439:336|513:328,2,95.6250036478044,4|0|0,1:1|1:2|1:2,0:2:0:0:
301,337,75219,1,8,0:2:0:0:
206,102,76336,1,0,1:2:0:0:
274,151,76496,5,8,0:2:0:0:
262,182,76656,1,2,1:3:0:0:
52,253,77134,6,0,L|64:354,2,95.6250036478044,2|0|0,1:2|1:2|1:2,0:2:0:0:
3,169,77773,1,8,0:2:0:0:
284,301,78890,1,0,1:2:0:0:
363,264,79049,5,8,0:2:0:0:
376,231,79209,1,2,0:3:0:0:
306,79,79687,6,0,P|294:132|306:179,2,95.6250036478044,0|0|0,1:2|1:2|1:2,0:2:0:0:
377,21,80326,1,10,0:2:0:0:
473,206,81443,1,0,1:2:0:0:
388,216,81602,5,8,0:2:0:0:
370,254,81762,1,2,1:3:0:0:
158,346,82241,6,0,B|135:289|135:289|148:234,2,95.6250036478044,2|0|0,1:2|1:2|1:2,0:0:0:0:
352,346,82879,2,0,B|375:289|375:289|362:234,2,95.6250036478044,8|0|0,0:2|1:2|1:2,0:0:0:0:
255,288,83517,5,2,1:2:0:0:
184,133,83757,1,0,1:2:0:0:
328,133,83996,1,2,1:2:0:0:
255,224,84156,6,0,L|255:288,1,63.7500024318696,0|2,0:0|0:3,0:0:0:0:
255,373,84475,1,0,0:0:0:0:
2,104,84794,6,0,P|63:86|89:81,1,85,4|0,1:1|1:2,0:0:0:0:
173,214,85113,1,10,0:2:0:0:
74,185,85273,1,0,0:2:0:0:
268,159,85432,1,2,1:2:0:0:
186,318,85592,1,2,0:2:0:0:
204,74,85751,2,0,P|241:54|301:52,1,85,10|0,0:2|0:2,0:2:0:0:
284,242,86070,6,0,L|260:119,1,85,2|0,0:2|0:0,0:2:0:0:
448,248,86390,1,10,0:2:0:0:
430,335,86549,1,10,0:3:0:0:
430,335,86629,1,8,0:3:0:0:
430,335,86709,1,8,0:3:0:0:
374,173,86868,2,0,P|410:150|477:150,1,85,2|8,0:2|0:2,0:2:0:0:
321,349,87187,6,0,P|234:330|134:331,1,170,2|0,0:2|1:2,0:0:0:0:
19,251,87666,2,0,P|69:257|109:249,1,85,8|0,0:2|0:3,0:2:0:0:
102,250,87906,1,8,0:3:0:0:
102,250,87985,1,8,0:3:0:0:
190,139,88145,1,2,1:2:0:0:
75,150,88305,1,10,0:2:0:0:
75,150,88464,1,2,0:2:0:0:
188,46,88624,6,0,L|286:74,1,85,2|0,1:2|1:2,0:2:0:0:
365,11,88943,2,0,L|414:100,1,85,10|8,0:2|0:3,0:2:0:0:
367,174,89182,1,8,0:3:0:0:
367,174,89262,6,0,L|269:202,1,85,10|0,0:3|0:2,0:2:0:0:
190,139,89581,2,0,L|140:228,1,85,10|0,0:2|0:2,0:2:0:0:
92,308,89900,5,0,1:2:0:0:
206,285,90060,1,0,1:2:0:0:
62,214,90219,2,0,P|13:249|-3:285,2,85,10|2|2,0:2|0:2|1:2,0:0:0:0:
148,213,90698,1,0,0:2:0:0:
221,301,90858,2,0,P|277:312|335:295,1,85,10|2,0:2|0:2,0:0:0:0:
365,193,91177,6,0,B|332:239|332:239|355:357,1,170,2|10,1:2|0:2,0:2:0:0:
464,176,91656,1,8,0:3:0:0:
464,176,91735,1,10,0:3:0:0:
464,176,91815,2,0,P|364:94|307:113,1,170,8|8,0:3|0:2,0:0:0:0:
267,169,92294,1,2,1:2:0:0:
62,83,92453,6,0,L|75:183,1,85,0|0,1:2|1:2,0:0:0:0:
177,22,92773,2,0,L|164:122,1,85,10|0,0:2|0:2,0:2:0:0:
277,253,93092,6,0,L|267:169,1,85,2|0,0:2|0:2,0:2:0:0:
371,314,93412,2,0,L|382:230,1,85,10|2,0:2|0:2,0:0:0:0:
191,267,93730,5,0,1:2:0:0:
38,301,94049,1,0,1:2:0:0:
4,148,94368,1,0,1:2:0:0:
157,114,94687,1,0,1:2:0:0:
321,320,95007,5,0,0:2:0:0:
439,346,95326,1,0,0:2:0:0:
465,228,95645,1,0,0:2:0:0:
347,202,95964,2,0,L|357:252,1,42.5,8|0,0:2|0:0,0:2:0:0:
67,361,96283,5,6,1:2:0:0:
141,172,96443,2,0,P|168:215|181:279,1,101.999996887207,2|8,0:2|0:2,0:2:0:0:
20,145,96762,5,2,0:2:0:0:
240,345,96922,2,0,P|267:302|280:238,1,101.999996887207,2|0,1:2|0:2,0:2:0:0:
147,73,97241,2,0,L|250:98,1,101.999996887207,8|0,0:2|0:0,0:2:0:0:
433,156,97560,6,0,L|330:181,1,101.999996887207,0|2,1:2|0:2,0:0:0:0:
112,242,97879,1,10,0:2:0:0:
315,321,98039,1,2,0:2:0:0:
179,124,98198,1,2,1:2:0:0:
306,347,98358,1,2,0:2:0:0:
274,54,98517,1,10,0:2:0:0:
299,376,98677,1,0,0:2:0:0:
404,19,98836,5,2,1:2:0:0:
290,252,98996,2,0,L|267:140,1,101.999996887207,2|8,0:2|0:2,0:2:0:0:
38,94,99315,5,2,0:2:0:0:
152,327,99475,2,0,L|175:215,1,101.999996887207,0|0,1:2|0:2,0:2:0:0:
278,9,99794,2,0,B|329:14|329:14|388:51,1,101.999996887207,10|0,0:2|0:0,0:2:0:0:
469,216,100113,6,0,P|433:264|388:280,1,101.999996887207,0|0,1:2|0:2,0:2:0:0:
251,94,100432,2,0,P|310:101|346:132,1,101.999996887207,10|0,0:2|0:0,0:2:0:0:
120,159,100751,2,0,P|96:103|105:56,1,101.999996887207,0|0,1:2|0:2,0:2:0:0:
263,196,101070,2,0,L|222:323,1,101.999996887207,10|0,0:2|0:0,0:2:0:0:
18,169,101390,5,4,1:1:0:0:
18,169,101709,6,0,L|128:158,1,101.999996887207,10|0,0:2|0:2,0:2:0:0:
281,364,102028,2,0,L|391:353,1,101.999996887207,2|0,1:2|0:2,0:2:0:0:
511,77,102347,2,0,L|401:66,1,101.999996887207,10|0,0:2|0:2,0:2:0:0:
248,272,102666,2,0,L|138:261,1,101.999996887207,2|0,1:2|0:2,0:2:0:0:
154,58,102985,2,0,P|212:104|225:144,1,101.999996887207,10|0,0:2|0:2,0:2:0:0:
355,313,103305,2,0,P|308:371|268:384,1,101.999996887207,2|0,1:2|0:2,0:2:0:0:
11,338,103624,1,10,1:2:0:0:
248,272,103783,1,0,0:2:0:0:
18,169,103943,5,2,1:2:0:0:
98,384,104102,1,2,0:2:0:0:
204,176,104262,2,0,B|241:164|241:164|343:186,1,101.999996887207,10|0,0:2|0:2,0:2:0:0:
302,177,104501,1,8,0:2:0:0:
302,177,104581,1,0,1:2:0:0:
112,251,104741,1,10,0:2:0:0:
237,84,104900,1,2,1:2:0:0:
312,289,105060,1,2,0:2:0:0:
312,289,105140,1,8,0:2:0:0:
312,289,105219,5,2,1:2:0:0:
417,182,105379,1,10,0:2:0:0:
417,182,105459,1,8,0:2:0:0:
417,182,105539,2,0,L|404:122,1,50.9999984436036,8|8,0:0|0:2,0:0:0:0:
316,31,105698,5,8,0:2:0:0:
284,6,105777,1,8,0:2:0:0:
244,0,105857,1,10,0:3:0:0:
207,16,105937,1,8,0:3:0:0:
181,49,106017,1,4,0:3:0:0:
172,87,106096,1,4,0:3:0:0:
182,129,106177,2,0,L|196:186,1,50.9999984436036,10|0,0:2|0:2,0:2:0:0:
310,297,106336,2,0,L|315:240,1,50.9999984436036,2|0,1:2|0:2,0:2:0:0:
163,344,106496,5,14,0:2:0:0:
330,148,106656,2,0,P|393:184|412:220,1,101.999996887207,2|0,1:2|0:2,0:2:0:0:
462,375,106975,5,10,0:2:0:0:
145,246,107135,2,0,P|82:282|63:318,1,101.999996887207,0|0,1:2|1:2,0:2:0:0:
239,203,107453,2,0,L|201:64,1,101.999996887207,8|0,0:2|1:2,0:2:0:0:
512,189,107773,6,0,L|474:328,1,101.999996887207,8|2,0:2|1:2,0:2:0:0:
228,383,108092,1,2,0:2:0:0:
376,265,108251,1,10,0:2:0:0:
111,204,108411,1,2,1:2:0:0:
282,307,108570,1,2,1:2:0:0:
5,362,108730,1,10,0:2:0:0:
190,256,108890,1,0,1:2:0:0:
42,87,109049,5,10,0:2:0:0:
53,275,109209,2,0,B|66:245|66:245|56:170,1,101.999996887207,2|0,1:2|0:2,0:2:0:0:
295,51,109528,5,10,0:2:0:0:
284,239,109688,2,0,B|271:209|271:209|281:134,1,101.999996887207,2|0,1:2|1:2,0:2:0:0:
455,163,110007,2,0,P|402:196|355:192,1,101.999996887207,14|0,0:2|0:0,0:2:0:0:
171,65,110326,5,8,0:2:0:0:
122,51,110405,1,8,0:2:0:0:
72,61,110485,1,8,0:2:0:0:
33,93,110565,1,8,0:2:0:0:
12,139,110645,2,0,L|22:194,3,50.9999984436036,10|8|8|8,0:3|0:3|0:3|0:3,0:2:0:0:
113,239,110964,2,0,L|103:294,3,50.9999984436036,6|4|4|4,0:3|0:3|0:3|0:3,0:0:0:0:
27,358,111283,5,10,0:2:0:0:
204,280,111443,1,2,1:2:0:0:
357,375,111602,6,0,P|426:377|464:350,1,85,14|0,0:2|1:2,0:0:0:0:
370,212,111922,2,0,L|388:309,1,85,0|0,0:0|1:2,0:0:0:0:
286,203,112241,2,0,L|304:300,1,85,0|0,0:0|1:2,0:0:0:0:
240,336,112480,1,0,1:0:0:0:
240,336,112560,2,0,P|198:328|158:340,1,85,8|0,0:2|1:2,0:0:0:0:
53,343,112879,6,0,L|72:245,2,85,0|0|0,0:0|1:2|0:0,0:0:0:0:
29,170,113358,1,0,1:2:0:0:
29,170,113437,1,0,1:2:0:0:
29,170,113517,5,8,0:2:0:0:
232,213,113677,1,8,0:2:0:0:
25,61,113836,1,8,0:2:0:0:
242,40,113996,1,0,1:2:0:0:
121,224,114156,5,12,0:2:0:0:
201,120,114315,1,0,1:2:0:0:
307,296,114475,1,0,0:0:0:0:
232,213,114634,1,0,1:2:0:0:
364,131,114794,6,0,P|413:126|456:139,1,85,2|0,0:0|1:2,0:0:0:0:
448,135,115033,1,0,1:2:0:0:
448,135,115113,1,8,0:2:0:0:
329,212,115273,1,0,1:2:0:0:
465,368,115432,6,0,P|475:321|453:259,1,93.5000028533936,2|0,0:2|0:0,0:2:0:0:
325,340,115911,1,0,1:2:0:0:
325,340,115991,1,0,1:2:0:0:
325,340,116070,5,8,0:2:0:0:
56,256,116283,1,8,0:3:0:0:
251,114,116496,1,4,0:3:0:0:
219,228,116709,5,4,1:1:0:0:
75,158,126922,5,2,1:2:0:0:
80,180,127241,1,0,1:2:0:0:
85,203,127560,1,0,1:2:0:0:
90,225,127879,1,0,1:2:0:0:
187,291,128198,5,2,1:2:0:0:
194,261,128517,1,0,1:2:0:0:
201,231,128836,1,0,1:2:0:0:
208,201,129155,1,0,1:2:0:0:
299,119,129475,5,2,1:2:0:0:
308,157,129794,1,0,1:2:0:0:
317,194,130113,1,0,1:2:0:0:
326,232,130432,1,0,1:2:0:0:
416,318,130751,5,2,1:2:0:0:
427,270,131070,1,0,1:2:0:0:
439,224,131389,1,0,1:2:0:0:
450,176,131708,1,0,1:2:0:0:
421,43,132028,6,0,P|393:70|357:85,2,63.7500024318696,2|0|0,1:2|0:0|1:2,0:0:0:0:
289,52,132507,2,0,P|282:94|345:161,1,127.500004863739
434,245,132985,2,0,L|364:240,1,63.7500024318696,0|0,1:2|0:0,0:0:0:0:
186,281,133305,6,0,L|123:292,2,63.7500024318696,2|0|0,1:2|0:0|1:2,0:0:0:0:
54,349,133783,2,0,P|34:289|59:232,1,127.500004863739
192,190,134262,2,0,P|132:188|116:178,1,63.7500024318696,0|0,1:2|0:0,0:0:0:0:
42,80,134581,6,0,L|53:148,1,63.7500024318696,2|0,1:2|0:0,0:0:0:0:
147,30,134900,1,0,1:2:0:0:
147,30,135060,2,0,L|136:98,1,63.7500024318696,0|0,0:0|1:2,0:0:0:0:
192,190,135379,1,0,0:0:0:0:
273,128,135539,1,0,1:2:0:0:
363,252,135698,1,0,0:0:0:0:
358,156,135858,5,2,1:2:0:0:
290,323,136017,1,0,0:0:0:0:
279,224,136177,1,0,1:2:0:0:
378,349,136336,1,0,0:0:0:0:
223,382,136496,5,0,1:2:0:0:
363,252,136656,1,8,0:2:0:0:
111,151,136815,1,0,1:2:0:0:
290,323,136975,1,8,0:2:0:0:
44,342,137134,5,6,1:2:0:0:
193,269,137294,1,2,1:2:0:0:
91,253,137453,1,2,0:2:0:0:
245,126,137613,2,0,B|263:158|263:158|254:205,1,85,10|0,0:2|0:2,0:2:0:0:
149,66,137932,1,10,0:2:0:0:
290,40,138092,5,0,1:2:0:0:
290,40,138251,2,0,B|322:22|322:22|369:30,1,85,2|0,1:2|0:2,0:2:0:0:
367,197,138570,2,0,P|344:138|343:105,1,85,2|0,1:2|0:2,0:2:0:0:
479,244,138890,1,10,0:2:0:0:
393,304,139049,2,0,L|298:288,1,85,0|0,1:2|1:2,0:0:0:0:
112,266,139368,1,8,0:2:0:0:
210,207,139528,1,0,1:2:0:0:
2,192,139687,5,6,1:2:0:0:
111,356,139847,1,2,1:2:0:0:
205,297,140007,1,2,0:2:0:0:
27,273,140166,2,0,L|124:264,1,85,10|0,0:2|0:2,0:2:0:0:
270,117,140485,2,0,L|173:108,1,85,10|0,0:2|1:2,0:0:0:0:
331,39,140805,6,0,P|364:91|365:133,1,85,2|0,1:2|1:2,0:0:0:0:
284,200,141124,2,0,L|265:94,1,85,10|0,0:2|0:2,0:2:0:0:
391,249,141443,1,10,0:2:0:0:
214,291,141602,1,0,1:2:0:0:
284,200,141762,1,2,1:2:0:0:
417,352,141922,1,10,0:2:0:0:
385,149,142081,1,0,1:2:0:0:
310,335,142241,5,6,1:2:0:0:
310,335,142400,1,2,1:2:0:0:
182,165,142560,1,2,1:2:0:0:
391,249,142719,2,0,P|312:240|214:244,1,170,10|8,0:2|0:2,0:2:0:0:
29,300,143198,5,2,1:2:0:0:
29,300,143358,1,2,1:2:0:0:
124,221,143517,1,2,1:2:0:0:
0,106,143677,2,0,P|84:102|169:111,1,170,2|8,1:2|0:2,0:2:0:0:
382,155,144156,5,2,1:2:0:0:
382,155,144315,1,2,1:2:0:0:
300,37,144475,1,10,0:2:0:0:
252,166,144634,2,0,P|247:217|252:266,1,85,2|0,1:2|1:2,0:0:0:0:
354,370,144953,5,0,1:2:0:0:
354,370,145113,1,2,0:2:0:0:
480,321,145273,2,0,P|419:331|297:310,1,170,10|10,0:2|0:2,0:2:0:0:
155,176,145751,5,0,1:2:0:0:
155,176,145911,1,0,1:2:0:0:
249,250,146070,1,0,0:2:0:0:
66,384,146230,2,0,P|51:307|56:200,1,170,10|10,0:2|0:2,0:2:0:0:
176,82,146709,1,0,1:2:0:0:
145,274,146868,1,0,1:2:0:0:
82,105,147028,1,8,0:2:0:0:
266,158,147187,1,0,1:2:0:0:
244,18,147347,5,0,1:2:0:0:
132,188,147507,1,0,1:2:0:0:
244,18,147666,5,0,1:2:0:0:
132,188,147826,1,0,1:2:0:0:
82,24,147985,5,14,0:2:0:0:
251,122,148145,1,2,1:2:0:0:
51,116,148305,1,2,1:2:0:0:
242,230,148464,6,0,B|314:220|314:220|352:233|352:233|422:226,1,170,2|2,1:2|1:2,0:2:0:0:
408,227,148863,1,0,1:2:0:0:
408,227,148943,1,8,0:2:0:0:
439,78,149102,2,0,P|388:102|370:142,1,85,2|0,1:2|0:2,0:2:0:0:
353,357,149422,2,0,P|327:323|288:309,1,85,2|2,1:2|0:2,0:2:0:0:
110,365,149741,1,2,1:2:0:0:
110,365,149820,1,0,1:2:0:0:
110,365,149900,6,0,L|119:266,1,85,8|2,0:2|1:2,0:0:0:0:
55,160,150219,1,2,0:2:0:0:
171,213,150379,1,0,1:2:0:0:
171,213,150459,1,0,1:2:0:0:
171,213,150539,2,0,P|227:215|262:200,1,85,10|2,0:2|1:2,0:0:0:0:
399,95,150858,1,2,1:2:0:0:
399,95,151017,6,0,P|343:93|308:108,1,85,2|0,1:2|0:0,0:2:0:0:
361,270,151336,1,2,1:2:0:0:
361,270,151416,1,0,1:2:0:0:
361,270,151496,2,0,L|371:184,2,85,8|2|0,0:2|1:2|0:2,0:0:0:0:
281,353,151975,2,0,P|221:342|174:340,1,85,2|0,1:2|0:2,0:2:0:0:
36,284,152294,1,2,1:2:0:0:
36,284,152374,1,0,1:2:0:0:
36,284,152453,6,0,P|97:280|132:265,1,85,8|2,0:2|1:2,0:0:0:0:
62,108,152773,2,0,B|47:136|47:136|68:212,1,85,10|0,0:2|1:2,0:0:0:0:
61,187,153012,1,0,1:2:0:0:
61,187,153092,5,10,0:2:0:0:
351,182,153251,1,0,1:2:0:0:
140,39,153411,1,10,0:2:0:0:
263,275,153570,1,0,1:2:0:0:
265,57,153730,5,10,0:2:0:0:
144,288,153890,2,0,L|90:301,2,42.5,0|0|10,1:2|1:2|0:2,0:0:0:0:
396,315,154209,1,0,1:2:0:0:
256,182,154368,1,10,0:2:0:0:
469,94,154528,1,0,1:2:0:0:
144,135,154687,1,10,0:2:0:0:
388,231,154847,1,0,1:2:0:0:
388,231,154927,1,0,1:2:0:0:
388,231,155007,6,0,P|398:297|391:336,1,85,10|0,0:2|1:2,0:0:0:0:
144,135,155326,2,0,P|134:201|141:240,1,85,10|0,0:2|1:2,0:0:0:0:
416,97,155645,1,10,0:2:0:0:
179,40,155805,2,0,L|117:30,2,42.5,0|0|10,1:2|1:2|0:2,0:0:0:0:
330,135,156124,1,0,1:2:0:0:
121,250,156283,5,10,0:2:0:0:
227,117,156443,1,0,1:2:0:0:
216,342,156602,1,10,0:2:0:0:
54,181,156762,1,0,1:2:0:0:
54,181,156842,1,0,1:2:0:0:
54,181,156922,2,0,L|157:152,1,85,10|0,0:2|1:2,0:0:0:0:
401,317,157241,2,0,L|298:288,1,85,10|0,0:2|1:2,0:2:0:0:
306,37,157560,5,8,0:2:0:0:
348,34,157639,1,8,0:2:0:0:
387,49,157719,1,8,0:2:0:0:
416,80,157799,1,8,0:2:0:0:
429,120,157879,1,8,0:2:0:0:
425,162,157958,1,8,0:2:0:0:
403,198,158038,1,8,0:2:0:0:
366,219,158118,1,8,0:2:0:0:
56,98,158358,5,10,0:2:0:0:
330,135,158517,1,2,1:2:0:0:
48,268,158677,1,2,1:2:0:0:
254,58,158836,5,10,0:2:0:0:
2,193,158996,1,2,1:2:0:0:
288,282,159156,1,2,1:2:0:0:
144,15,159315,5,10,0:2:0:0:
90,368,159634,5,10,0:2:0:0:
186,113,159794,1,2,1:2:0:0:
344,362,159953,1,2,1:2:0:0:
69,139,160113,5,10,0:2:0:0:
205,320,160273,1,2,1:2:0:0:
281,49,160432,1,10,0:2:0:0:
94,252,160592,5,6,1:2:0:0:
256,192,160672,12,0,166815,0:0:0:0:
108,32,167134,5,6,1:2:0:0:
203,284,167294,2,0,B|221:250|221:250|187:157,1,110.499994941712,2|8,0:2|0:2,0:2:0:0:
402,101,167613,5,2,0:2:0:0:
308,361,167773,2,0,B|290:327|290:327|330:245,1,110.499994941712,2|0,1:2|0:2,0:2:0:0:
506,307,168092,2,0,P|454:335|398:335,1,110.499994941712,8|0,0:2|0:0,0:2:0:0:
307,152,168411,2,0,L|423:206,1,110.499994941712,0|2,1:2|0:2,0:0:0:0:
138,336,168730,5,10,0:2:0:0:
67,118,168890,1,2,0:2:0:0:
236,294,169049,1,2,1:2:0:0:
211,43,169209,1,2,0:2:0:0:
346,298,169368,1,10,0:2:0:0:
385,57,169528,1,2,0:2:0:0:
166,199,169687,5,2,1:2:0:0:
395,202,169847,2,0,L|510:183,1,110.499994941712,2|8,0:2|0:2,0:2:0:0:
280,77,170166,5,2,0:2:0:0:
138,336,170326,2,0,L|23:317,1,110.499994941712,2|0,1:2|0:2,0:2:0:0:
266,163,170645,2,0,P|274:226|249:273,1,110.499994941712,10|0,0:2|0:0,0:2:0:0:
47,90,170964,2,0,P|97:51|150:49,1,110.499994941712,0|0,1:2|0:2,0:2:0:0:
139,256,171283,2,0,L|126:139,1,110.499994941712,10|0,0:2|0:0,0:2:0:0:
384,62,171602,2,0,L|371:179,1,110.499994941712,0|0,1:2|0:2,0:2:0:0:
242,290,171922,2,0,B|291:265|291:265|359:277,1,110.499994941712,10|0,0:2|0:0,0:2:0:0:
489,361,172241,5,4,1:1:0:0:
489,361,172560,6,0,P|484:300|451:259,1,110.499994941712,10|0,0:2|0:2,0:2:0:0:
242,290,172879,2,0,P|281:243|287:191,1,110.499994941712,2|0,1:2|0:2,0:2:0:0:
33,88,173198,6,0,P|2:132|0:187,1,110.499994941712,10|0,0:2|0:2,0:2:0:0:
201,21,173517,2,0,P|210:75|247:116,1,110.499994941712,2|0,1:2|0:2,0:2:0:0:
444,50,173836,2,0,L|315:32,1,110.499994941712,10|0,0:2|0:2,0:2:0:0:
81,222,174155,6,0,L|210:204,1,110.499994941712,2|0,1:2|0:2,0:2:0:0:
432,174,174475,1,10,0:2:0:0:
118,124,174634,1,2,0:2:0:0:
301,241,174794,1,2,1:2:0:0:
334,34,174953,1,2,0:2:0:0:
190,206,175113,2,0,L|208:335,1,110.499994941712,8|0,0:2|0:0,0:2:0:0:
405,264,175432,2,0,P|346:240|300:241,1,110.499994941712,0|2,1:2|0:2,0:0:0:0:
29,302,175751,5,10,0:2:0:0:
190,206,175911,1,2,0:2:0:0:
17,90,176070,1,10,0:2:0:0:
114,380,176230,2,0,L|131:261,1,110.499994941712,10|0,0:2|1:2,0:2:0:0:
204,46,176549,1,10,0:2:0:0:
357,185,176709,1,2,1:2:0:0:
107,141,176868,1,10,0:2:0:0:
382,52,177028,1,2,1:2:0:0:
90,144,177187,2,0,L|26:131,1,55.2499974708558,8|8,0:2|0:2,0:0:0:0:
291,73,177347,5,2,1:2:0:0:
254,384,177507,2,0,L|234:252,1,110.499994941712,2|8,0:2|0:2,0:2:0:0:
47,28,177826,5,2,0:2:0:0:
84,339,177986,2,0,L|104:207,1,110.499994941712,2|0,1:2|0:2,0:2:0:0:
394,123,178305,2,0,P|351:168|283:181,1,110.499994941712,10|0,0:2|0:0,0:2:0:0:
93,72,178624,2,0,P|153:86|198:139,1,110.499994941712,0|0,1:2|0:2,0:2:0:0:
199,358,178943,2,0,P|181:298|204:232,1,110.499994941712,10|0,0:2|0:0,0:2:0:0:
387,309,179262,6,0,L|277:299,1,110.499994941712,0|0,1:2|0:2,0:2:0:0:
14,196,179581,2,0,L|124:185,1,110.499994941712,10|0,0:2|0:2,0:2:0:0:
315,81,179900,5,2,1:2:0:0:
74,3,180060,2,0,B|54:39|54:39|67:106,1,110.499994941712,2|8,0:2|0:2,0:2:0:0:
315,303,180379,5,2,0:2:0:0:
81,384,180539,2,0,B|61:348|61:348|74:280,1,110.499994941712,2|0,1:2|0:2,0:2:0:0:
409,138,180858,6,0,L|388:279,1,110.499994941712,10|0,0:2|0:0,0:2:0:0:
99,97,181177,2,0,L|120:238,1,110.499994941712,0|0,1:2|0:2,0:2:0:0:
465,43,181496,2,0,P|392:31|340:53,1,110.499994941712,10|0,0:2|0:2,0:2:0:0:
201,206,181815,2,0,P|254:219|307:207,1,110.499994941712,2|0,1:2|0:2,0:2:0:0:
253,22,182134,2,0,B|234:54|234:54|256:146,1,110.499994941712,10|0,0:2|0:2,0:2:0:0:
452,322,182453,1,2,1:2:0:0:
452,322,182773,2,0,L|312:310,1,110.499994941712,8|2,0:2|0:2,0:0:0:0:
121,288,183092,5,2,1:2:0:0:
283,208,183251,1,2,0:2:0:0:
75,167,183411,1,10,0:2:0:0:
223,283,183570,1,2,0:2:0:0:
39,361,183730,2,0,P|23:294|25:241,1,110.499994941712,0|0,1:2|0:0,0:2:0:0:
159,59,184049,1,8,0:2:0:0:
121,288,184209,1,2,0:2:0:0:
328,102,184368,6,0,L|437:88,1,110.499994941712,2|2,1:2|0:2,0:0:0:0:
184,180,184687,2,0,L|74:166,1,110.499994941712,10|2,0:2|0:2,0:0:0:0:
391,295,185007,2,0,P|410:244|399:191,1,110.499994941712,0|0,1:2|0:0,0:2:0:0:
139,79,185326,1,8,0:2:0:0:
300,238,185485,1,10,0:2:0:0:
300,238,185565,1,8,0:2:0:0:
300,238,185645,5,2,1:2:0:0:
337,16,185805,1,10,0:2:0:0:
184,180,185964,1,2,1:2:0:0:
448,189,186124,1,10,0:2:0:0:
448,189,186203,1,8,0:2:0:0:
448,189,186283,5,2,1:2:0:0:
232,19,186442,1,8,0:2:0:0:
135,268,186602,1,8,0:2:0:0:
180,290,186681,1,8,0:2:0:0:
229,299,186761,1,8,0:3:0:0:
278,293,186841,1,8,0:3:0:0:
323,273,186921,2,0,L|308:207,3,55.2499974708558,8|4|4|4,0:3|0:3|0:3|0:3,0:0:0:0:
277,143,187240,5,8,0:2:0:0:
39,301,187399,1,0,1:2:0:0:
49,45,187559,5,14,0:2:0:0:
142,363,187719,2,0,L|154:241,1,110.499994941712,2|0,1:2|0:2,0:2:0:0:
414,11,188038,5,2,1:2:0:0:
321,329,188198,2,0,L|309:207,1,110.499994941712,2|0,0:2|1:2,0:2:0:0:
310,219,188437,1,0,1:2:0:0:
310,219,188516,1,8,0:2:0:0:
447,141,188676,6,0,L|431:259,1,110.499994941712,0|0,1:2|0:0,0:2:0:0:
215,174,188995,1,0,1:2:0:0:
328,124,189155,1,0,0:0:0:0:
147,72,189314,1,0,1:2:0:0:
147,72,189394,1,0,1:2:0:0:
147,72,189474,5,8,0:2:0:0:
310,219,189634,1,8,0:2:0:0:
78,278,189793,1,8,0:2:0:0:
215,174,189953,1,0,1:2:0:0:
24,61,190112,5,14,0:2:0:0:
197,283,190272,2,0,L|217:161,1,110.499994941712,2|0,1:2|0:2,0:2:0:0:
499,134,190591,5,2,1:2:0:0:
326,356,190751,2,0,L|306:234,1,110.499994941712,2|0,0:2|1:2,0:2:0:0:
214,69,191070,2,0,P|198:121|213:173,1,110.499994941712,10|0,0:2|0:2,0:2:0:0:
473,120,191389,6,0,B|419:96|377:115|377:115|330:141|279:116,1,191.250007295609,2|0,0:2|1:2,0:2:0:0:
288,120,191947,1,0,1:2:0:0:
288,120,192027,2,0,L|309:229,2,95.6250036478044,10|8|8,0:2|0:2|0:2,0:0:0:0:
117,42,192665,5,6,1:2:0:0:
15,134,192825,1,0,1:2:0:0:
130,196,192985,1,2,0:2:0:0:
130,196,193144,2,0,P|189:176|220:173,1,85,8|2,0:2|0:2,0:0:0:0:
206,333,193463,2,0,P|164:325|124:310,1,85,10|2,0:2|1:2,0:0:0:0:
295,255,193782,6,0,L|470:234,1,170,2|2,1:2|1:2,0:2:0:0:
382,76,194261,1,2,0:2:0:0:
382,76,194421,2,0,P|362:126|369:163,1,85,10|0,0:2|1:2,0:2:0:0:
215,61,194740,2,0,P|228:100|260:128,1,85,2|8,1:2|0:2,0:2:0:0:
301,8,195059,1,6,1:2:0:0:
158,129,195219,5,2,1:2:0:0:
99,42,195378,1,2,1:2:0:0:
82,201,195538,2,0,L|65:321,1,85,2|10,0:2|0:2,0:0:0:0:
195,349,195857,2,0,L|178:229,1,85,2|10,0:2|0:2,0:0:0:0:
430,201,196176,2,0,L|441:285,1,85,2|2,1:2|1:2,0:0:0:0:
317,349,196495,2,0,L|328:264,1,85,0|10,0:2|0:2,0:0:0:0:
228,153,196814,5,2,0:2:0:0:
228,153,196974,2,0,P|276:178|380:122,1,170,10|2,0:2|1:2,0:2:0:0:
295,12,197453,2,0,B|275:40|275:40|296:109,1,85,8|6,0:2|1:2,0:0:0:0:
478,71,197772,5,2,1:2:0:0:
374,49,197931,1,2,1:2:0:0:
470,174,198091,2,0,L|484:91,1,85,2|8,0:2|0:2,0:2:0:0:
382,223,198410,2,0,L|395:306,2,85,2|10|2,0:2|0:2|1:2,0:0:0:0:
289,88,198889,6,0,P|218:64|120:89,1,170,2|2,1:2|1:2,0:2:0:0:
40,129,199368,1,2,0:2:0:0:
125,260,199527,2,0,P|135:208|122:165,1,85,10|0,0:2|1:2,0:2:0:0:
156,352,199846,2,0,P|199:322|221:282,1,85,2|8,1:2|0:2,0:2:0:0:
238,157,200165,1,6,1:2:0:0:
42,215,200325,5,2,1:2:0:0:
277,237,200485,1,2,1:2:0:0:
117,93,200644,2,0,L|127:177,1,85,2|10,0:2|0:2,0:0:0:0:
248,72,200963,2,0,L|237:156,1,85,2|10,0:2|0:2,0:0:0:0:
362,297,201282,2,0,L|372:212,1,85,2|0,1:2|1:2,0:0:0:0:
493,318,201601,2,0,L|482:233,1,85,0|10,0:0|0:2,0:0:0:0:
503,71,201921,5,2,0:2:0:0:
503,71,202080,2,0,P|454:131|353:118,1,170,10|2,0:2|1:2,0:2:0:0:
264,11,202559,1,8,0:2:0:0:
408,50,202719,1,6,1:2:0:0:
177,109,202878,6,0,L|82:123,1,85,2|2,1:2|1:2,0:0:0:0:
236,226,203197,2,0,L|331:240,1,85,2|8,0:2|0:2,0:2:0:0:
121,325,203516,1,2,0:2:0:0:
105,240,203676,1,10,0:2:0:0:
206,307,203836,1,2,1:2:0:0:
181,384,203995,1,2,1:2:0:0:
41,289,204155,5,0,1:0:0:0:
182,189,204314,1,10,0:2:0:0:
26,116,204474,1,2,0:2:0:0:
26,116,204634,2,0,P|21:179|28:208,1,85,2|8,1:2|0:2,0:0:0:0:
204,99,204953,1,10,0:2:0:0:
204,99,205112,2,0,P|210:57|204:15,1,85,8|0,0:2|1:2,0:0:0:0:
182,189,205431,6,0,L|300:168,1,85,14|0,0:2|1:2,0:2:0:0:
475,351,205751,1,8,0:2:0:0:
243,288,205910,1,10,0:2:0:0:
460,187,206070,1,0,1:2:0:0:
385,328,206229,1,8,0:2:0:0:
351,179,206389,2,0,L|336:80,1,85,2|0,1:2|1:2,0:2:0:0:
117,44,206708,5,8,0:2:0:0:
112,73,206787,1,8,0:0:0:0:
107,102,206867,1,2,1:2:0:0:
102,132,206947,1,0,1:2:0:0:
97,161,207027,1,8,0:2:0:0:
38,256,207187,1,0,1:2:0:0:
184,338,207346,5,10,0:2:0:0:
8,372,207506,1,8,0:2:0:0:
157,231,207665,1,10,0:2:0:0:
278,372,207825,1,0,1:2:0:0:
363,239,207985,6,0,L|281:262,1,85,6|0,1:2|1:2,0:0:0:0:
411,137,208304,1,8,0:2:0:0:
411,137,208463,2,0,L|492:160,2,85,6|0|0,1:2|0:0|1:2,0:2:0:0:
230,161,208942,1,6,1:2:0:0:
342,43,209102,1,8,0:2:0:0:
151,94,209261,5,8,0:2:0:0:
333,188,209421,2,0,P|348:227|345:269,1,85,0|0,1:2|0:0,0:2:0:0:
256,353,209740,1,0,1:2:0:0:
111,209,209899,1,8,0:2:0:0:
114,381,210059,1,0,1:2:0:0:
253,245,210219,1,8,0:2:0:0:
0,292,210378,5,6,1:2:0:0:
256,192,210458,12,0,219474,0:2:0:0:
