osu file format v14

[General]
AudioFilename: americangirls.mp3
AudioLeadIn: 0
PreviewTime: 101494
Countdown: 0
SampleSet: Normal
StackLeniency: 0.4
Mode: 0
LetterboxInBreaks: 0
WidescreenStoryboard: 1

[Editor]
Bookmarks: 90474,114786,126929,157317
DistanceSpacing: 1.1
BeatDivisor: 4
GridSize: 16
TimelineZoom: 2.7

[Metadata]
Title:American Girls
TitleUnicode:American Girls
Artist:ONE OK ROCK
ArtistUnicode:ONE OK ROCK
Creator:im hide
Version:Insane
Source:
Tags:Ambitions Fueled By Ramen oor a-sketch GreenHue rock english
BeatmapID:1905916
BeatmapSetID:910499

[Difficulty]
HPDrainRate:5
CircleSize:3.2
OverallDifficulty:8
ApproachRate:8.8
SliderMultiplier:1.6
SliderTickRate:1

[Events]
//Background and Video events
0,0,"459df448-97e0-4293-ba05-5f7617d6625a.jpg",0,0
//Break Periods
//Storyboard Layer 0 (Background)
//Storyboard Layer 1 (Fail)
//Storyboard Layer 2 (Pass)
//Storyboard Layer 3 (Foreground)
//Storyboard Sound Samples

[TimingPoints]
2373,379.746835443038,4,1,1,61,1,0
17562,-100,4,1,1,61,0,0
28195,-200,4,2,1,21,0,0
29714,-90.9090909090909,4,1,1,80,0,1
34271,-133.333333333333,4,1,1,80,0,1
35790,-90.9090909090909,4,1,1,80,0,1
40347,-133.333333333333,4,1,1,80,0,1
41866,-100,4,1,1,80,0,1
52499,-100,4,1,1,61,0,0
76803,-200,4,2,1,22,0,0
78322,-90.9090909090909,4,1,1,80,0,1
82879,-133.333333333333,4,1,1,80,0,1
84398,-90.9090909090909,4,1,1,80,0,1
88955,-133.333333333333,4,1,1,80,0,1
90474,-100,4,1,1,80,0,1
101107,-100,4,1,1,61,0,0
102626,-133.333333333333,4,1,1,80,0,1
114778,-166.666666666667,4,1,1,61,0,0
115537,-100,4,1,1,61,0,0
117816,-166.666666666667,4,1,1,61,0,0
120094,-133.333333333333,4,1,1,80,0,1
120854,-166.666666666667,4,1,1,61,0,0
121613,-100,4,1,1,61,0,0
125221,-133.333333333333,4,1,1,46,0,0
125980,-200,4,2,1,44,0,0
126929,-90.9090909090909,4,1,1,80,0,1
131486,-133.333333333333,4,1,1,80,0,1
133005,-90.9090909090909,4,1,1,80,0,1
137562,-133.333333333333,4,1,1,80,0,1
139081,-100,4,1,1,80,0,1
149714,-133.333333333333,4,1,1,80,0,0
150474,-133.333333333333,4,1,1,80,0,1
151233,-133.333333333333,4,1,1,80,0,1
151613,-133.333333333333,4,1,1,70,0,1
157309,-100,4,1,1,70,0,1
163385,-100,4,1,1,70,0,0
165664,-100,4,1,1,5,0,0

[Colours]
Combo1 : 157,157,255
Combo2 : 180,164,221
Combo3 : 254,152,172
Combo4 : 100,200,200

[HitObjects]
28,92,5410,5,2,0:0:0:0:
151,41,5600,1,0,0:0:0:0:
18,96,5790,1,2,0:0:0:0:
118,127,5980,1,0,0:0:0:0:
114,219,6170,2,0,P|120:255|117:303,1,80,2|0,0:0|0:0,0:0:0:0:
252,191,6550,1,2,0:0:0:0:
279,282,6740,2,0,P|272:318|275:366,1,80,0|2,0:0|0:0,0:0:0:0:
402,232,7119,6,0,P|409:199|405:175,1,40,0|0,0:0|0:0,0:0:0:0:
469,30,7309,2,0,P|465:98|476:125,1,80,2|0,0:0|0:0,0:0:0:0:
260,74,7689,2,0,P|320:43|338:20,1,80,2|0,0:0|0:0,0:0:0:0:
402,232,8069,2,0,P|345:194|316:190,1,80,2|0,0:0|0:0,0:0:0:0:
42,194,8448,5,2,0:0:0:0:
158,146,8638,1,0,0:0:0:0:
31,196,8828,1,2,0:0:0:0:
148,247,9018,1,0,0:0:0:0:
137,151,9208,2,0,P|142:97|134:62,1,80,2|0,0:0|0:0,0:0:0:0:
263,355,9588,1,2,0:0:0:0:
296,267,9778,2,0,P|291:213|299:178,1,80,0|2,0:0|0:0,0:0:0:0:
384,57,10157,5,0,0:0:0:0:
293,96,10347,1,2,0:0:0:0:
417,147,10537,1,0,0:0:0:0:
289,82,10727,2,0,P|234:69|190:74,1,80,2|0,0:0|0:0,0:0:0:0:
423,247,11107,2,0,P|478:234|522:239,1,80,2|0,0:0|0:0,0:0:0:0:
296,366,11486,5,2,0:0:0:0:
326,268,11676,1,0,0:0:0:0:
294,378,11866,1,2,0:0:0:0:
219,228,12056,1,0,0:0:0:0:
128,263,12246,2,0,P|79:258|24:259,1,80,2|0,0:0|0:0,0:0:0:0:
199,116,12626,1,2,0:0:0:0:
291,143,12816,2,0,P|340:138|395:139,1,80,0|2,0:0|0:0,0:0:0:0:
269,313,13195,6,0,P|236:320|212:316,1,40,0|0,0:0|0:0,0:0:0:0:
67,380,13385,2,0,P|135:376|162:387,1,80,2|0,0:0|0:0,0:0:0:0:
269,313,13765,2,0,P|231:256|227:227,1,80,2|0,0:0|0:0,0:0:0:0:
111,171,14145,2,0,P|80:231|57:249,1,80,2|0,0:0|0:0,0:0:0:0:
29,100,14524,5,2,0:0:0:0:
146,83,14714,1,0,0:0:0:0:
13,102,14904,1,2,0:0:0:0:
119,176,15094,1,0,0:0:0:0:
123,78,15284,2,0,P|128:24|120:-11,1,80,2|0,0:0|0:0,0:0:0:0:
242,240,15664,1,2,0:0:0:0:
275,152,15854,2,0,P|270:98|278:63,1,80,0|2,0:0|0:0,0:0:0:0:
53,274,16233,5,0,0:0:0:0:
226,224,16423,1,2,0:0:0:0:
115,174,16613,1,0,0:0:0:0:
144,359,16803,2,0,P|157:311|155:266,1,80,2|0,0:0|0:0,0:0:0:0:
71,91,17183,2,0,P|72:130|84:169,1,80,2|0,0:0|0:0,0:0:0:0:
382,107,17562,6,0,P|342:100|302:99,1,80,2|0,0:0|0:0,0:0:0:0:
191,144,17942,1,10,0:0:0:0:
191,144,18132,1,0,0:0:0:0:
260,237,18322,6,0,P|299:230|339:229,1,80,2|0,0:0|0:0,0:0:0:0:
455,245,18702,1,10,0:0:0:0:
455,245,18892,1,0,0:0:0:0:
279,346,19081,6,0,P|267:287|266:241,1,80,2|0,0:0|0:0,0:0:0:0:
468,166,19461,2,0,P|463:205|454:244,1,80,10|0,0:0|0:0,0:0:0:0:
214,118,19841,5,2,0:0:0:0:
323,73,20031,1,0,0:0:0:0:
196,117,20221,1,10,0:0:0:0:
342,190,20410,1,0,0:0:0:0:
177,112,20600,6,0,P|108:99|76:101,1,80,2|0,0:0|0:0,0:0:0:0:
10,169,20980,1,10,0:0:0:0:
10,169,21170,1,0,0:0:0:0:
92,237,21360,6,0,P|161:224|193:226,1,80,2|0,0:0|0:0,0:0:0:0:
276,279,21740,1,10,0:0:0:0:
276,279,21930,1,0,0:0:0:0:
10,337,22119,6,0,P|-2:279|4:236,1,80,2|0,0:0|0:0,0:0:0:0:
181,145,22499,2,0,P|180:184|170:223,1,80,10|0,0:0|0:0,0:0:0:0:
55,72,22879,5,2,0:0:0:0:
193,50,23069,1,0,0:0:0:0:
44,68,23259,1,10,0:0:0:0:
172,155,23448,1,0,0:0:0:0:
298,46,23638,6,0,P|339:38|395:41,1,80,2|0,0:0|0:0,0:0:0:0:
493,82,24018,1,10,0:0:0:0:
493,82,24208,1,0,0:0:0:0:
473,183,24398,6,0,P|431:175|375:178,1,80,2|0,0:0|0:0,0:0:0:0:
289,197,24778,1,10,0:0:0:0:
289,197,24968,1,0,0:0:0:0:
436,362,25157,6,0,P|454:307|451:252,1,80,2|0,0:0|0:0,0:0:0:0:
289,197,25537,2,0,P|293:236|308:273,1,80,10|0,0:0|0:0,0:0:0:0:
448,168,25917,5,2,0:0:0:0:
294,80,26107,1,0,0:0:0:0:
465,170,26297,1,10,0:0:0:0:
327,193,26486,1,0,0:0:0:0:
481,72,26676,6,0,P|427:60|382:64,1,80,2|0,0:0|0:0,0:0:0:0:
311,177,27056,1,10,0:0:0:0:
283,61,27246,1,0,0:0:0:0:
88,143,27436,6,0,P|127:142|166:131,1,80,2|0,0:0|0:0,0:0:0:0:
281,76,27816,1,10,0:0:0:0:
226,227,28006,1,0,0:0:0:0:
441,292,28195,6,0,P|453:267|454:237,1,40,10|0,0:0|0:0,0:0:0:0:
350,237,28575,2,0,P|338:212|337:182,1,40,10|0,0:0|0:0,0:0:0:0:
442,79,28955,2,0,P|442:126|417:177,1,80,10|0,0:0|0:0,0:0:0:0:
8,91,29714,6,0,P|51:71|118:80,1,88.000002685547,6|0,0:0|0:0,0:0:0:0:
300,151,30094,2,0,P|255:150|215:131,1,88.000002685547,10|0,0:0|0:0,0:0:0:0:
180,28,30474,1,2,0:0:0:0:
220,251,30664,1,0,0:0:0:0:
181,21,30854,1,10,0:0:0:0:
128,217,31043,1,0,0:0:0:0:
290,57,31233,6,0,P|328:45|385:52,1,88.000002685547,2|0,0:0|0:0,0:0:0:0:
503,211,31613,2,0,P|459:215|417:202,1,88.000002685547,10|0,0:0|0:0,0:0:0:0:
476,29,31993,1,2,0:0:0:0:
323,157,32183,1,0,0:0:0:0:
286,37,32373,1,10,0:0:0:0:
475,126,32562,1,0,0:0:0:0:
300,163,32752,6,0,P|248:154|183:156,1,88.000002685547,2|0,0:0|0:0,0:0:0:0:
417,325,33132,2,0,P|460:323|504:315,1,88.000002685547,10|0,0:0|0:0,0:0:0:0:
320,154,33512,1,2,0:0:0:0:
308,328,33702,1,0,0:0:0:0:
438,221,33891,1,10,0:0:0:0:
199,247,34081,1,0,0:0:0:0:
239,29,34271,6,0,P|255:54|260:83,1,60.0000022888184,2|0,0:0|0:0,0:0:0:0:
126,56,34651,1,10,0:0:0:0:
320,154,34841,2,0,P|301:178|275:192,1,60.0000022888184,0|2,0:0|0:0,0:0:0:0:
57,160,35221,5,8,0:0:0:0:
243,105,35410,1,10,0:0:0:0:
206,288,35600,1,8,0:0:0:0:
338,164,35790,6,0,P|396:152|446:159,1,88.000002685547,6|0,0:0|0:0,0:0:0:0:
192,305,36170,2,0,P|148:305|105:294,1,88.000002685547,10|0,0:0|0:0,0:0:0:0:
250,117,36550,1,2,0:0:0:0:
302,276,36740,1,0,0:0:0:0:
249,109,36930,1,10,0:0:0:0:
181,320,37119,1,0,0:0:0:0:
113,144,37309,6,0,P|70:134|26:133,1,88.000002685547,2|0,0:0|0:0,0:0:0:0:
258,89,37689,2,0,P|300:79|344:78,1,88.000002685547,10|0,0:0|0:0,0:0:0:0:
178,245,38069,1,2,0:0:0:0:
161,41,38259,1,0,0:0:0:0:
273,183,38448,1,10,0:0:0:0:
93,129,38638,1,0,0:0:0:0:
276,201,38828,6,0,P|329:212|384:215,1,88.000002685547,2|0,0:0|0:0,0:0:0:0:
512,53,39208,2,0,P|460:56|397:73,1,88.000002685547,10|0,0:0|0:0,0:0:0:0:
376,202,39588,1,2,0:0:0:0:
326,48,39778,1,0,0:0:0:0:
492,146,39967,1,10,0:0:0:0:
371,230,40157,1,0,0:0:0:0:
303,44,40347,6,0,P|287:69|282:98,1,60.0000022888184,2|0,0:0|0:0,0:0:0:0:
416,71,40727,1,10,0:0:0:0:
222,169,40917,2,0,P|241:193|267:207,1,60.0000022888184,0|2,0:0|0:0,0:0:0:0:
485,175,41297,5,10,0:0:0:0:
299,120,41486,1,8,0:0:0:0:
336,303,41676,1,8,0:0:0:0:
407,82,41866,6,0,P|466:61|512:59,1,80,6|0,0:0|0:0,0:0:0:0:
238,217,42246,2,0,P|178:196|132:194,1,80,10|0,0:0|0:0,0:0:0:0:
340,336,42626,2,0,P|360:276|362:230,1,80,2|0,0:0|0:0,0:0:0:0:
401,62,43005,2,0,P|406:111|427:162,1,80,10|0,0:0|0:0,0:0:0:0:
492,250,43385,5,2,0:0:0:0:
492,250,43575,1,0,0:0:0:0:
307,162,43765,2,0,P|241:150|206:155,1,80,10|0,0:0|0:0,0:0:0:0:
324,326,44145,5,2,0:0:0:0:
324,326,44335,1,0,0:0:0:0:
437,141,44525,2,0,P|436:101|425:62,1,80,10|0,0:0|0:0,0:0:0:0:
319,322,44904,6,0,P|385:332|422:327,1,80,2|0,0:0|0:0,0:0:0:0:
144,239,45284,2,0,P|94:236|46:246,1,80,10|0,0:0|0:0,0:0:0:0:
198,358,45664,1,2,0:0:0:0:
198,358,45854,1,0,0:0:0:0:
264,198,46043,1,10,0:0:0:0:
135,255,46233,1,0,0:0:0:0:
326,377,46423,6,0,P|313:321|313:286,1,80,2|0,0:0|0:0,0:0:0:0:
472,165,46803,2,0,P|466:214|453:262,1,80,10|0,0:0|0:0,0:0:0:0:
332,58,47183,1,2,0:0:0:0:
369,184,47373,1,8,0:0:0:0:
335,44,47562,1,10,0:0:0:0:
262,198,47752,1,8,0:0:0:0:
241,94,47942,6,0,P|220:35|218:-11,1,80,6|0,0:0|0:0,0:0:0:0:
436,113,48322,2,0,P|415:173|413:219,1,80,10|0,0:0|0:0,0:0:0:0:
453,370,48702,2,0,P|403:364|357:346,1,80,2|0,0:0|0:0,0:0:0:0:
184,254,49081,2,0,P|243:233|289:231,1,80,10|0,0:0|0:0,0:0:0:0:
492,250,49461,5,2,0:0:0:0:
492,250,49651,1,0,0:0:0:0:
328,112,49841,2,0,P|262:100|227:105,1,80,10|0,0:0|0:0,0:0:0:0:
375,225,50221,5,2,0:0:0:0:
375,225,50411,1,0,0:0:0:0:
465,112,50601,2,0,P|464:72|453:33,1,80,10|0,0:0|0:0,0:0:0:0:
64,86,50980,6,0,P|130:76|167:81,1,80,2|0,0:0|0:0,0:0:0:0:
308,225,51360,2,0,P|258:222|210:232,1,80,10|0,0:0|0:0,0:0:0:0:
122,272,51740,1,2,0:0:0:0:
122,272,51930,1,0,0:0:0:0:
262,118,52119,1,10,0:0:0:0:
108,162,52309,1,0,0:0:0:0:
280,104,52499,6,0,P|280:62|285:11,2,80,0|10|10,0:0|0:0|0:0,0:0:0:0:
245,220,53069,1,0,0:0:0:0:
465,188,53259,6,0,P|465:146|460:95,2,80,8|8|0,0:0|0:0|0:0,0:0:0:0:
402,304,53828,2,0,P|399:265|399:246,1,40,8|8,0:0|0:0,0:0:0:0:
368,115,54018,5,2,0:0:0:0:
245,64,54208,1,0,0:0:0:0:
378,119,54398,1,10,0:0:0:0:
278,150,54588,1,0,0:0:0:0:
311,241,54778,2,0,P|305:277|308:325,1,80,2|0,0:0|0:0,0:0:0:0:
140,186,55158,1,10,0:0:0:0:
87,267,55348,2,0,P|94:303|91:351,1,80,0|2,0:0|0:0,0:0:0:0:
26,156,55727,6,0,P|11:121|11:90,1,40
228,91,55917,2,0,P|160:95|133:84,1,80,10|0,0:0|0:0,0:0:0:0:
184,300,56297,2,0,P|215:240|238:222,1,80,2|0,0:0|0:0,0:0:0:0:
26,158,56677,2,0,P|64:215|68:244,1,80,8|0,0:0|0:0,0:0:0:0:
326,151,57056,5,2,0:0:0:0:
395,272,57246,1,0,0:0:0:0:
324,138,57436,1,10,0:0:0:0:
298,246,57626,1,0,0:0:0:0:
322,123,57816,2,0,P|317:69|325:34,1,80,2|0,0:0|0:0,0:0:0:0:
210,353,58196,1,10,0:0:0:0:
171,254,58386,2,0,P|176:200|168:165,1,80,0|2,0:0|0:0,0:0:0:0:
78,61,58765,5,0,0:0:0:0:
245,116,58955,1,10,0:0:0:0:
63,69,59145,1,0,0:0:0:0:
196,31,59335,2,0,P|251:18|295:23,1,80,2|0,0:0|0:0,0:0:0:0:
78,184,59715,2,0,P|23:171|-21:176,1,80,10|0,0:0|0:0,0:0:0:0:
208,345,60094,5,2,0:0:0:0:
250,213,60284,1,0,0:0:0:0:
210,359,60474,1,10,0:0:0:0:
151,256,60664,1,0,0:0:0:0:
345,273,60854,2,0,P|394:268|449:269,1,80,2|0,0:0|0:0,0:0:0:0:
352,156,61234,1,10,0:0:0:0:
250,189,61424,2,0,P|201:184|146:185,1,80,0|2,0:0|0:0,0:0:0:0:
2,238,61803,6,0,P|36:246|72:242,1,40,0|0,0:0|0:0,0:0:0:0:
152,271,61993,1,10,0:0:0:0:
71,158,62183,1,0,0:0:0:0:
47,344,62373,1,2,0:0:0:0:
242,261,62562,2,0,P|237:310|252:357,1,80,0|8,0:0|0:0,0:0:0:0:
127,281,62942,1,0,0:0:0:0:
107,157,63132,2,0,P|89:103|60:74,1,80
168,43,63512,5,10,0:0:0:0:
393,67,63702,1,0,0:0:0:0:
211,142,63891,1,2,0:0:0:0:
303,179,64081,2,0,P|308:130|293:83,1,80,0|8,0:0|0:0,0:0:0:0:
434,180,64461,1,0,0:0:0:0:
442,287,64651,2,0,P|432:340|437:373,1,80
257,266,65031,6,0,P|294:281|334:283,1,80,10|0,0:0|0:0,0:0:0:0:
123,232,65410,2,0,P|159:215|187:186,1,80,2|8,0:0|0:0,0:0:0:0:
181,56,65790,1,10,0:0:0:0:
300,172,65980,1,8,0:0:0:0:
477,102,66170,6,0,P|414:83|371:83,1,80,6|0,0:0|0:0,0:0:0:0:
291,77,66550,1,8,0:0:0:0:
291,77,66740,1,0,0:0:0:0:
222,210,66929,6,0,P|285:191|328:191,1,80,2|0,0:0|0:0,0:0:0:0:
425,222,67309,1,10,0:0:0:0:
425,222,67499,1,0,0:0:0:0:
270,384,67689,6,0,P|258:325|257:279,1,80,2|0,0:0|0:0,0:0:0:0:
439,143,68069,2,0,P|434:182|425:221,1,80,10|0,0:0|0:0,0:0:0:0:
211,161,68449,5,2,0:0:0:0:
319,150,68639,1,0,0:0:0:0:
195,166,68829,1,10,0:0:0:0:
339,246,69018,1,0,0:0:0:0:
180,171,69208,6,0,P|111:158|79:160,1,80,2|0,0:0|0:0,0:0:0:0:
10,207,69588,1,10,0:0:0:0:
10,207,69778,1,0,0:0:0:0:
51,306,69968,6,0,P|120:293|152:295,1,80,2|0,0:0|0:0,0:0:0:0:
256,291,70348,1,10,0:0:0:0:
256,291,70538,1,0,0:0:0:0:
10,207,70727,6,0,P|-2:149|4:106,1,80,2|0,0:0|0:0,0:0:0:0:
218,93,71107,2,0,P|217:132|207:171,1,80,10|0,0:0|0:0,0:0:0:0:
15,49,71487,5,2,0:0:0:0:
170,11,71677,1,0,0:0:0:0:
6,50,71867,1,10,0:0:0:0:
115,112,72056,1,0,0:0:0:0:
239,83,72246,6,0,P|280:75|336:78,1,80,2|0,0:0|0:0,0:0:0:0:
432,85,72626,1,10,0:0:0:0:
432,85,72816,1,0,0:0:0:0:
443,192,73006,6,0,P|401:184|345:187,1,80,2|0,0:0|0:0,0:0:0:0:
249,193,73386,1,10,0:0:0:0:
249,193,73576,1,0,0:0:0:0:
407,375,73765,6,0,P|425:320|422:265,1,80,2|0,0:0|0:0,0:0:0:0:
249,193,74145,2,0,P|253:232|268:269,1,80,10|0,0:0|0:0,0:0:0:0:
468,180,74525,5,2,0:0:0:0:
304,89,74715,1,0,0:0:0:0:
485,182,74905,1,10,0:0:0:0:
345,206,75094,1,0,0:0:0:0:
402,60,75284,6,0,P|442:61|481:72,1,80,2|0,0:0|0:0,0:0:0:0:
329,186,75664,1,10,0:0:0:0:
292,69,75854,1,0,0:0:0:0:
179,94,76044,6,0,P|140:105|101:107,1,80,2|0,0:0|0:0,0:0:0:0:
288,54,76424,1,10,0:0:0:0:
228,189,76614,1,0,0:0:0:0:
438,135,76803,6,0,P|409:121|387:120,1,40,10|0,0:0|0:0,0:0:0:0:
388,271,77183,2,0,P|385:238|375:219,1,40,10|0,0:0|0:0,0:0:0:0:
206,287,77562,2,0,P|254:287|291:274,1,80,10|0,0:0|0:0,0:0:0:0:
504,91,78322,6,0,P|461:71|394:80,1,88.000002685547,6|0,0:0|0:0,0:0:0:0:
212,151,78702,2,0,P|257:150|297:131,1,88.000002685547,10|0,0:0|0:0,0:0:0:0:
332,28,79082,1,2,0:0:0:0:
292,251,79272,1,0,0:0:0:0:
331,21,79462,1,10,0:0:0:0:
384,217,79651,1,0,0:0:0:0:
199,131,79841,6,0,P|161:119|104:126,1,88.000002685547,2|0,0:0|0:0,0:0:0:0:
0,267,80221,2,0,P|44:271|86:258,1,88.000002685547,10|0,0:0|0:0,0:0:0:0:
199,162,80601,1,2,0:0:0:0:
23,119,80791,1,0,0:0:0:0:
226,37,80981,1,10,0:0:0:0:
37,126,81170,1,0,0:0:0:0:
212,163,81360,6,0,P|264:154|329:156,1,88.000002685547,2|0,0:0|0:0,0:0:0:0:
106,285,81740,2,0,P|63:283|19:275,1,88.000002685547,10|0,0:0|0:0,0:0:0:0:
192,154,82120,1,2,0:0:0:0:
232,333,82310,1,0,0:0:0:0:
105,267,82499,1,10,0:0:0:0:
310,238,82689,1,0,0:0:0:0:
273,29,82879,6,0,P|257:54|252:83,1,60.0000022888184,2|0,0:0|0:0,0:0:0:0:
386,56,83259,1,10,0:0:0:0:
192,154,83449,2,0,P|211:178|237:192,1,60.0000022888184,0|2,0:0|0:0,0:0:0:0:
455,160,83829,5,8,0:0:0:0:
269,105,84018,1,8,0:0:0:0:
306,288,84208,1,8,0:0:0:0:
174,164,84398,6,0,P|116:152|66:159,1,88.000002685547,6|0,0:0|0:0,0:0:0:0:
320,305,84778,2,0,P|364:305|407:294,1,88.000002685547,10|0,0:0|0:0,0:0:0:0:
294,122,85158,1,2,0:0:0:0:
215,278,85348,1,0,0:0:0:0:
295,114,85538,1,10,0:0:0:0:
331,320,85727,1,0,0:0:0:0:
418,166,85917,6,0,P|461:156|505:155,1,88.000002685547,2|0,0:0|0:0,0:0:0:0:
287,106,86297,2,0,P|245:96|201:95,1,88.000002685547,10|0,0:0|0:0,0:0:0:0:
334,245,86677,1,2,0:0:0:0:
351,41,86867,1,0,0:0:0:0:
235,190,87056,1,8,0:0:0:0:
419,129,87246,1,0,0:0:0:0:
235,208,87436,6,0,P|182:219|127:222,1,88.000002685547,2|0,0:0|0:0,0:0:0:0:
0,53,87816,2,0,P|52:56|115:73,1,88.000002685547,10|0,0:0|0:0,0:0:0:0:
136,202,88196,1,2,0:0:0:0:
186,48,88386,1,0,0:0:0:0:
20,146,88575,1,10,0:0:0:0:
141,230,88765,1,0,0:0:0:0:
209,44,88955,6,0,P|225:69|230:98,1,60.0000022888184,2|0,0:0|0:0,0:0:0:0:
96,71,89335,1,10,0:0:0:0:
290,169,89525,2,0,P|271:193|245:207,1,60.0000022888184,0|2,0:0|0:0,0:0:0:0:
27,175,89905,5,10,0:0:0:0:
213,120,90094,1,8,0:0:0:0:
176,303,90284,1,8,0:0:0:0:
382,224,90474,6,0,P|441:203|487:201,1,80,6|0,0:0|0:0,0:0:0:0:
208,99,90854,2,0,P|148:78|102:76,1,80,10|0,0:0|0:0,0:0:0:0:
279,327,91234,2,0,P|259:267|257:221,1,80,2|0,0:0|0:0,0:0:0:0:
369,25,91613,2,0,P|364:74|343:125,1,80,10|0,0:0|0:0,0:0:0:0:
197,136,91993,5,2,0:0:0:0:
197,136,92183,1,0,0:0:0:0:
382,224,92373,2,0,P|448:236|483:231,1,80,10|0,0:0|0:0,0:0:0:0:
241,287,92753,5,2,0:0:0:0:
241,287,92943,1,0,0:0:0:0:
354,102,93133,2,0,P|353:62|342:23,1,80,10|0,0:0|0:0,0:0:0:0:
378,235,93512,6,0,P|444:245|481:240,1,80,2|0,0:0|0:0,0:0:0:0:
184,207,93892,2,0,P|134:204|86:214,1,80,10|0,0:0|0:0,0:0:0:0:
304,352,94272,1,2,0:0:0:0:
304,352,94462,1,0,0:0:0:0:
273,179,94651,1,10,0:0:0:0:
370,254,94841,1,0,0:0:0:0:
186,377,95031,6,0,P|199:321|199:286,1,80,2|0,0:0|0:0,0:0:0:0:
40,165,95411,2,0,P|46:214|59:262,1,80,10|0,0:0|0:0,0:0:0:0:
180,58,95791,1,2,0:0:0:0:
143,184,95981,1,8,0:0:0:0:
177,44,96170,1,10,0:0:0:0:
250,198,96360,1,8,0:0:0:0:
318,105,96550,6,0,P|297:46|295:0,1,80,6|0,0:0|0:0,0:0:0:0:
450,158,96929,2,0,P|429:218|427:264,1,80,10|0,0:0|0:0,0:0:0:0:
322,347,97309,2,0,P|272:341|226:323,1,80,2|0,0:0|0:0,0:0:0:0:
116,186,97689,2,0,P|175:165|221:163,1,80,10|0,0:0|0:0,0:0:0:0:
0,137,98069,5,2,0:0:0:0:
0,137,98259,1,0,0:0:0:0:
138,301,98449,2,0,P|150:367|145:402,1,80,10|0,0:0|0:0,0:0:0:0:
30,250,98829,5,2,0:0:0:0:
30,250,99019,1,0,0:0:0:0:
189,163,99209,2,0,P|229:164|268:175,1,80,8|0,0:0|0:0,0:0:0:0:
356,377,99588,6,0,P|353:327|363:279,1,80,2|0,0:0|0:0,0:0:0:0:
488,126,99967,2,0,P|487:165|478:204,1,80,10|0,0:0|0:0,0:0:0:0:
453,333,100348,1,2,0:0:0:0:
453,333,100538,1,0,0:0:0:0:
267,279,100727,1,10,0:0:0:0:
391,159,100917,1,0,0:0:0:0:
222,30,101107,6,0,P|227:67|232:81,1,40,2|0,0:0|0:0,0:0:0:0:
286,181,101297,1,10,0:0:0:0:
286,181,101486,1,10,0:0:0:0:
452,75,101676,5,0,0:0:0:0:
434,281,101866,1,8,0:0:0:0:
434,281,102056,1,8,0:0:0:0:
166,260,102246,5,0,0:0:0:0:
286,181,102436,2,0,P|268:172|248:167,1,40,8|8,0:0|0:0,0:0:0:0:
120,92,102626,6,0,P|118:134|120:168,1,60.0000022888184,6|0,0:0|0:0,0:0:0:0:
325,88,103005,2,0,P|328:50|326:14,1,60.0000022888184,10|0,0:0|0:0,0:0:0:0:
204,36,103385,1,2,0:0:0:0:
182,259,103575,1,0,0:0:0:0:
205,21,103765,1,10,0:0:0:0:
278,219,103955,1,0,0:0:0:0:
36,203,104145,6,0,P|76:193|107:196,1,60.0000022888184,2|0,0:0|0:0,0:0:0:0:
279,308,104524,2,0,P|242:307|206:296,1,60.0000022888184,10|0,0:0|0:0,0:0:0:0:
171,125,104904,1,2,0:0:0:0:
125,344,105094,1,0,0:0:0:0:
245,207,105284,1,10,0:0:0:0:
46,258,105474,1,0,0:0:0:0:
279,308,105664,6,0,P|281:344|279:384,1,60.0000022888184,2|0,0:0|0:0,0:0:0:0:
217,184,106043,2,0,P|216:147|220:110,1,60.0000022888184,10|0,0:0|0:0,0:0:0:0:
418,85,106423,1,2,0:0:0:0:
334,247,106613,1,0,0:0:0:0:
303,52,106803,1,10,0:0:0:0:
336,260,106993,1,0,0:0:0:0:
426,75,107183,5,2,0:0:0:0:
225,195,107373,1,0,0:0:0:0:
287,39,107562,2,0,P|293:91|293:114,1,60.0000022888184,10|0,0:0|0:0,0:0:0:0:
80,50,107942,5,2,0:0:0:0:
208,212,108132,1,8,0:0:0:0:
31,180,108322,1,10,0:0:0:0:
204,88,108512,1,8,0:0:0:0:
121,307,108702,6,0,P|113:260|123:225,1,60.0000022888184,6|0,0:0|0:0,0:0:0:0:
316,142,109081,2,0,P|316:179|306:215,1,60.0000022888184,10|0,0:0|0:0,0:0:0:0:
137,106,109461,1,2,0:0:0:0:
217,275,109651,1,0,0:0:0:0:
248,63,109841,1,10,0:0:0:0:
216,289,110031,1,0,0:0:0:0:
309,163,110221,6,0,P|303:192|302:222,1,60.0000022888184,2|0,0:0|0:0,0:0:0:0:
498,228,110600,2,0,P|497:198|491:168,1,60.0000022888184,10|0,0:0|0:0,0:0:0:0:
345,60,110980,1,2,0:0:0:0:
401,301,111170,1,0,0:0:0:0:
442,81,111360,1,10,0:0:0:0:
399,317,111550,1,0,0:0:0:0:
301,152,111740,6,0,P|271:146|242:151,1,60.0000022888184,2|0,0:0|0:0,0:0:0:0:
39,232,112119,2,0,P|77:234|113:226,1,60.0000022888184,10|0,0:0|0:0,0:0:0:0:
107,108,112499,5,2,0:0:0:0:
197,282,112689,1,0,0:0:0:0:
245,82,112879,2,0,P|218:128|217:162,1,60.0000022888184,10|0,0:0|0:0,0:0:0:0:
447,57,113259,5,2,0:0:0:0:
368,229,113449,1,0,0:0:0:0:
313,10,113639,2,0,P|340:56|341:90,1,60.0000022888184,10|0,0:0|0:0,0:0:0:0:
368,251,114018,5,2,0:0:0:0:
185,104,114208,1,8,0:0:0:0:
222,245,114398,1,10,0:0:0:0:
341,61,114588,1,8,0:0:0:0:
451,143,114778,6,0,P|378:161|298:135,1,143.999995605469,6|0,0:0|0:0,0:0:0:0:
290,299,115537,6,0,P|174:279|54:348,1,240,12|0,0:0|0:0,0:0:0:0:
5,206,116297,5,4,0:0:0:0:
193,144,116676,1,0,0:0:0:0:
46,12,117056,1,12,0:0:0:0:
98,117,117436,2,0,P|87:170|95:218,1,80
68,332,117816,6,0,P|154:319|220:345,1,143.999995605469,4|0,0:0|0:0,0:0:0:0:
427,379,118575,2,0,P|381:324|362:244,1,143.999995605469,12|0,0:0|0:0,0:0:0:0:
290,44,119335,2,0,P|267:111|199:165,1,143.999995605469,4|0,0:0|0:0,0:0:0:0:
25,44,120094,6,0,P|37:73|31:94,1,30.0000011444092,14|0,0:0|0:0,0:0:0:0:
132,112,120284,2,0,P|120:141|126:162,1,30.0000011444092,2|0,0:0|0:0,0:0:0:0:
31,184,120474,2,0,P|43:213|37:234,3,30.0000011444092,2|0|0|0,0:0|0:0|0:0|0:0,0:0:0:0:
40,318,120854,6,0,P|124:297|217:327,1,143.999995605469,4|0,0:0|0:0,0:0:0:0:
217,162,121613,6,0,P|334:181|454:112,1,240,12|0,0:0|0:0,0:0:0:0:
478,228,122373,5,4,0:0:0:0:
290,284,122752,1,0,0:0:0:0:
445,384,123132,1,12,0:0:0:0:
382,250,123512,2,0,P|382:210|397:173,1,80,0|0,0:0|0:0,0:0:0:0:
465,68,123891,5,4,0:0:0:0:
460,80,124651,5,4,0:0:0:0:
332,309,125221,6,0,P|333:337|338:364,1,30.0000011444092
346,294,125410,2,0,P|346:265|341:238,5,30.0000011444092,10|0|0|0|0|0,0:0|0:0|0:0|0:0|0:0|0:0,0:0:0:0:
434,159,125980,5,8,0:0:0:0:
434,158,126170,2,0,P|437:183|434:208,1,40,8|0,0:0|0:0,0:0:0:0:
287,123,126550,2,0,P|285:98|288:73,1,40,8|12,0:0|0:0,0:0:0:0:
12,172,126929,6,0,P|55:152|122:161,1,88.000002685547,6|0,0:0|0:0,0:0:0:0:
304,232,127309,2,0,P|259:231|219:212,1,88.000002685547,10|0,0:0|0:0,0:0:0:0:
186,104,127689,1,2,0:0:0:0:
206,326,127879,1,0,0:0:0:0:
187,97,128069,1,10,0:0:0:0:
103,274,128258,1,0,0:0:0:0:
287,123,128448,6,0,P|325:111|382:118,1,88.000002685547,2|0,0:0|0:0,0:0:0:0:
506,254,128828,2,0,P|462:258|420:245,1,88.000002685547,10|0,0:0|0:0,0:0:0:0:
476,68,129208,1,2,0:0:0:0:
336,208,129398,1,0,0:0:0:0:
296,98,129588,1,10,0:0:0:0:
479,169,129777,1,0,0:0:0:0:
305,207,129967,6,0,P|253:198|188:200,1,88.000002685547,2|0,0:0|0:0,0:0:0:0:
417,325,130347,2,0,P|460:323|504:315,1,88.000002685547,10|0,0:0|0:0,0:0:0:0:
311,181,130727,1,2,0:0:0:0:
300,333,130917,1,0,0:0:0:0:
438,221,131106,1,10,0:0:0:0:
189,250,131296,1,0,0:0:0:0:
239,29,131486,6,0,P|255:54|260:83,1,60.0000022888184,2|0,0:0|0:0,0:0:0:0:
126,56,131866,1,10,0:0:0:0:
320,154,132056,2,0,P|301:178|275:192,1,60.0000022888184,0|2,0:0|0:0,0:0:0:0:
57,160,132436,5,8,0:0:0:0:
243,105,132625,1,10,0:0:0:0:
206,288,132815,1,8,0:0:0:0:
338,164,133005,6,0,P|396:152|446:159,1,88.000002685547,6|0,0:0|0:0,0:0:0:0:
192,305,133385,2,0,P|148:305|105:294,1,88.000002685547,10|0,0:0|0:0,0:0:0:0:
250,117,133765,1,2,0:0:0:0:
302,276,133955,1,0,0:0:0:0:
249,109,134145,1,10,0:0:0:0:
181,320,134334,1,0,0:0:0:0:
113,144,134524,6,0,P|70:134|26:133,1,88.000002685547,2|0,0:0|0:0,0:0:0:0:
258,89,134904,2,0,P|300:79|344:78,1,88.000002685547,10|0,0:0|0:0,0:0:0:0:
163,220,135284,1,2,0:0:0:0:
161,41,135474,1,0,0:0:0:0:
267,187,135663,1,10,0:0:0:0:
93,129,135853,1,0,0:0:0:0:
270,205,136043,6,0,P|323:216|378:219,1,88.000002685547,2|0,0:0|0:0,0:0:0:0:
512,53,136423,2,0,P|460:56|397:73,1,88.000002685547,10|0,0:0|0:0,0:0:0:0:
376,202,136803,1,2,0:0:0:0:
326,48,136993,1,0,0:0:0:0:
492,146,137182,1,10,0:0:0:0:
371,230,137372,1,0,0:0:0:0:
303,44,137562,6,0,P|287:69|282:98,1,60.0000022888184,2|0,0:0|0:0,0:0:0:0:
416,71,137942,1,10,0:0:0:0:
222,169,138132,2,0,P|241:193|267:207,1,60.0000022888184,0|2,0:0|0:0,0:0:0:0:
485,175,138512,5,10,0:0:0:0:
299,120,138701,1,8,0:0:0:0:
336,303,138891,1,8,0:0:0:0:
407,82,139081,6,0,P|466:61|512:59,1,80,6|0,0:0|0:0,0:0:0:0:
238,217,139461,2,0,P|178:196|132:194,1,80,10|0,0:0|0:0,0:0:0:0:
340,336,139841,2,0,P|360:276|362:230,1,80,2|0,0:0|0:0,0:0:0:0:
401,62,140220,2,0,P|406:111|427:162,1,80,10|0,0:0|0:0,0:0:0:0:
492,250,140600,5,2,0:0:0:0:
492,250,140790,1,0,0:0:0:0:
307,162,140980,2,0,P|241:150|206:155,1,80,10|0,0:0|0:0,0:0:0:0:
324,326,141360,5,2,0:0:0:0:
324,326,141550,1,0,0:0:0:0:
437,141,141740,2,0,P|436:101|425:62,1,80,10|0,0:0|0:0,0:0:0:0:
319,322,142119,6,0,P|385:332|422:327,1,80,2|0,0:0|0:0,0:0:0:0:
144,239,142499,2,0,P|94:236|46:246,1,80,10|0,0:0|0:0,0:0:0:0:
198,358,142879,1,2,0:0:0:0:
198,358,143069,1,0,0:0:0:0:
264,198,143258,1,10,0:0:0:0:
135,255,143448,1,0,0:0:0:0:
326,377,143638,6,0,P|313:321|313:286,1,80,2|0,0:0|0:0,0:0:0:0:
472,165,144018,2,0,P|466:214|453:262,1,80,10|0,0:0|0:0,0:0:0:0:
332,58,144398,1,2,0:0:0:0:
369,184,144588,1,8,0:0:0:0:
335,44,144777,1,10,0:0:0:0:
262,198,144967,1,10,0:0:0:0:
241,94,145157,6,0,P|220:35|218:-11,1,80,6|0,0:0|0:0,0:0:0:0:
436,113,145537,2,0,P|415:173|413:219,1,80,10|0,0:0|0:0,0:0:0:0:
453,370,145917,2,0,P|403:364|357:346,1,80,2|0,0:0|0:0,0:0:0:0:
184,254,146296,2,0,P|243:233|289:231,1,80,10|0,0:0|0:0,0:0:0:0:
499,196,146676,5,2,0:0:0:0:
359,249,146866,1,0,0:0:0:0:
402,124,147056,2,0,P|403:84|414:46,1,80,10|0,0:0|0:0,0:0:0:0:
362,265,147436,5,2,0:0:0:0:
290,67,147626,1,0,0:0:0:0:
220,221,147816,2,0,P|232:287|227:322,1,80,10|0,0:0|0:0,0:0:0:0:
40,90,148195,6,0,P|106:100|143:95,1,80,2|0,0:0|0:0,0:0:0:0:
364,49,148575,2,0,P|314:46|266:56,1,80,10|0,0:0|0:0,0:0:0:0:
220,177,148955,1,2,0:0:0:0:
180,0,149145,1,0,0:0:0:0:
215,192,149334,1,10,0:0:0:0:
356,64,149524,1,0,0:0:0:0:
105,107,149714,6,0,P|112:143|113:181,1,60.0000022888184,2|0,0:0|0:0,0:0:0:0:
315,312,150094,2,0,P|317:274|323:237,1,60.0000022888184,10|0,0:0|0:0,0:0:0:0:
294,148,150474,5,2,0:0:0:0:
217,325,150664,1,8,0:0:0:0:
189,99,150854,5,10,0:0:0:0:
464,168,151043,2,0,P|471:141|472:114,1,30.0000011444092,8|8,0:0|0:0,0:0:0:0:
315,56,151233,6,0,P|317:93|329:128,1,60.0000022888184,0|0,0:0|0:0,0:0:0:0:
416,53,151613,5,10,0:0:0:0:
365,212,151803,1,0,0:0:0:0:
290,40,151993,5,10,0:0:0:0:
256,232,152183,1,0,0:0:0:0:
164,32,152373,5,10,0:0:0:0:
259,245,152562,1,0,0:0:0:0:
283,20,152752,6,0,P|292:65|281:93,1,60.0000022888184,8|0,0:0|0:0,0:0:0:0:
325,166,153132,5,10,0:0:0:0:
115,106,153322,1,0,0:0:0:0:
267,266,153512,5,10,0:0:0:0:
98,91,153702,1,0,0:0:0:0:
356,152,153891,5,8,0:0:0:0:
84,259,154081,1,8,0:0:0:0:
200,89,154271,6,0,P|206:132|204:162,1,60.0000022888184,2|0,0:0|0:0,0:0:0:0:
105,244,154651,5,10,0:0:0:0:
69,82,154841,1,0,0:0:0:0:
204,279,155031,5,10,0:0:0:0:
197,55,155221,1,0,0:0:0:0:
200,296,155410,5,10,0:0:0:0:
305,85,155600,1,0,0:0:0:0:
99,226,155790,5,10,0:0:0:0:
286,97,155980,1,0,0:0:0:0:
92,98,156170,5,10,0:0:0:0:
280,213,156360,1,0,0:0:0:0:
89,245,156550,5,10,0:0:0:0:
295,232,156740,2,0,P|299:253|295:270,1,30.0000011444092,8|0,0:0|0:0,0:0:0:0:
280,213,156929,2,0,P|281:194|287:176,3,30.0000011444092,8|0|0|0,0:0|0:0|0:0|0:0,0:0:0:0:
329,49,157309,5,6,0:0:0:0:
413,187,157499,1,0,0:0:0:0:
413,187,157594,1,0,0:0:0:0:
413,187,157689,2,0,P|473:166|519:164,1,80,10|0,0:0|0:0,0:0:0:0:
400,330,157974,1,0,0:0:0:0:
400,330,158069,2,0,P|381:280|378:255,1,40,10|0,0:0|0:0,0:0:0:0:
292,219,158259,2,0,P|273:269|270:294,1,40
180,322,158448,2,0,P|141:310|102:307,1,80,10|0,0:0|0:0,0:0:0:0:
152,120,158733,5,0,0:0:0:0:
152,120,158828,2,0,P|173:179|175:225,1,80,6|0,0:0|0:0,0:0:0:0:
29,210,159113,1,0,0:0:0:0:
29,210,159208,2,0,P|79:191|104:188,1,40,10|0,0:0|0:0,0:0:0:0:
49,81,159398,2,0,P|55:62|64:45,1,40
152,120,159588,2,0,P|191:123|229:135,1,80,10|0,0:0|0:0,0:0:0:0:
316,232,159873,1,0,0:0:0:0:
316,232,159967,2,0,P|355:228|375:222,1,40,10|0,0:0|0:0,0:0:0:0:
467,202,160157,2,0,P|460:183|451:165,1,40
363,31,160347,6,0,P|342:90|340:136,1,80,6|0,0:0|0:0,0:0:0:0:
459,65,160632,1,0,0:0:0:0:
459,65,160727,2,0,P|509:46|534:43,1,40,10|0,0:0|0:0,0:0:0:0:
229,135,160917,2,0,P|210:128|192:119,1,40
374,235,161107,2,0,P|370:274|358:312,1,80,10|0,0:0|0:0,0:0:0:0:
155,296,161391,1,0,0:0:0:0:
155,296,161486,2,0,P|158:335|170:373,1,80,10|0,0:0|0:0,0:0:0:0:
61,140,161771,5,0,0:0:0:0:
61,140,161866,2,0,P|85:148|117:147,1,40,8|0,0:0|0:0,0:0:0:0:
129,285,162056,2,0,P|105:277|73:278,3,40,0|0|0|0,0:0|0:0|0:0|0:0,0:0:0:0:
221,151,162436,6,0,P|245:159|277:158,1,40,8|0,0:0|0:0,0:0:0:0:
289,296,162626,2,0,P|265:288|233:289,3,40,0|0|0|0,0:0|0:0|0:0|0:0,0:0:0:0:
369,160,163005,6,0,P|393:168|425:167,1,40,8|0,0:0|0:0,0:0:0:0:
449,326,163195,2,0,P|431:319|411:316,1,40,0|0,0:0|0:0,0:0:0:0:
256,192,163385,12,0,165664,0:0:0:0:
