osu file format v14

[General]
AudioFilename: audio.mp3
AudioLeadIn: 0
PreviewTime: 32313
Countdown: 1
SampleSet: Soft
StackLeniency: 0.7
Mode: 0
LetterboxInBreaks: 0
WidescreenStoryboard: 0

[Editor]
DistanceSpacing: 0.5
BeatDivisor: 4
GridSize: 4
TimelineZoom: 1

[Metadata]
Title:20/20
TitleUnicode:20/20
Artist:ONE OK ROCK
ArtistUnicode:ONE OK ROCK
Creator:Sakura Blossom
Version:I need glasses?
Source:
Tags:ONE OK ROCK, 20/20, Sakura Blossom
BeatmapID:1883477
BeatmapSetID:902100

[Difficulty]
HPDrainRate:5
CircleSize:4
OverallDifficulty:8.5
ApproachRate:9
SliderMultiplier:1.8
SliderTickRate:1

[Events]
//Background and Video events
0,0,"cropped-1920-1080-693866.jpg",0,0
//Break Periods
//Storyboard Layer 0 (Background)
//Storyboard Layer 1 (Fail)
//Storyboard Layer 2 (Pass)
//Storyboard Layer 3 (Foreground)
//Storyboard Sound Samples

[TimingPoints]
313,363.636363636364,4,2,0,35,1,0
313,-133.333333333333,4,2,0,35,0,0
11222,-100,4,2,0,35,0,0
11585,-133.333333333333,4,2,0,35,0,0
16858,-1000,4,2,0,35,0,0
17767,-100,4,2,0,35,0,0
17949,-100,4,2,0,45,0,0
32313,-133.333333333333,4,2,0,50,0,0
35040,-133.333333333333,4,2,0,5,0,0
35222,-83.3333333333333,4,2,0,55,0,1
57040,-400,4,2,0,35,0,0
58494,-100,4,2,0,55,0,0
64313,-100,4,2,0,5,0,0

[HitObjects]
303,135,313,6,0,L|310:49,2,67.5000025749208
289,233,858,1,0,0:0:0:0:
260,321,1040,2,0,P|298:322|345:310,1,67.5000025749208
277,226,1585,1,0,0:0:0:0:
314,150,1767,6,0,P|261:142|226:147,1,67.5000025749208
140,161,2131,1,0,0:0:0:0:
29,202,2313,2,0,B|38:180|53:169|53:169|55:110|108:81,1,135.000005149842
240,25,2858,1,0,0:0:0:0:
145,177,3040,1,0,0:0:0:0:
61,224,3222,6,0,B|86:257|127:280,1,67.5000025749208
210,338,3585,1,0,0:0:0:0:
341,336,3767,2,0,L|430:330,2,67.5000025749208
145,358,4494,5,0,0:0:0:0:
145,358,4676,6,0,P|192:342|233:332,1,67.5000025749208
213,193,5040,1,0,0:0:0:0:
408,331,5222,2,0,B|416:291|416:291|410:186,1,135.000005149842
387,60,5767,1,0,0:0:0:0:
303,252,5949,1,0,0:0:0:0:
213,193,6131,6,0,P|252:178|293:160,1,67.5000025749208
250,83,6494,2,0,P|206:76|171:75,1,67.5000025749208
368,54,6858,2,0,B|378:92|378:92|381:196,1,135.000005149842
297,269,7403,1,0,0:0:0:0:
201,243,7585,6,0,P|191:287|190:316,1,67.5000025749208
104,248,7949,2,0,P|99:211|91:163,1,67.5000025749208
18,265,8313,2,0,P|5:323|-3:375,2,101.250003862381
30,173,9040,6,0,P|69:172|111:168,1,67.5000025749208
165,79,9403,2,0,P|122:73|85:71,1,67.5000025749208
188,178,9767,2,0,P|254:184|328:186,1,135.000005149842
433,170,10313,1,0,0:0:0:0:
512,167,10494,6,0,P|500:123|472:94,1,67.5000025749208
383,54,10858,1,0,0:0:0:0:
243,97,11040,1,0,0:0:0:0:
209,176,11222,2,0,P|301:168|318:155,1,90
287,17,11585,1,0,0:0:0:0:
160,111,11767,1,0,0:0:0:0:
94,164,11949,6,0,P|77:126|78:83,1,67.5000025749208
173,192,12313,2,0,P|148:225|110:246,1,67.5000025749208
17,202,12676,2,0,B|26:224|41:235|41:235|43:294|96:323,1,135.000005149842
167,309,13222,1,0,0:0:0:0:
251,332,13403,6,0,P|250:290|231:251,1,67.5000025749208
168,227,13767,2,0,P|190:201|219:185,1,67.5000025749208
304,207,14131,1,0,0:0:0:0:
266,102,14313,2,0,B|288:111|299:126|299:126|358:128|387:181,1,135.000005149842
371,247,14858,6,0,L|381:332,1,67.5000025749208
387,382,15222,6,0,L|377:297,1,67.5000025749208
260,221,15585,2,0,L|306:359,1,135.000005149842
204,350,16131,1,0,0:0:0:0:
170,346,16313,1,0,0:0:0:0:
136,344,16494,1,0,0:0:0:0:
102,342,16676,1,0,0:0:0:0:
88,341,16858,6,0,B|42:337,1,45
56,201,17949,5,0,0:0:0:0:
56,201,18131,2,0,L|148:185,1,90
264,150,18494,2,0,L|271:56,1,90
106,28,18858,1,0,0:0:0:0:
163,185,19040,1,0,0:0:0:0:
260,239,19222,6,0,P|267:182|262:142,1,90
234,32,19585,6,0,P|286:54|319:78,1,90
387,162,19949,1,0,0:0:0:0:
185,238,20131,1,0,0:0:0:0:
251,135,20313,1,0,0:0:0:0:
263,332,20494,1,0,0:0:0:0:
263,332,20585,1,0,0:0:0:0:
263,332,20676,5,0,0:0:0:0:
401,286,20858,1,0,0:0:0:0:
251,141,21040,2,0,L|151:152,1,90
56,201,21403,1,0,0:0:0:0:
185,321,21585,1,0,0:0:0:0:
33,317,21767,1,0,0:0:0:0:
251,141,21949,2,0,B|211:189|211:189|166:322,1,180
291,315,22494,5,0,0:0:0:0:
148,131,22676,1,0,0:0:0:0:
314,219,22858,1,0,0:0:0:0:
175,298,23041,5,0,0:0:0:0:
213,216,23222,1,0,0:0:0:0:
252,135,23403,1,0,0:0:0:0:
163,309,23767,5,0,0:0:0:0:
89,267,23949,2,0,P|86:335|95:360,1,90
203,222,24313,2,0,P|180:173|162:125,1,90
166,36,24676,1,0,0:0:0:0:
241,132,24858,2,0,B|260:131|292:144|292:144|323:124|366:137|366:137|394:122|423:138,1,180
333,212,25403,2,0,L|336:323,1,90
411,263,25767,2,0,L|459:370,1,90
333,315,26131,1,0,0:0:0:0:
410,181,26313,1,0,0:0:0:0:
410,181,26403,1,0,0:0:0:0:
410,181,26494,5,0,0:0:0:0:
242,288,26676,1,0,0:0:0:0:
192,357,26858,2,0,P|167:319|162:256,1,90
136,179,27222,1,0,0:0:0:0:
213,141,27403,1,0,0:0:0:0:
126,98,27585,2,0,L|24:100,1,90
199,66,27949,5,0,0:0:0:0:
203,231,28131,1,0,0:0:0:0:
56,175,28313,1,0,0:0:0:0:
277,90,28494,1,0,0:0:0:0:
126,260,28676,1,0,0:0:0:0:
132,24,28858,1,0,0:0:0:0:
288,172,29040,1,0,0:0:0:0:
288,172,29222,6,0,B|287:199|297:221|297:221|279:247|286:272|286:272|301:301|303:330|292:363,1,180
376,289,29767,2,0,L|482:281,1,90
202,240,30131,2,0,L|104:237,1,90
383,165,30494,1,0,0:0:0:0:
295,51,30676,1,0,0:0:0:0:
200,150,30858,6,0,B|200:197|200:197|208:262,1,90
376,289,31222,2,0,B|376:242|376:242|368:177,1,90
292,67,31585,1,0,0:0:0:0:
213,258,31767,1,0,0:0:0:0:
194,127,31949,1,0,0:0:0:0:
383,306,32131,1,0,0:0:0:0:
372,131,32313,6,0,L|370:202,1,67.5000025749208
456,178,32676,2,0,L|459:263,1,67.5000025749208
367,219,33040,2,0,L|365:290,1,67.5000025749208
460,267,33403,2,0,L|463:352,1,67.5000025749208
256,192,33767,12,0,35040,0:0:0:0:
149,298,35222,6,0,B|145:267|126:249|126:249|150:209|134:182|134:182|145:145|127:116,1,161.999995056153
80,71,35585,2,0,P|132:60|196:67,1,107.999996704102
293,147,35949,1,0,0:0:0:0:
139,213,36131,1,0,0:0:0:0:
203,52,36313,1,0,0:0:0:0:
365,98,36494,2,0,B|410:196|315:205|350:317,1,215.999993408203
428,277,37040,5,0,0:0:0:0:
200,290,37222,1,0,0:0:0:0:
390,159,37403,1,0,0:0:0:0:
369,360,37585,1,0,0:0:0:0:
272,203,37767,1,0,0:0:0:0:
229,184,37858,1,0,0:0:0:0:
183,189,37949,1,0,0:0:0:0:
140,212,38040,1,0,0:0:0:0:
113,250,38131,6,0,P|53:292|-31:321,1,161.999995056153
40,172,38494,1,0,0:0:0:0:
198,288,38676,1,0,0:0:0:0:
284,135,38858,2,0,P|315:176|341:234,1,107.999996704102
256,103,39222,1,0,0:0:0:0:
190,305,39403,1,0,0:0:0:0:
117,146,39585,6,0,P|97:91|99:24,1,107.999996704102
290,151,39949,1,0,0:0:0:0:
118,255,40131,1,0,0:0:0:0:
336,248,40313,1,0,0:0:0:0:
129,154,40494,1,0,0:0:0:0:
176,329,40676,1,0,0:0:0:0:
356,182,40858,1,0,0:0:0:0:
362,333,41040,6,0,B|379:298|379:298|372:161,1,161.999995056153
383,90,41403,2,0,P|432:118|457:174,1,107.999996704102
454,332,41767,1,0,0:0:0:0:
274,266,41949,1,0,0:0:0:0:
457,183,42131,1,0,0:0:0:0:
378,349,42313,2,0,B|345:359|322:372|322:372|303:368|276:379|276:379|247:369|216:374|216:374|185:364|151:363,1,215.999993408203
82,286,42858,5,0,0:0:0:0:
193,176,43040,1,0,0:0:0:0:
229,299,43222,1,0,0:0:0:0:
335,123,43403,1,0,0:0:0:0:
98,200,43585,1,0,0:0:0:0:
99,152,43676,1,0,0:0:0:0:
124,112,43767,1,0,0:0:0:0:
162,83,43858,1,0,0:0:0:0:
208,73,43949,6,0,P|271:36|365:14,1,161.999995056153
387,26,44313,1,0,0:0:0:0:
235,157,44494,1,0,0:0:0:0:
335,123,44676,2,0,L|350:240,1,107.999996704102
411,354,45040,1,0,0:0:0:0:
268,291,45222,1,0,0:0:0:0:
430,269,45403,6,0,B|433:214|428:155,1,107.999996704102
349,94,45767,1,0,0:0:0:0:
166,207,45949,1,0,0:0:0:0:
267,22,46131,1,0,0:0:0:0:
328,258,46313,1,0,0:0:0:0:
274,99,46494,1,0,0:0:0:0:
143,278,46676,1,0,0:0:0:0:
263,178,46858,6,0,B|273:193|273:193|337:164|400:174,1,107.999996704102
234,263,47222,2,0,P|230:319|229:380,1,107.999996704102
148,176,47585,1,0,0:0:0:0:
333,282,47767,1,0,0:0:0:0:
204,126,47949,1,0,0:0:0:0:
343,144,48131,2,0,B|350:171|347:195|347:195|442:232|378:272|476:321,1,215.999993408203
333,282,48676,5,0,0:0:0:0:
189,303,48858,1,0,0:0:0:0:
349,277,49040,1,0,0:0:0:0:
218,194,49222,1,0,0:0:0:0:
252,363,49403,1,0,0:0:0:0:
302,363,49493,1,0,0:0:0:0:
352,363,49584,1,0,0:0:0:0:
402,363,49675,1,0,0:0:0:0:
449,360,49767,6,0,L|430:248,1,107.999996704102
405,160,50131,1,0,0:0:0:0:
240,322,50313,2,0,P|292:252|291:216,1,107.999996704102
492,190,50676,1,0,0:0:0:0:
302,160,50858,2,0,L|186:128,1,107.999996704102
81,115,51222,5,0,0:0:0:0:
293,234,51403,1,0,0:0:0:0:
60,237,51585,2,0,P|115:264|179:268,1,107.999996704102
197,132,51949,1,0,0:0:0:0:
240,306,52131,1,0,0:0:0:0:
290,143,52313,1,0,0:0:0:0:
353,261,52494,1,0,0:0:0:0:
171,321,52676,5,0,0:0:0:0:
444,224,52858,1,0,0:0:0:0:
297,105,53040,1,0,0:0:0:0:
237,314,53222,5,0,0:0:0:0:
403,151,53404,1,0,0:0:0:0:
256,115,53586,1,0,0:0:0:0:
284,286,53767,5,0,0:0:0:0:
349,112,53949,1,0,0:0:0:0:
230,136,54131,1,0,0:0:0:0:
455,242,54313,5,0,0:0:0:0:
366,67,54494,1,0,0:0:0:0:
420,237,54676,5,0,0:0:0:0:
281,67,54858,1,0,0:0:0:0:
392,240,55040,5,0,0:0:0:0:
213,111,55222,1,0,0:0:0:0:
369,258,55403,5,0,0:0:0:0:
162,179,55585,1,0,0:0:0:0:
345,275,55767,5,0,0:0:0:0:
127,253,55949,1,0,0:0:0:0:
325,172,56131,1,0,0:0:0:0:
283,366,56313,2,0,L|269:294,1,53.9999983520508
151,211,56494,2,0,L|171:279,1,53.9999983520508
325,172,56676,2,0,L|288:100,1,53.9999983520508
340,270,56858,1,0,0:0:0:0:
340,270,56949,1,0,0:0:0:0:
340,270,57040,6,0,B|413:221|422:268|490:227,1,157.5
401,384,58494,6,0,B|396:329|396:329|409:278,1,90
488,227,58858,2,0,B|486:172|486:172|476:139,1,90
428,57,59222,5,0,0:0:0:0:
385,64,59313,1,0,0:0:0:0:
345,72,59403,1,0,0:0:0:0:
303,78,59494,1,0,0:0:0:0:
262,83,59585,1,0,0:0:0:0:
196,92,59767,5,0,0:0:0:0:
113,169,59949,5,0,0:0:0:0:
264,127,60131,2,0,L|237:231,1,90
99,308,60494,1,0,0:0:0:0:
204,251,60676,1,0,0:0:0:0:
241,224,60767,1,0,0:0:0:0:
287,212,60858,1,0,0:0:0:0:
333,213,60949,1,0,0:0:0:0:
378,230,61040,2,0,L|544:231,1,135
409,151,61403,6,0,L|412:47,1,90
369,89,61767,2,0,L|360:-26,1,90
243,42,62131,5,0,0:0:0:0:
211,71,62222,1,0,0:0:0:0:
182,100,62312,1,0,0:0:0:0:
149,127,62403,1,0,0:0:0:0:
117,154,62494,1,0,0:0:0:0:
67,197,62676,5,0,0:0:0:0:
256,192,62858,12,0,64313,0:0:0:0:
