osu file format v14

[General]
AudioFilename: audio.mp3
AudioLeadIn: 0
PreviewTime: 33680
Countdown: 0
SampleSet: Normal
StackLeniency: 0.7
Mode: 1
LetterboxInBreaks: 0
WidescreenStoryboard: 0

[Editor]
DistanceSpacing: 0.7
BeatDivisor: 4
GridSize: 32
TimelineZoom: 1

[Metadata]
Title:20/20
TitleUnicode:20/20
Artist:ONE OK ROCK
ArtistUnicode:ONE OK ROCK
Creator:Naotoshi
Version:Oni
Source:
Tags:cut version cuz im lazy
BeatmapID:1452487
BeatmapSetID:686268

[Difficulty]
HPDrainRate:5.5
CircleSize:3
OverallDifficulty:5
ApproachRate:6
SliderMultiplier:1.4
SliderTickRate:1

[Events]
//Background and Video events
0,0,"545701.jpg",0,0
//Break Periods
//Storyboard Layer 0 (Background)
//Storyboard Layer 1 (Fail)
//Storyboard Layer 2 (Pass)
//Storyboard Layer 3 (Foreground)
//Storyboard Sound Samples

[TimingPoints]
317,363.636363636364,4,1,0,49,1,0

[HitObjects]
256,192,317,5,0,0:0:0:0:
256,192,498,1,0,0:0:0:0:
256,192,862,1,0,0:0:0:0:
256,192,1044,1,8,0:0:0:0:
256,192,1226,1,0,0:0:0:0:
256,192,1589,1,0,0:0:0:0:
256,192,1771,1,0,0:0:0:0:
256,192,2135,1,0,0:0:0:0:
256,192,2317,1,8,0:0:0:0:
256,192,2498,1,8,0:0:0:0:
256,192,2862,1,0,0:0:0:0:
256,192,3226,1,0,0:0:0:0:
256,192,3407,1,0,0:0:0:0:
256,192,3771,1,0,0:0:0:0:
256,192,3953,1,8,0:0:0:0:
256,192,4135,1,0,0:0:0:0:
256,192,4498,1,0,0:0:0:0:
256,192,4680,1,0,0:0:0:0:
256,192,5044,1,0,0:0:0:0:
256,192,5226,1,8,0:0:0:0:
256,192,5589,1,8,0:0:0:0:
256,192,5771,1,0,0:0:0:0:
256,192,6135,1,0,0:0:0:0:
256,192,6316,1,0,0:0:0:0:
256,192,6680,1,0,0:0:0:0:
256,192,6862,1,8,0:0:0:0:
256,192,7044,1,8,0:0:0:0:
256,192,7407,1,0,0:0:0:0:
256,192,7589,1,0,0:0:0:0:
256,192,7953,1,0,0:0:0:0:
256,192,8135,1,8,0:0:0:0:
256,192,8498,1,8,0:0:0:0:
256,192,8680,1,0,0:0:0:0:
256,192,8862,1,0,0:0:0:0:
256,192,9044,1,0,0:0:0:0:
256,192,9226,1,8,0:0:0:0:
256,192,9589,1,8,0:0:0:0:
256,192,9771,1,8,0:0:0:0:
256,192,9953,1,8,0:0:0:0:
256,192,10317,1,0,0:0:0:0:
256,192,10498,1,8,0:0:0:0:
256,192,10862,1,8,0:0:0:0:
256,192,11044,1,0,0:0:0:0:
256,192,11407,5,0,0:0:0:0:
256,192,11498,1,0,0:0:0:0:
256,192,11589,1,0,0:0:0:0:
256,192,11953,1,0,0:0:0:0:
256,192,12135,1,0,0:0:0:0:
256,192,12498,1,0,0:0:0:0:
256,192,12680,1,8,0:0:0:0:
256,192,12862,1,0,0:0:0:0:
256,192,13226,1,0,0:0:0:0:
256,192,13407,1,0,0:0:0:0:
256,192,13771,1,0,0:0:0:0:
256,192,13953,1,8,0:0:0:0:
256,192,14135,1,8,0:0:0:0:
256,192,14498,1,8,0:0:0:0:
256,192,14862,1,8,0:0:0:0:
256,192,15044,1,8,0:0:0:0:
256,192,15407,1,8,0:0:0:0:
256,192,15589,1,0,0:0:0:0:
256,192,15771,1,8,0:0:0:0:
256,192,16135,1,0,0:0:0:0:
256,192,16317,1,8,0:0:0:0:
256,192,16498,1,8,0:0:0:0:
256,192,16680,1,0,0:0:0:0:
256,192,16862,12,0,17771,0:0:0:0:
256,192,17953,5,12,0:0:0:0:
256,192,18135,1,0,0:0:0:0:
256,192,18317,1,0,0:0:0:0:
256,192,18498,1,8,0:0:0:0:
256,192,18680,1,0,0:0:0:0:
256,192,18771,1,0,0:0:0:0:
256,192,18862,1,8,0:0:0:0:
256,192,19044,1,0,0:0:0:0:
256,192,19226,1,8,0:0:0:0:
256,192,19407,1,0,0:0:0:0:
256,192,19589,1,8,0:0:0:0:
256,192,19771,1,8,0:0:0:0:
256,192,19862,1,8,0:0:0:0:
256,192,19953,1,0,0:0:0:0:
256,192,20317,1,0,0:0:0:0:
256,192,20498,1,0,0:0:0:0:
256,192,20589,1,0,0:0:0:0:
256,192,20680,1,8,0:0:0:0:
256,192,20862,1,8,0:0:0:0:
256,192,21044,1,8,0:0:0:0:
256,192,21226,1,0,0:0:0:0:
256,192,21317,1,0,0:0:0:0:
256,192,21407,1,0,0:0:0:0:
256,192,21589,1,0,0:0:0:0:
256,192,21771,1,8,0:0:0:0:
256,192,21953,1,8,0:0:0:0:
256,192,22044,1,8,0:0:0:0:
256,192,22135,1,8,0:0:0:0:
256,192,22317,1,0,0:0:0:0:
256,192,22498,1,0,0:0:0:0:
256,192,22680,1,8,0:0:0:0:
256,192,22771,1,8,0:0:0:0:
256,192,22862,1,0,0:0:0:0:
256,192,23044,1,8,0:0:0:0:
256,192,23226,1,8,0:0:0:0:
256,192,23407,1,8,0:0:0:0:
256,192,23771,1,12,0:0:0:0:
256,192,23953,1,0,0:0:0:0:
256,192,24135,1,0,0:0:0:0:
256,192,24226,1,0,0:0:0:0:
256,192,24317,1,8,0:0:0:0:
256,192,24680,1,8,0:0:0:0:
256,192,24862,1,0,0:0:0:0:
256,192,25044,1,8,0:0:0:0:
256,192,25135,1,8,0:0:0:0:
256,192,25226,1,0,0:0:0:0:
256,192,25407,1,8,0:0:0:0:
256,192,25589,1,0,0:0:0:0:
256,192,25771,1,0,0:0:0:0:
256,192,25953,1,8,0:0:0:0:
256,192,26044,1,8,0:0:0:0:
256,192,26135,1,8,0:0:0:0:
256,192,26317,1,0,0:0:0:0:
256,192,26407,1,0,0:0:0:0:
256,192,26498,1,0,0:0:0:0:
256,192,26680,1,8,0:0:0:0:
256,192,26862,1,8,0:0:0:0:
256,192,27044,1,0,0:0:0:0:
256,192,27226,1,0,0:0:0:0:
256,192,27407,1,0,0:0:0:0:
256,192,27498,1,0,0:0:0:0:
256,192,27589,1,8,0:0:0:0:
256,192,27771,1,8,0:0:0:0:
256,192,27953,1,0,0:0:0:0:
256,192,28135,1,0,0:0:0:0:
256,192,28317,1,8,0:0:0:0:
256,192,28498,1,0,0:0:0:0:
256,192,28680,1,0,0:0:0:0:
256,192,28862,1,8,0:0:0:0:
256,192,29044,1,8,0:0:0:0:
256,192,29226,1,4,0:0:0:0:
256,192,29589,1,0,0:0:0:0:
256,192,29680,1,0,0:0:0:0:
256,192,29771,1,8,0:0:0:0:
256,192,29953,1,0,0:0:0:0:
256,192,30135,1,8,0:0:0:0:
256,192,30498,1,0,0:0:0:0:
256,192,30680,1,0,0:0:0:0:
256,192,30862,1,8,0:0:0:0:
256,192,31044,1,0,0:0:0:0:
256,192,31226,1,8,0:0:0:0:
256,192,31589,1,0,0:0:0:0:
256,192,31771,1,8,0:0:0:0:
256,192,31953,1,0,0:0:0:0:
256,192,32135,1,8,0:0:0:0:
256,192,32226,1,8,0:0:0:0:
256,192,32317,1,8,0:0:0:0:
256,192,32680,1,8,0:0:0:0:
256,192,33044,1,8,0:0:0:0:
256,192,33407,1,8,0:0:0:0:
256,192,33589,1,8,0:0:0:0:
256,192,33771,1,0,0:0:0:0:
256,192,35226,1,4,0:0:0:0:
256,192,35589,1,8,0:0:0:0:
256,192,35953,1,0,0:0:0:0:
256,192,36135,1,8,0:0:0:0:
256,192,36317,1,0,0:0:0:0:
256,192,36498,1,8,0:0:0:0:
256,192,36589,1,8,0:0:0:0:
256,192,36680,1,8,0:0:0:0:
256,192,36771,1,8,0:0:0:0:
256,192,36862,1,0,0:0:0:0:
256,192,37044,1,8,0:0:0:0:
256,192,37226,1,0,0:0:0:0:
256,192,37407,1,0,0:0:0:0:
256,192,37589,1,0,0:0:0:0:
256,192,37771,1,8,0:0:0:0:
256,192,37862,1,8,0:0:0:0:
256,192,37953,1,8,0:0:0:0:
256,192,38044,1,8,0:0:0:0:
256,192,38135,1,0,0:0:0:0:
256,192,38317,1,0,0:0:0:0:
256,192,38498,1,8,0:0:0:0:
256,192,38680,1,8,0:0:0:0:
256,192,38862,1,0,0:0:0:0:
256,192,39044,1,0,0:0:0:0:
256,192,39226,1,8,0:0:0:0:
256,192,39407,1,0,0:0:0:0:
256,192,39498,1,0,0:0:0:0:
256,192,39589,1,8,0:0:0:0:
256,192,39680,1,8,0:0:0:0:
256,192,39771,1,0,0:0:0:0:
256,192,39953,1,0,0:0:0:0:
256,192,40135,1,8,0:0:0:0:
256,192,40226,1,8,0:0:0:0:
256,192,40317,1,8,0:0:0:0:
256,192,40498,1,0,0:0:0:0:
256,192,40680,1,8,0:0:0:0:
256,192,40862,1,8,0:0:0:0:
256,192,41044,1,4,0:0:0:0:
256,192,41407,1,8,0:0:0:0:
256,192,41589,1,0,0:0:0:0:
256,192,41771,1,0,0:0:0:0:
256,192,41862,1,0,0:0:0:0:
256,192,41953,1,8,0:0:0:0:
256,192,42135,1,0,0:0:0:0:
256,192,42317,1,8,0:0:0:0:
256,192,42407,1,8,0:0:0:0:
256,192,42498,1,8,0:0:0:0:
256,192,42589,1,8,0:0:0:0:
256,192,42680,1,0,0:0:0:0:
256,192,42862,1,8,0:0:0:0:
256,192,43044,1,0,0:0:0:0:
256,192,43407,1,0,0:0:0:0:
256,192,43498,1,0,0:0:0:0:
256,192,43589,1,8,0:0:0:0:
256,192,43680,1,8,0:0:0:0:
256,192,43771,1,8,0:0:0:0:
256,192,43862,1,8,0:0:0:0:
256,192,43953,1,0,0:0:0:0:
256,192,44135,1,0,0:0:0:0:
256,192,44317,1,8,0:0:0:0:
256,192,44498,1,0,0:0:0:0:
256,192,44862,1,0,0:0:0:0:
256,192,44953,1,0,0:0:0:0:
256,192,45044,1,0,0:0:0:0:
256,192,45226,1,0,0:0:0:0:
256,192,45589,1,0,0:0:0:0:
256,192,45680,1,0,0:0:0:0:
256,192,45771,1,8,0:0:0:0:
256,192,45953,1,0,0:0:0:0:
256,192,46135,1,8,0:0:0:0:
256,192,46317,1,8,0:0:0:0:
256,192,46407,1,8,0:0:0:0:
256,192,46498,1,8,0:0:0:0:
256,192,46680,1,8,0:0:0:0:
256,192,46862,1,4,0:0:0:0:
256,192,47226,1,8,0:0:0:0:
256,192,47589,1,0,0:0:0:0:
256,192,47771,1,8,0:0:0:0:
256,192,47953,1,0,0:0:0:0:
256,192,48135,1,8,0:0:0:0:
256,192,48226,1,8,0:0:0:0:
256,192,48317,1,8,0:0:0:0:
256,192,48407,1,8,0:0:0:0:
256,192,48498,1,0,0:0:0:0:
256,192,48680,1,8,0:0:0:0:
256,192,48862,1,8,0:0:0:0:
256,192,49044,1,0,0:0:0:0:
256,192,49226,1,8,0:0:0:0:
256,192,49407,1,8,0:0:0:0:
256,192,49498,1,8,0:0:0:0:
256,192,49589,1,0,0:0:0:0:
256,192,49680,1,0,0:0:0:0:
256,192,49771,1,8,0:0:0:0:
256,192,49953,1,0,0:0:0:0:
256,192,50135,1,8,0:0:0:0:
256,192,50317,1,8,0:0:0:0:
256,192,50407,1,8,0:0:0:0:
256,192,50498,1,8,0:0:0:0:
256,192,50680,1,0,0:0:0:0:
256,192,50862,1,8,0:0:0:0:
256,192,51044,1,8,0:0:0:0:
256,192,51135,1,8,0:0:0:0:
256,192,51226,1,0,0:0:0:0:
256,192,51407,1,0,0:0:0:0:
256,192,51589,1,8,0:0:0:0:
256,192,51771,1,0,0:0:0:0:
256,192,51953,1,0,0:0:0:0:
256,192,52135,1,0,0:0:0:0:
256,192,52226,1,0,0:0:0:0:
256,192,52317,1,8,0:0:0:0:
256,192,52680,1,12,0:0:0:0:
256,192,52862,1,0,0:0:0:0:
256,192,52953,1,0,0:0:0:0:
256,192,53044,1,0,0:0:0:0:
256,192,53226,1,8,0:0:0:0:
256,192,53407,1,8,0:0:0:0:
256,192,53498,1,8,0:0:0:0:
256,192,53589,1,0,0:0:0:0:
256,192,53771,1,8,0:0:0:0:
256,192,53953,1,0,0:0:0:0:
256,192,54135,1,8,0:0:0:0:
256,192,54317,1,8,0:0:0:0:
256,192,54407,1,8,0:0:0:0:
256,192,54498,1,0,0:0:0:0:
256,192,54680,1,8,0:0:0:0:
256,192,54862,1,0,0:0:0:0:
256,192,54953,1,0,0:0:0:0:
256,192,55044,1,8,0:0:0:0:
256,192,55135,1,8,0:0:0:0:
256,192,55226,1,8,0:0:0:0:
256,192,55407,1,0,0:0:0:0:
256,192,55589,1,8,0:0:0:0:
256,192,55771,1,0,0:0:0:0:
256,192,55862,1,0,0:0:0:0:
256,192,55953,1,8,0:0:0:0:
256,192,56135,1,0,0:0:0:0:
256,192,56317,1,8,0:0:0:0:
256,192,56407,1,8,0:0:0:0:
256,192,56498,1,8,0:0:0:0:
256,192,56589,1,8,0:0:0:0:
256,192,56680,1,0,0:0:0:0:
256,192,56771,1,0,0:0:0:0:
256,192,56862,1,0,0:0:0:0:
256,192,56953,1,0,0:0:0:0:
256,192,57044,1,8,0:0:0:0:
256,192,58498,1,8,0:0:0:0:
256,192,58862,1,8,0:0:0:0:
256,192,59226,1,8,0:0:0:0:
256,192,59317,1,8,0:0:0:0:
256,192,59407,1,8,0:0:0:0:
256,192,59498,1,8,0:0:0:0:
256,192,59589,1,0,0:0:0:0:
256,192,59771,1,8,0:0:0:0:
256,192,60135,1,8,0:0:0:0:
256,192,60317,1,0,0:0:0:0:
256,192,60680,1,0,0:0:0:0:
256,192,60771,1,0,0:0:0:0:
256,192,60862,1,0,0:0:0:0:
256,192,60953,1,0,0:0:0:0:
256,192,61044,1,8,0:0:0:0:
256,192,61407,1,8,0:0:0:0:
256,192,61771,1,8,0:0:0:0:
256,192,62135,1,8,0:0:0:0:
256,192,62226,1,8,0:0:0:0:
256,192,62317,1,0,0:0:0:0:
256,192,62407,1,0,0:0:0:0:
256,192,62498,1,0,0:0:0:0:
256,192,62680,1,12,0:0:0:0:
