osu file format v14

[General]
AudioFilename: audio.mp3
AudioLeadIn: 0
PreviewTime: 33680
Countdown: 0
SampleSet: Normal
StackLeniency: 0.7
Mode: 1
LetterboxInBreaks: 0
WidescreenStoryboard: 1

[Editor]
DistanceSpacing: 0.7
BeatDivisor: 4
GridSize: 32
TimelineZoom: 1

[Metadata]
Title:20/20
TitleUnicode:20/20
Artist:ONE OK ROCK
ArtistUnicode:ONE OK ROCK
Creator:Naotoshi
Version:Futsuu
Source:
Tags:cut version cuz im lazy
BeatmapID:1452790
BeatmapSetID:686268

[Difficulty]
HPDrainRate:7
CircleSize:3
OverallDifficulty:3
ApproachRate:6
SliderMultiplier:1.4
SliderTickRate:1

[Events]
//Background and Video events
0,0,"545701.jpg",0,0
//Break Periods
//Storyboard Layer 0 (Background)
//Storyboard Layer 1 (Fail)
//Storyboard Layer 2 (Pass)
//Storyboard Layer 3 (Foreground)
//Storyboard Sound Samples

[TimingPoints]
317,363.636363636364,4,1,0,49,1,0

[HitObjects]
256,192,317,5,0,0:0:0:0:
256,192,1044,1,8,0:0:0:0:
256,192,1771,1,0,0:0:0:0:
256,192,2498,1,8,0:0:0:0:
256,192,3226,1,0,0:0:0:0:
256,192,3953,1,8,0:0:0:0:
256,192,4680,1,0,0:0:0:0:
256,192,5226,1,8,0:0:0:0:
256,192,5771,1,0,0:0:0:0:
256,192,6135,1,0,0:0:0:0:
256,192,6862,1,8,0:0:0:0:
256,192,7589,1,0,0:0:0:0:
256,192,8317,1,8,0:0:0:0:
256,192,9044,1,0,0:0:0:0:
256,192,9771,1,8,0:0:0:0:
256,192,10498,1,0,0:0:0:0:
256,192,11044,1,8,0:0:0:0:
256,192,11953,1,0,0:0:0:0:
256,192,12680,1,8,0:0:0:0:
256,192,13407,1,0,0:0:0:0:
256,192,14135,1,8,0:0:0:0:
256,192,14862,1,0,0:0:0:0:
256,192,15589,1,8,0:0:0:0:
256,192,16316,1,0,0:0:0:0:
256,192,16862,1,8,0:0:0:0:
256,192,17953,1,4,0:0:0:0:
256,192,18498,1,8,0:0:0:0:
256,192,18862,1,8,0:0:0:0:
256,192,19226,1,8,0:0:0:0:
256,192,19771,1,0,0:0:0:0:
256,192,20135,1,8,0:0:0:0:
256,192,20680,1,0,0:0:0:0:
256,192,21044,1,0,0:0:0:0:
256,192,21771,1,8,0:0:0:0:
256,192,22135,1,0,0:0:0:0:
256,192,22680,1,0,0:0:0:0:
256,192,23044,1,8,0:0:0:0:
256,192,23407,1,8,0:0:0:0:
256,192,23771,1,0,0:0:0:0:
256,192,24317,1,8,0:0:0:0:
256,192,24680,1,8,0:0:0:0:
256,192,25044,1,0,0:0:0:0:
256,192,25771,1,8,0:0:0:0:
256,192,26135,1,8,0:0:0:0:
256,192,26498,1,0,0:0:0:0:
256,192,27226,1,8,0:0:0:0:
256,192,27589,1,0,0:0:0:0:
256,192,27953,1,0,0:0:0:0:
256,192,28317,1,8,0:0:0:0:
256,192,28680,1,0,0:0:0:0:
256,192,28862,1,8,0:0:0:0:
256,192,29226,1,4,0:0:0:0:
256,192,29771,1,8,0:0:0:0:
256,192,30135,1,8,0:0:0:0:
256,192,30317,1,0,0:0:0:0:
256,192,30862,1,8,0:0:0:0:
256,192,31226,1,8,0:0:0:0:
256,192,31771,1,0,0:0:0:0:
256,192,32135,1,0,0:0:0:0:
256,192,32317,1,8,0:0:0:0:
256,192,33044,1,8,0:0:0:0:
256,192,33407,1,8,0:0:0:0:
256,192,33589,1,0,0:0:0:0:
256,192,35226,1,4,0:0:0:0:
256,192,35589,1,8,0:0:0:0:
256,192,35953,1,0,0:0:0:0:
256,192,36317,1,0,0:0:0:0:
256,192,36498,1,8,0:0:0:0:
256,192,37407,1,8,0:0:0:0:
256,192,37771,1,0,0:0:0:0:
256,192,38135,1,8,0:0:0:0:
256,192,38498,1,0,0:0:0:0:
256,192,39226,1,8,0:0:0:0:
256,192,39589,1,0,0:0:0:0:
256,192,39953,1,0,0:0:0:0:
256,192,40135,1,8,0:0:0:0:
256,192,40498,1,8,0:0:0:0:
256,192,41044,1,4,0:0:0:0:
256,192,41771,1,0,0:0:0:0:
256,192,41953,1,8,0:0:0:0:
256,192,42317,1,8,0:0:0:0:
256,192,42862,1,0,0:0:0:0:
256,192,43226,1,0,0:0:0:0:
256,192,43589,1,8,0:0:0:0:
256,192,43953,1,0,0:0:0:0:
256,192,44498,1,0,0:0:0:0:
256,192,44862,1,8,0:0:0:0:
256,192,45226,1,0,0:0:0:0:
256,192,45771,1,8,0:0:0:0:
256,192,46135,1,8,0:0:0:0:
256,192,46317,1,8,0:0:0:0:
256,192,46498,1,8,0:0:0:0:
256,192,46862,1,4,0:0:0:0:
256,192,47589,1,0,0:0:0:0:
256,192,47771,1,8,0:0:0:0:
256,192,48135,1,12,0:0:0:0:
256,192,48498,1,8,0:0:0:0:
256,192,48680,1,0,0:0:0:0:
256,192,49407,1,8,0:0:0:0:
256,192,49771,1,0,0:0:0:0:
256,192,50317,1,0,0:0:0:0:
256,192,50680,1,8,0:0:0:0:
256,192,50862,1,8,0:0:0:0:
256,192,51226,1,0,0:0:0:0:
256,192,51589,1,8,0:0:0:0:
256,192,51771,1,0,0:0:0:0:
256,192,52317,1,8,0:0:0:0:
256,192,52680,5,0,0:0:0:0:
256,192,53226,1,0,0:0:0:0:
256,192,53771,1,8,0:0:0:0:
256,192,54135,1,8,0:0:0:0:
256,192,54680,1,0,0:0:0:0:
256,192,55226,1,8,0:0:0:0:
256,192,55589,1,0,0:0:0:0:
256,192,55953,1,8,0:0:0:0:
256,192,56317,1,8,0:0:0:0:
256,192,56680,1,0,0:0:0:0:
256,192,57044,1,12,0:0:0:0:
256,192,58498,1,0,0:0:0:0:
256,192,58862,1,0,0:0:0:0:
256,192,59226,1,0,0:0:0:0:
256,192,59407,1,0,0:0:0:0:
256,192,59771,1,8,0:0:0:0:
256,192,60135,1,8,0:0:0:0:
256,192,60680,1,0,0:0:0:0:
256,192,61044,1,8,0:0:0:0:
256,192,61407,1,0,0:0:0:0:
256,192,61771,1,0,0:0:0:0:
256,192,62135,1,0,0:0:0:0:
256,192,62317,1,0,0:0:0:0:
256,192,62680,1,12,0:0:0:0:
