osu file format v14

[General]
AudioFilename: audio.ogg
AudioLeadIn: 0
PreviewTime: 35021
Countdown: 0
SampleSet: Soft
StackLeniency: 0.7
Mode: 0
LetterboxInBreaks: 0
WidescreenStoryboard: 1

[Editor]
DistanceSpacing: 1
BeatDivisor: 4
GridSize: 4
TimelineZoom: 1.8

[Metadata]
Title:20/20 (Cut Ver.)
TitleUnicode:20/20 (Cut Ver.)
Artist:ONE OK ROCK
ArtistUnicode:ONE OK ROCK
Creator:Kuki1537
Version:Normal
Source:
Tags:Fueled by Ramen OOR Ambitions Short A-Sketch Japanese ver. english rock j-rock jrock male vocalist vocal version 2020 20 / MajK00
BeatmapID:4423834
BeatmapSetID:2107946

[Difficulty]
HPDrainRate:3
CircleSize:3.4
OverallDifficulty:4
ApproachRate:5.5
SliderMultiplier:1.1
SliderTickRate:1

[Events]
//Background and Video events
0,0,"bg.jpg",0,0
//Break Periods
//Storyboard Layer 0 (Background)
//Storyboard Layer 1 (Fail)
//Storyboard Layer 2 (Pass)
//Storyboard Layer 3 (Foreground)
//Storyboard Layer 4 (Overlay)
//Storyboard Sound Samples

[TimingPoints]
294,363.636363636364,4,2,0,30,1,0
294,-125,4,2,0,30,0,0
6112,-125,4,2,0,35,0,0
17930,-100,4,2,1,45,0,0
29203,-100,4,2,1,60,0,0
32294,-100,4,2,2,40,0,0
35203,-100,4,2,1,70,0,0
43930,-100,4,2,1,65,0,0
46839,-100,4,2,1,70,0,0
57021,-100,4,2,1,60,0,0
58475,-100,4,2,1,55,0,0
62112,-100,4,2,1,65,0,0
62748,-100,4,2,1,30,0,0

[Colours]
Combo1 : 255,85,43
Combo2 : 255,252,121
Combo3 : 255,211,79
Combo4 : 255,170,43
Combo5 : 255,112,43

[HitObjects]
12,42,294,6,0,P|51:30|116:28,1,88,2|0,3:2|0:0,0:0:0:0:
175,67,1021,2,0,P|218:63|260:51,1,88,10|0,0:0|0:0,0:0:0:0:
309,124,1748,2,0,P|334:171|334:224,1,88,2|2,0:0|0:0,0:0:0:0:
303,233,2294,2,0,P|280:270|275:313,1,88,2|2,0:0|0:0,0:0:0:0:
302,348,2839,1,2,0:0:0:0:
387,369,3203,6,0,L|480:349,1,88,2|0,3:2|0:0,0:0:0:0:
509,270,3930,2,0,L|416:250,1,88,2|0,3:2|0:0,0:0:0:0:
366,184,4657,2,0,B|346:121|346:121|391:65,2,132,2|2|2,0:0|0:0|0:0,0:0:0:0:
299,254,6112,5,2,3:2:0:0:
230,186,6475,1,2,0:0:0:0:
150,241,6839,2,0,P|106:243|62:223,1,88,10|2,0:0|0:0,0:0:0:0:
37,194,7384,1,2,3:2:0:0:
37,194,7566,2,0,L|58:95,1,88,2|2,3:2|0:0,0:0:0:0:
105,24,8294,2,0,L|21:10,2,66,10|2|2,0:0|0:0|0:0,0:0:0:0:
200,42,9203,6,0,P|225:80|230:142,1,88,2|2,0:0|3:2,0:0:0:0:
290,199,9930,1,2,3:2:0:0:
209,250,10294,2,0,P|192:277|199:341,1,88,2|0,3:2|0:0,0:0:0:0:
234,367,10839,1,2,0:0:0:0:
234,367,11021,2,0,L|328:348,1,88,2|2,0:0|0:0,0:0:0:0:
462,321,11930,5,0,3:0:0:0:
503,233,12294,2,0,P|508:193|488:144,1,88,2|10,0:0|0:0,0:0:0:0:
421,82,13021,2,0,L|368:95,1,44,2|0,0:0|3:0,0:0:0:0:
334,71,13384,2,0,L|281:84,1,44,2|2,0:0|0:0,0:0:0:0:
247,61,13748,2,0,P|212:45|154:54,1,88,2|10,0:0|0:0,0:0:0:0:
125,80,14294,1,2,0:0:0:0:
35,42,14657,1,2,0:0:0:0:
0,132,15021,6,0,L|20:224,1,88,2|2,0:0|3:2,0:0:0:0:
86,287,15748,1,2,0:0:0:0:
152,216,16112,2,0,L|170:130,1,88,2|2,0:0|0:0,0:0:0:0:
247,71,16839,2,0,B|341:52|325:122|417:99,1,176,2|0,3:2|3:0,0:0:0:0:
504,172,17930,5,4,1:2:0:0:
504,172,18112,2,0,L|487:243,1,55,10|2,0:0|1:2,0:0:0:0:
450,253,18475,2,0,P|407:247|341:277,1,110,2|10,1:2|0:0,0:0:0:0:
281,346,19203,1,2,1:2:0:0:
281,346,19384,1,2,1:2:0:0:
205,282,19748,2,0,L|226:174,2,110,2|2|8,0:0|1:2|0:3,0:0:0:0:
130,346,20839,5,2,1:2:0:0:
40,303,21203,1,2,1:2:0:0:
59,206,21566,1,2,1:2:0:0:
156,189,21930,2,0,P|175:157|173:80,1,110,2|4,0:0|0:3,0:0:0:0:
207,49,22475,1,10,0:0:0:0:
207,49,22657,1,2,1:2:0:0:
289,103,23021,2,0,L|277:162,2,55,10|8|8,0:0|0:0|0:0,0:0:0:0:
379,58,23748,5,4,1:2:0:0:
379,58,23930,2,0,L|438:43,1,55,10|2,0:0|1:2,0:0:0:0:
476,66,24294,2,0,P|499:95|497:174,1,110,2|10,1:2|0:0,0:0:0:0:
444,247,25021,2,0,L|391:234,1,55,2|6,0:0|0:3,0:0:0:0:
354,268,25384,2,0,L|301:281,1,55,10|2,0:0|0:0,0:0:0:0:
259,253,25748,2,0,P|226:223|159:219,1,110,2|8,1:2|0:0,0:0:0:0:
120,192,26294,1,8,0:3:0:0:
28,230,26657,5,2,1:2:0:0:
38,328,27021,1,2,1:2:0:0:
133,353,27384,1,2,1:2:0:0:
197,277,27748,2,0,L|310:299,1,110,2|8,0:0|0:3,0:0:0:0:
349,273,28294,1,8,0:0:0:0:
349,273,28475,1,0,1:0:0:0:
431,328,28839,2,0,P|459:323|487:306,1,55,8|8,0:0|0:0,0:0:0:0:
508,268,29203,6,0,L|486:157,1,110,6|0,1:0|1:0,0:0:0:0:
503,113,29748,1,8,0:0:0:0:
453,27,30112,2,0,P|411:14|337:14,1,110,10|0,0:1|0:0,0:0:0:0:
253,48,30839,5,10,0:1:0:0:
310,128,31203,2,0,P|314:167|296:242,1,110,8|2,0:0|0:1,0:0:0:0:
260,267,31748,1,8,0:0:0:0:
173,219,32112,1,10,0:1:0:0:
256,192,32294,12,0,33748,0:0:0:0:
25,145,35203,6,0,P|67:151|137:110,1,110,6|8,1:2|0:0,0:0:0:0:
196,37,35930,2,0,L|255:51,1,55,2|8,1:2|0:0,0:0:0:0:
302,27,36294,1,6,0:3:0:0:
302,27,36475,2,0,L|322:143,1,110,6|0,1:2|1:0,0:0:0:0:
287,179,37021,1,8,0:0:0:0:
202,247,37384,1,0,1:0:0:0:
202,247,37566,2,0,L|192:305,1,55,2|8,1:2|0:0,0:0:0:0:
166,350,37930,6,0,L|294:328,1,110,10|2,0:0|1:2,0:0:0:0:
359,260,38657,1,2,1:2:0:0:
460,303,39021,1,2,1:2:0:0:
509,204,39384,6,0,P|506:136|483:91,1,110,2|0,1:2|1:0,0:0:0:0:
445,73,39930,1,10,0:0:0:0:
445,73,40112,2,0,P|396:69|333:50,1,110,2|2,1:2|1:2,0:0:0:0:
283,46,40657,1,8,0:0:0:0:
221,136,41021,6,0,P|248:179|244:249,1,110,6|8,1:2|0:0,0:0:0:0:
310,327,41748,2,0,L|248:342,1,55,0|8,1:0|0:0,0:0:0:0:
214,374,42112,1,6,0:3:0:0:
214,374,42294,2,0,P|178:343|105:340,1,110,6|0,1:2|1:0,0:0:0:0:
72,304,42839,1,8,0:0:0:0:
93,199,43203,1,0,1:0:0:0:
93,199,43384,2,0,L|104:142,1,55,2|8,1:2|0:0,0:0:0:0:
67,103,43748,6,0,P|114:94|177:70,1,110,10|4,0:0|0:3,0:0:0:0:
209,31,44294,2,0,P|256:40|319:64,1,110,8|0,0:0|1:0,0:0:0:0:
354,99,44839,1,6,0:3:0:0:
274,175,45203,2,0,P|255:213|247:286,1,110,10|4,0:3|0:3,0:0:0:0:
219,327,45748,1,8,0:0:0:0:
319,372,46112,2,0,L|381:357,1,55,8|8,0:0|0:0,0:0:0:0:
399,311,46475,2,0,L|461:326,1,55,10|8,0:0|0:0,0:0:0:0:
495,288,46839,6,0,P|509:245|482:178,1,110,6|8,1:2|0:0,0:0:0:0:
409,109,47566,2,0,L|422:56,1,55,2|8,1:2|0:0,0:0:0:0:
446,7,47930,1,10,0:3:0:0:
446,7,48112,2,0,P|412:20|316:31,1,110,6|0,1:2|1:0,0:0:0:0:
293,61,48657,1,10,0:0:0:0:
193,26,49021,1,0,1:0:0:0:
193,26,49203,2,0,L|177:98,1,55,6|8,0:3|0:0,0:0:0:0:
194,133,49566,6,0,P|143:122|71:123,2,110,10|2|2,0:0|1:2|1:2,0:0:0:0:
251,227,50657,1,2,1:2:0:0:
306,322,51021,2,0,P|357:333|429:332,1,110,2|2,1:2|1:2,0:0:0:0:
460,302,51566,1,8,0:0:0:0:
460,302,51748,2,0,L|441:188,1,110,2|2,1:2|1:2,0:0:0:0:
464,143,52294,1,8,0:0:0:0:
424,40,52657,6,0,P|376:30|313:66,1,110,14|0,0:0|1:0,0:0:0:0:
274,82,53203,2,0,P|226:92|163:56,1,110,8|0,0:0|1:0,0:0:0:0:
136,25,53748,1,8,0:0:0:0:
39,77,54112,2,0,L|61:192,1,110,14|0,0:0|1:0,0:0:0:0:
109,209,54657,2,0,L|88:317,1,110,8|0,0:0|1:0,0:0:0:0:
122,360,55203,1,8,0:0:0:0:
203,285,55566,6,0,P|234:271|273:269,1,55,14|4,0:0|1:3,0:0:0:0:
292,227,55930,2,0,P|318:231|343:244,1,55,8|4,0:0|1:3,0:0:0:0:
393,219,56294,2,0,L|416:345,1,110,8|8,0:0|0:3,0:0:0:0:
511,375,57021,1,10,0:0:0:0:
463,78,58475,5,10,0:1:0:0:
392,148,58839,1,10,0:1:0:0:
310,91,59203,2,0,P|271:79|195:109,1,110,10|2,0:1|1:0,0:0:0:0:
175,137,59748,1,10,0:1:0:0:
235,215,60112,2,0,P|246:261|251:334,1,110,8|0,0:1|0:0,0:0:0:0:
213,355,60657,2,0,P|158:368|107:337,1,110,10|2,0:1|1:1,0:0:0:0:
36,280,61384,5,10,0:1:0:0:
58,183,61748,1,10,0:1:0:0:
147,140,62112,2,0,L|264:165,1,110,10|10,0:1|0:1,0:0:0:0:
297,139,62657,1,6,1:2:0:0:
256,192,62839,12,0,64475,0:0:0:0:
