osu file format v14

[General]
AudioFilename: audio.ogg
AudioLeadIn: 0
PreviewTime: 35021
Countdown: 0
SampleSet: Soft
StackLeniency: 0.7
Mode: 0
LetterboxInBreaks: 0
WidescreenStoryboard: 1

[Editor]
DistanceSpacing: 0.7
BeatDivisor: 4
GridSize: 4
TimelineZoom: 1.8

[Metadata]
Title:20/20 (Cut Ver.)
TitleUnicode:20/20 (Cut Ver.)
Artist:ONE OK ROCK
ArtistUnicode:ONE OK ROCK
Creator:Kuki1537
Version:Insane
Source:
Tags:Fueled by Ramen OOR Ambitions Short A-Sketch Japanese ver. english rock j-rock jrock male vocalist vocal version 2020 20 / MajK00
BeatmapID:4423833
BeatmapSetID:2107946

[Difficulty]
HPDrainRate:5
CircleSize:3.8
OverallDifficulty:8.2
ApproachRate:8.8
SliderMultiplier:1.8
SliderTickRate:1

[Events]
//Background and Video events
0,0,"bg.jpg",0,0
//Break Periods
//Storyboard Layer 0 (Background)
//Storyboard Layer 1 (Fail)
//Storyboard Layer 2 (Pass)
//Storyboard Layer 3 (Foreground)
//Storyboard Layer 4 (Overlay)
//Storyboard Sound Samples

[TimingPoints]
294,363.636363636364,4,2,0,30,1,0
294,-200,4,2,0,30,0,0
6112,-181.818181818181,4,2,0,35,0,0
17930,-117.647058823529,4,2,1,45,0,0
29203,-133.333333333333,4,2,1,60,0,0
32294,-133.333333333333,4,2,2,40,0,0
35203,-100,4,2,1,70,0,0
43930,-100,4,2,1,65,0,0
46839,-100,4,2,1,70,0,0
57021,-100,4,2,1,60,0,0
58475,-111.111111111111,4,2,1,55,0,0
62112,-111.111111111111,4,2,1,65,0,0
62748,-111.111111111111,4,2,1,30,0,0

[Colours]
Combo1 : 255,85,43
Combo2 : 255,252,121
Combo3 : 255,211,79
Combo4 : 255,170,43
Combo5 : 255,112,43

[HitObjects]
24,333,294,5,2,3:2:0:0:
24,333,475,2,0,P|60:328|127:308,1,90,2|2,3:2|3:2,0:0:0:0:
189,357,1021,1,10,0:0:0:0:
240,279,1203,2,0,P|227:235|220:191,1,90,2|2,3:2|3:2,0:0:0:0:
207,110,1748,2,0,L|160:100,2,45,2|2|2,0:0|0:0|0:0,0:0:0:0:
287,139,2294,2,0,L|391:115,1,90,2|2,0:0|0:0,0:0:0:0:
432,51,2839,1,2,0:0:0:0:
501,112,3021,1,2,0:0:0:0:
443,177,3203,5,2,3:2:0:0:
443,177,3384,2,0,P|421:216|429:272,1,90,2|2,3:2|3:2,0:0:0:0:
463,343,3930,1,2,3:2:0:0:
368,325,4112,2,0,L|265:305,1,90,2|2,3:2|0:0,0:0:0:0:
269,298,4566,1,2,0:0:0:0:
269,298,4657,2,0,P|273:269|282:252,2,45,2|2|2,0:0|0:0|0:0,0:0:0:0:
195,343,5203,2,0,P|174:312|166:243,1,90,2|2,0:0|0:0,0:0:0:0:
184,177,5748,1,2,0:0:0:0:
56,17,6112,6,0,L|1:30,1,49.5000015106202,2|0,3:2|0:0,0:0:0:0:
94,92,6475,2,0,P|126:104|154:102,1,49.5000015106202,2|0,0:0|3:0,0:0:0:0:
211,52,6839,2,0,P|239:27|315:28,1,99.0000030212403,10|2,0:0|0:0,0:0:0:0:
368,84,7384,1,2,3:2:0:0:
368,84,7566,2,0,L|345:194,1,99.0000030212403,2|2,3:2|0:0,0:0:0:0:
415,251,8112,1,2,0:0:0:0:
415,251,8294,2,0,L|501:231,2,74.2500022659302,10|2|2,0:0|0:0|0:0,0:0:0:0:
290,376,9203,6,0,L|280:325,1,49.5000015106202,2|0,0:0|0:0,0:0:0:0:
329,252,9566,2,0,L|319:201,1,49.5000015106202,2|8,3:2|0:0,0:0:0:0:
190,153,9930,2,0,P|216:161|243:161,1,49.5000015106202,2|0,3:2|0:0,0:0:0:0:
330,84,10294,2,0,P|291:72|222:73,1,99.0000030212403,2|0,3:2|0:0,0:0:0:0:
146,48,10839,1,2,0:0:0:0:
146,48,11021,2,0,L|157:-5,1,49.5000015106202,2|8,0:0|0:0,0:0:0:0:
66,90,11384,2,0,L|87:192,1,99.0000030212403,2|0,0:0|0:0,0:0:0:0:
102,283,11930,6,0,P|73:271|43:271,1,49.5000015106202,0|0,3:0|0:0,0:0:0:0:
185,246,12294,2,0,P|209:226|224:200,1,49.5000015106202,2|0,0:0|3:0,0:0:0:0:
176,336,12657,2,0,P|180:367|195:393,1,49.5000015106202,10|0,0:0|0:0,0:0:0:0:
313,345,13021,2,0,L|262:335,1,49.5000015106202,2|0,0:0|3:0,0:0:0:0:
349,269,13384,2,0,L|397:278,1,49.5000015106202,2|2,0:0|0:0,0:0:0:0:
468,340,13748,1,2,0:0:0:0:
512,261,13930,1,2,0:0:0:0:
449,200,14112,1,10,0:0:0:0:
449,200,14294,2,0,P|434:159|452:103,1,99.0000030212403,2|2,0:0|0:0,0:0:0:0:
275,0,15021,6,0,L|287:56,1,49.5000015106202,2|0,0:0|0:0,0:0:0:0:
350,103,15384,2,0,L|338:159,1,49.5000015106202,2|8,3:2|0:0,0:0:0:0:
260,193,15748,2,0,P|231:191|205:172,1,49.5000015106202,2|0,0:0|0:0,0:0:0:0:
139,74,16112,6,0,P|136:125|121:188,1,99.0000030212403,2|2,0:0|0:0,0:0:0:0:
0,317,16839,2,0,P|3:266|18:203,2,99.0000030212403,2|2|0,3:2|0:0|3:0,0:0:0:0:
342,370,17930,5,4,1:2:0:0:
220,268,18112,2,0,L|142:251,1,76.5000014591217,10|2,0:0|1:2,0:0:0:0:
214,353,18475,1,2,1:2:0:0:
296,221,18657,1,2,1:2:0:0:
349,366,18839,2,0,P|392:381|432:374,1,76.5000014591217,10|2,0:0|0:0,0:0:0:0:
512,220,19203,5,2,1:2:0:0:
398,293,19384,2,0,L|383:210,1,76.5000014591217,2|8,1:2|0:0,0:0:0:0:
490,116,19748,2,0,P|458:130|414:131,1,76.5000014591217,2|0,0:0|1:0,0:0:0:0:
251,82,20112,2,0,P|286:67|324:66,1,76.5000014591217,2|8,1:2|0:0,0:0:0:0:
296,221,20475,1,8,0:3:0:0:
296,221,20566,1,4,0:3:0:0:
296,221,20657,1,0,1:0:0:0:
172,120,20839,6,0,L|157:202,1,76.5000014591217,2|8,1:2|0:0,0:0:0:0:
26,77,21203,2,0,L|11:-5,1,76.5000014591217,2|0,1:2|1:0,0:0:0:0:
72,199,21566,2,0,P|32:214|-6:209,1,76.5000014591217,2|8,1:2|0:0,0:0:0:0:
125,44,21930,6,0,B|176:21|176:21|221:54|280:41,1,153.000002918243,2|4,0:0|0:3,0:0:0:0:
364,163,22475,1,10,0:0:0:0:
364,0,22657,2,0,L|351:78,1,76.5000014591217,2|0,1:2|1:0,0:0:0:0:
307,240,23021,5,10,0:0:0:0:
448,124,23203,1,8,0:0:0:0:
275,145,23384,1,8,0:0:0:0:
275,145,23748,5,4,1:2:0:0:
397,220,23930,2,0,P|398:263|378:302,1,76.5000014591217,10|2,0:0|1:2,0:0:0:0:
269,370,24294,2,0,B|321:360|321:360|365:381|365:381|436:368,1,153.000002918243,2|10,1:2|0:0,0:0:0:0:
512,213,24839,1,2,0:0:0:0:
384,293,25021,6,0,L|306:277,1,76.5000014591217,2|6,0:0|0:3,0:0:0:0:
185,145,25384,1,10,0:0:0:0:
326,192,25566,1,2,0:0:0:0:
196,259,25748,1,2,1:2:0:0:
275,116,25930,2,0,P|288:79|282:40,1,76.5000014591217,2|8,1:2|0:0,0:0:0:0:
185,145,26294,5,8,0:3:0:0:
185,145,26384,1,4,0:3:0:0:
185,145,26475,1,0,1:0:0:0:
326,192,26657,2,0,L|404:210,1,76.5000014591217,2|8,1:2|0:0,0:0:0:0:
196,259,27021,2,0,L|118:277,1,76.5000014591217,2|0,1:2|1:0,0:0:0:0:
290,351,27384,2,0,P|299:313|291:274,1,76.5000014591217,2|8,1:2|0:0,0:0:0:0:
185,145,27748,6,0,P|176:107|184:68,1,76.5000014591217,2|0,0:0|1:0,0:0:0:0:
333,184,28112,1,8,0:3:0:0:
187,252,28294,1,8,0:0:0:0:
270,93,28475,1,0,1:0:0:0:
359,293,28657,1,0,1:0:0:0:
179,150,28839,5,8,0:0:0:0:
397,102,29021,1,8,0:0:0:0:
261,314,29203,6,0,P|206:345|129:329,1,135.000005149842,6|0,1:0|1:0,0:0:0:0:
24,319,29748,2,0,L|8:388,1,67.5000025749208,8|0,0:0|1:0,0:0:0:0:
144,329,30112,2,0,L|114:184,1,135.000005149842,10|0,0:1|0:0,0:0:0:0:
94,102,30657,1,0,1:0:0:0:
204,209,30839,6,0,P|200:166|176:135,1,67.5000025749208,10|0,0:1|1:0,0:0:0:0:
64,13,31203,2,0,P|114:61|201:48,1,135.000005149842,8|2,0:0|0:1,0:0:0:0:
284,0,31748,2,0,L|268:70,1,67.5000025749208,8|2,0:0|0:1,0:0:0:0:
312,192,32112,1,10,0:1:0:0:
416,143,32294,6,0,P|427:110|426:70,1,67.5000025749208,10|0,1:2|0:0,0:0:0:0:
502,183,32657,2,0,P|491:216|492:256,1,67.5000025749208,10|0,1:2|0:0,0:0:0:0:
323,257,33021,6,0,P|312:224|313:184,1,67.5000025749208,10|0,1:2|0:0,0:0:0:0:
237,297,33384,2,0,P|248:330|247:370,1,67.5000025749208,10|0,1:2|0:0,0:0:0:0:
256,192,33748,12,0,35021,0:0:0:0:
154,40,35203,6,0,B|89:20|89:20|116:145,1,180,6|8,1:2|0:0,0:0:0:0:
139,247,35748,1,0,1:0:0:0:
213,107,35930,1,2,1:2:0:0:
42,198,36112,1,8,0:0:0:0:
238,263,36294,1,6,0:3:0:0:
46,333,36475,6,0,B|144:310|121:381|222:357,1,180,6|0,1:2|1:0,0:0:0:0:
355,194,37021,2,0,P|310:176|263:182,1,90,8|0,0:0|1:0,0:0:0:0:
343,368,37384,1,0,1:0:0:0:
445,212,37566,1,2,1:2:0:0:
306,272,37748,1,8,0:0:0:0:
306,272,37839,1,8,0:0:0:0:
306,272,37930,2,0,L|367:284,1,45,10|8,0:0|0:0,0:0:0:0:
492,367,38112,5,4,1:2:0:0:
452,206,38294,2,0,L|471:112,1,90,2|8,1:2|0:0,0:0:0:0:
276,161,38657,2,0,P|326:181|366:176,1,90,2|0,1:2|1:0,0:0:0:0:
455,30,39021,2,0,P|414:10|370:12,1,90,2|8,1:2|0:0,0:0:0:0:
213,231,39384,6,0,B|161:185|161:185|211:75,1,180,2|0,1:2|1:0,0:0:0:0:
373,174,39930,5,10,0:0:0:0:
203,318,40112,1,2,1:2:0:0:
302,104,40294,5,8,0:0:0:0:
376,317,40475,1,2,1:2:0:0:
197,164,40657,5,8,0:0:0:0:
434,246,40839,1,4,0:3:0:0:
173,332,41021,6,0,B|119:312|119:312|63:351|1:337,1,180,6|8,1:2|0:0,0:0:0:0:
84,161,41566,1,0,1:0:0:0:
238,264,41748,1,0,1:0:0:0:
18,247,41930,1,8,0:0:0:0:
196,137,42112,1,6,0:3:0:0:
122,384,42294,6,0,P|103:332|159:222,1,180,6|0,1:2|1:0,0:0:0:0:
379,155,42839,2,0,L|288:137,1,90,8|0,0:0|1:0,0:0:0:0:
138,79,43203,1,0,1:0:0:0:
244,219,43384,1,2,1:2:0:0:
312,42,43566,1,8,0:0:0:0:
312,42,43657,1,8,0:0:0:0:
312,42,43748,2,0,L|261:54,1,45,10|8,0:0|0:0,0:0:0:0:
88,150,43930,6,0,L|0:132,1,90,6|4,1:2|0:3,0:0:0:0:
195,0,44294,1,8,0:0:0:0:
178,170,44475,1,8,0:3:0:0:
58,57,44657,1,0,1:0:0:0:
100,232,44839,1,6,0:3:0:0:
157,80,45021,1,8,0:0:0:0:
233,242,45203,6,0,P|273:258|326:249,1,90,10|0,0:3|1:0,0:0:0:0:
454,83,45566,1,4,0:3:0:0:
280,168,45748,1,8,0:0:0:0:
483,186,45930,1,8,0:3:0:0:
285,44,46112,5,8,0:0:0:0:
325,259,46294,1,8,0:0:0:0:
461,77,46475,1,10,0:0:0:0:
407,305,46657,1,8,0:0:0:0:
259,132,46839,6,0,B|193:169|193:169|226:285,1,180,6|8,1:2|0:0,0:0:0:0:
319,378,47384,1,0,0:0:0:0:
369,188,47566,1,2,1:2:0:0:
216,276,47748,1,8,0:0:0:0:
438,341,47930,1,10,0:3:0:0:
254,185,48112,6,0,B|193:173|193:173|145:204|145:204|67:191,1,180,6|0,1:2|1:0,0:0:0:0:
105,376,48657,2,0,P|125:328|119:280,1,90,10|0,0:0|1:0,0:0:0:0:
20,126,49021,1,0,1:0:0:0:
174,214,49203,1,6,0:3:0:0:
27,310,49384,1,8,0:0:0:0:
27,310,49475,1,8,0:0:0:0:
27,310,49566,2,0,L|37:259,1,45,10|8,0:0|0:0,0:0:0:0:
121,111,49748,5,0,1:0:0:0:
213,289,49930,2,0,P|263:294|310:268,1,90,2|8,1:2|0:0,0:0:0:0:
226,44,50294,2,0,L|208:134,1,90,2|0,1:2|1:0,0:0:0:0:
389,270,50657,2,0,L|371:180,1,90,2|8,1:2|0:0,0:0:0:0:
475,20,51021,6,0,P|495:66|488:114,1,90,2|4,1:2|1:2,0:0:0:0:
284,191,51384,1,2,1:2:0:0:
481,288,51566,1,8,0:0:0:0:
397,96,51748,6,0,P|348:87|300:83,1,90,2|8,1:2|0:0,0:0:0:0:
221,263,52112,1,2,1:2:0:0:
160,47,52294,2,0,P|164:91|172:135,1,90,8|0,0:0|1:0,0:0:0:0:
159,336,52657,5,14,0:0:0:0:
62,135,52839,1,4,0:3:0:0:
215,260,53021,1,0,1:0:0:0:
0,203,53203,5,8,0:0:0:0:
222,87,53384,1,6,0:3:0:0:
90,234,53566,1,0,1:0:0:0:
117,0,53748,6,0,L|137:94,1,90,8|0,0:0|1:0,0:0:0:0:
295,319,54112,5,14,0:0:0:0:
367,113,54294,1,4,0:3:0:0:
222,255,54475,1,0,1:0:0:0:
212,8,54657,5,8,0:0:0:0:
312,225,54839,1,6,0:3:0:0:
311,26,55021,1,0,1:0:0:0:
153,187,55203,6,0,L|59:170,1,90,8|0,0:0|1:0,0:0:0:0:
180,349,55566,5,14,0:0:0:0:
258,137,55748,1,4,1:3:0:0:
89,297,55930,5,8,0:0:0:0:
82,56,56112,1,4,1:3:0:0:
251,232,56294,5,8,0:0:0:0:
281,239,56384,1,8,0:0:0:0:
312,236,56475,1,8,0:0:0:0:
341,223,56566,1,8,0:0:0:0:
363,200,56657,2,0,L|347:125,3,45,8|4|4|0,0:3|0:3|0:3|1:0,0:0:0:0:
335,72,57021,5,10,0:0:0:0:
500,362,58475,6,0,P|463:346|405:345,1,80.9999975280763,10|0,0:1|0:1,0:0:0:0:
357,261,58839,2,0,P|320:277|262:278,1,80.9999975280763,10|0,0:1|0:1,0:0:0:0:
175,364,59203,1,10,0:1:0:0:
175,364,59294,1,8,0:0:0:0:
175,364,59384,2,0,L|185:316,1,40.4999987640381,10|8,0:1|0:0,0:0:0:0:
201,236,59566,1,2,1:0:0:0:
81,307,59748,6,0,P|60:264|58:222,1,80.9999975280763,10|0,0:1|1:0,0:0:0:0:
140,158,60112,2,0,P|161:115|163:73,2,80.9999975280763,8|0|0,0:1|1:0|0:0,0:0:0:0:
260,26,60657,5,10,0:1:0:0:
260,26,60748,1,8,0:0:0:0:
260,26,60839,2,0,L|249:80,1,40.4999987640381,10|8,0:1|0:0,0:0:0:0:
332,105,61021,2,0,L|349:186,1,80.9999975280763,2|0,1:1|0:0,0:0:0:0:
264,284,61384,6,0,P|243:239|242:200,1,80.9999975280763,10|0,0:1|0:0,0:0:0:0:
406,258,61748,2,0,P|401:298|383:333,1,80.9999975280763,10|0,0:1|0:0,0:0:0:0:
226,368,62112,5,10,0:1:0:0:
226,368,62203,1,8,0:0:0:0:
226,368,62294,2,0,L|162:355,3,40.4999987640381,8|8|10|8,0:1|0:0|0:1|0:0,0:0:0:0:
114,289,62657,5,6,1:2:0:0:
256,192,62748,12,0,64475,0:0:0:0:
