osu file format v14

[General]
AudioFilename: audio.mp3
AudioLeadIn: 0
PreviewTime: 35151
Countdown: 0
SampleSet: Soft
StackLeniency: 0.7
Mode: 0
LetterboxInBreaks: 0
WidescreenStoryboard: 0

[Editor]
DistanceSpacing: 1.7
BeatDivisor: 2
GridSize: 4
TimelineZoom: 1.800001

[Metadata]
Title:20/20
TitleUnicode:20/20
Artist:ONE OK ROCK
ArtistUnicode:ONE OK ROCK
Creator:A r M i N
Version:Waku's Advanced
Source:
Tags:Fueled by Ramen OOR Ambitions Short A-Sketch Japanese ver. Komore schoolboy waku JenHideo _dt3 turtle armin a_r_m_i_n bite you death byd
BeatmapID:1541294
BeatmapSetID:730303

[Difficulty]
HPDrainRate:4
CircleSize:3.5
OverallDifficulty:5
ApproachRate:6
SliderMultiplier:1.1
SliderTickRate:1

[Events]
//Background and Video events
0,0,"sunlight.jpg",0,0
//Break Periods
//Storyboard Layer 0 (Background)
//Storyboard Layer 1 (Fail)
//Storyboard Layer 2 (Pass)
//Storyboard Layer 3 (Foreground)
//Storyboard Sound Samples

[TimingPoints]
333,363.636363636364,4,2,2,40,1,0
333,-117.647058823529,4,2,2,40,0,0
6151,-117.647058823529,4,2,2,50,0,0
16878,-200,4,3,2,30,0,0
17787,-200,4,2,2,50,0,0
17969,-200,4,2,2,60,0,0
18151,-105.263157894737,4,2,2,60,0,0
29242,-111.111111111111,4,2,2,60,0,0
32333,-125,4,2,2,50,0,0
33787,-166.666666666667,4,2,2,50,0,0
35242,-105.263157894737,4,2,2,70,0,1
44878,-105.263157894737,4,2,3,70,0,1
45060,-105.263157894737,4,2,2,70,0,1
45242,-105.263157894737,4,2,3,70,0,1
45423,-105.263157894737,4,2,2,70,0,1
46151,-90.9090909090909,4,2,2,70,0,0
46787,-90.9090909090909,4,2,2,60,0,0
46878,-105.263157894737,4,2,2,70,0,1
57060,-133.333333333333,4,2,2,60,0,0
58514,-100,4,2,2,70,0,0
61060,-83.3333333333333,4,2,2,70,0,0
61423,-100,4,2,2,70,0,0
63060,-100,4,2,2,20,0,0
63242,-100,4,2,2,15,0,0
63423,-100,4,2,2,10,0,0
63514,-100,4,2,1,15,0,0
63605,-100,4,2,2,20,0,0
63696,-100,4,2,1,25,0,0
63787,-100,4,2,2,30,0,0
63878,-100,4,2,1,35,0,0
63969,-100,4,2,2,40,0,0
64060,-100,4,2,1,45,0,0
64151,-100,4,2,2,50,0,0
64242,-100,4,2,1,55,0,0
64333,-100,4,2,2,30,0,0

[Colours]
Combo1 : 255,192,0
Combo2 : 255,255,128
Combo3 : 255,155,106
Combo4 : 164,2,6

[HitObjects]
195,318,333,5,2,1:2:0:0:
195,318,514,2,0,L|311:299,1,93.500001783371,2|2,0:0|0:0,0:0:0:0:
365,284,1060,1,8,0:1:0:0:
432,325,1242,2,0,P|443:276|422:230,1,93.500001783371,2|2,0:0|0:0,0:0:0:0:
362,193,1787,6,0,P|352:144|360:112,1,46.7500008916855,0|2,1:0|0:0,0:0:0:0:
387,75,2151,1,0,0:0:0:0:
313,41,2333,2,0,L|220:56,1,93.500001783371,2|2,0:0|0:0,0:0:0:0:
153,98,2878,2,0,L|81:73,1,46.7500008916855,2|2,0:0|0:0,0:0:0:0:
29,71,3242,5,2,1:2:0:0:
29,71,3423,2,0,L|48:179,1,93.500001783371,2|2,0:0|0:0,0:0:0:0:
67,239,3969,1,8,0:1:0:0:
66,318,4151,2,0,P|112:304|143:259,1,93.500001783371,2|2,0:0|0:0,0:0:0:0:
176,200,4696,6,0,L|158:140,2,46.7500008916855,0|2|2,1:0|0:0|0:0,0:0:0:0:
225,263,5242,1,2,0:0:0:0:
333,147,5605,1,2,0:0:0:0:
328,226,5787,2,0,L|357:306,1,46.7500008916855,2|0,0:0|0:0,0:0:0:0:
351,353,6151,5,2,1:2:0:0:
351,353,6333,2,0,L|442:323,1,93.500001783371,2|2,0:0|0:0,0:0:0:0:
485,258,6878,2,0,L|449:123,1,140.250002675057,8|2,0:1|0:0,0:0:0:0:
498,61,7605,6,0,P|439:45|385:77,1,93.500001783371,0|0,1:0|0:0,0:0:0:0:
353,107,8151,1,2,0:0:0:0:
295,162,8333,2,0,P|225:178|136:123,1,140.250002675057,8|2,0:1|0:0,0:0:0:0:
89,183,9060,6,0,L|74:227,1,46.7500008916855,2|2,1:2|0:0,0:0:0:0:
80,306,9423,1,0,0:0:0:0:
80,306,9605,2,0,L|160:288,1,46.7500008916855,2|8,0:0|0:1,0:0:0:0:
203,276,9969,1,2,0:0:0:0:
354,323,10332,5,2,0:0:0:0:
354,323,10514,2,0,L|358:271,1,46.7500008916855,0|2,1:0|0:0,0:0:0:0:
396,206,10878,1,2,0:0:0:0:
396,206,11060,2,0,L|377:100,1,93.500001783371,2|2,0:0|0:0,0:0:0:0:
321,59,11605,2,0,L|264:82,1,46.7500008916855,2|2,0:0|0:0,0:0:0:0:
272,162,11969,5,2,1:2:0:0:
272,162,12151,2,0,L|289:278,1,93.500001783371,2|2,0:0|0:0,0:0:0:0:
237,318,12696,2,0,L|178:294,1,46.7500008916855,8|2,0:1|0:0,0:0:0:0:
131,250,13060,2,0,L|151:167,1,46.7500008916855,0|2,0:0|0:0,0:0:0:0:
186,138,13423,2,0,L|166:55,1,46.7500008916855,0|2,1:0|0:0,0:0:0:0:
239,40,13787,5,0,0:0:0:0:
239,40,13969,1,2,0:0:0:0:
317,52,14151,2,0,L|424:29,1,93.500001783371,8|2,0:1|0:0,0:0:0:0:
472,79,14696,1,2,0:0:0:0:
489,156,14878,6,0,L|456:227,1,46.7500008916855,2|2,1:2|0:0,0:0:0:0:
422,263,15242,1,0,0:0:0:0:
422,263,15423,2,0,L|352:233,1,46.7500008916855,2|8,0:0|0:1,0:0:0:0:
305,214,15787,1,2,0:0:0:0:
173,303,16151,5,2,0:0:0:0:
173,303,16333,2,0,L|109:276,1,46.7500008916855,2|0,1:2|0:0,0:0:0:0:
54,260,16696,1,0,0:0:0:0:
54,260,16878,1,0,0:0:0:0:
243,53,17969,5,4,3:2:0:0:
298,122,18151,2,0,L|277:201,1,52.2499986047745,8|0,0:0|3:0,0:0:0:0:
229,242,18514,2,0,L|250:321,1,52.2499986047745,0|0,3:0|3:0,0:0:0:0:
313,346,18878,2,0,P|326:313|325:281,1,52.2499986047745,8|0,0:0|3:0,0:0:0:0:
398,243,19242,5,0,3:0:0:0:
398,243,19423,2,0,L|391:176,1,52.2499986047745,0|8,3:0|0:0,0:0:0:0:
318,140,19787,2,0,P|305:173|306:205,1,52.2499986047745,0|0,0:0|3:0,0:0:0:0:
217,212,20151,2,0,P|231:244|254:266,1,52.2499986047745,0|8,3:0|0:0,0:0:0:0:
253,345,20514,6,0,L|150:323,1,104.499997209549,8|0,0:3|3:0,0:0:0:0:
67,354,21060,1,8,0:0:0:0:
67,354,21242,2,0,L|47:283,1,52.2499986047745,0|0,3:0|3:0,0:0:0:0:
108,234,21605,2,0,L|88:163,1,52.2499986047745,0|8,3:0|0:0,0:0:0:0:
161,124,21969,2,0,L|198:251,1,104.499997209549,0|0,3:0|3:0,0:0:0:0:
268,181,22514,1,8,0:0:0:0:
268,181,22696,2,0,L|253:130,1,52.2499986047745,0|0,3:0|3:0,0:0:0:0:
315,66,23060,6,0,L|333:12,2,52.2499986047745,8|8|8,0:0|0:0|0:0,0:0:0:0:
412,214,23787,1,4,3:2:0:0:
360,286,23969,6,0,L|289:263,1,52.2499986047745,8|0,0:0|3:0,0:0:0:0:
251,337,24333,2,0,P|224:280|256:201,1,104.499997209549,0|8,3:0|0:0,0:0:0:0:
297,183,24878,1,0,3:0:0:0:
236,117,25060,6,0,L|208:170,1,52.2499986047745,0|0,3:0|3:0,0:0:0:0:
122,158,25423,2,0,L|139:215,1,52.2499986047745,8|0,0:0|0:0,0:0:0:0:
71,268,25787,1,0,3:0:0:0:
71,268,25969,2,0,L|117:292,1,52.2499986047745,0|8,3:0|0:0,0:0:0:0:
191,342,26333,6,0,L|318:309,1,104.499997209549,8|0,0:3|3:0,0:0:0:0:
368,361,26878,1,8,0:0:0:0:
368,361,27060,2,0,P|379:311|371:281,1,52.2499986047745,0|0,3:0|3:0,0:0:0:0:
443,250,27423,2,0,P|415:206|388:191,1,52.2499986047745,0|8,3:0|0:0,0:0:0:0:
328,228,27787,1,0,3:0:0:0:
363,146,27969,6,0,P|374:96|366:66,1,52.2499986047745,2|0,3:0|3:0,0:0:0:0:
313,30,28333,1,8,0:3:0:0:
313,30,28514,1,0,3:0:0:0:
238,78,28696,2,0,L|187:48,1,52.2499986047745,0|8,3:0|3:2,0:0:0:0:
117,98,29060,1,8,3:2:0:0:
61,161,29242,6,0,L|81:244,1,49.4999984893799,4|0,3:2|0:0,0:0:0:0:
144,252,29605,1,0,3:0:0:0:
144,252,29787,2,0,L|124:335,1,49.4999984893799,8|0,0:0|3:0,0:0:0:0:
198,353,30151,2,0,L|240:327,1,49.4999984893799,8|0,0:0|3:0,0:0:0:0:
317,294,30514,1,2,0:3:0:0:
317,294,30696,1,0,3:0:0:0:
394,326,30878,6,0,L|405:277,1,49.4999984893799,8|0,0:0|3:0,0:0:0:0:
446,197,31242,2,0,L|420:154,1,49.4999984893799,8|0,0:0|3:0,0:0:0:0:
419,70,31605,1,2,0:3:0:0:
419,70,31787,1,8,0:0:0:0:
329,57,31969,1,2,0:3:0:0:
329,57,32151,1,8,0:0:0:0:
258,113,32333,6,0,L|155:80,2,88,2|2|2,3:2|3:2|3:2,0:0:0:0:
353,228,33423,2,0,L|338:269,1,44,2|0,3:2|0:0,0:0:0:0:
338,267,35242,6,0,P|269:264|225:181,1,156.749995814324,6|0,3:2|0:0,0:0:0:0:
137,214,35969,2,0,P|136:165|156:130,1,52.2499986047745,2|8,3:2|0:0,0:0:0:0:
202,101,36333,1,10,0:0:0:0:
285,129,36514,2,0,L|413:102,1,104.499997209549,6|0,3:2|3:0,0:0:0:0:
457,52,37060,2,0,P|476:92|477:132,1,52.2499986047745,8|0,0:0|3:0,0:0:0:0:
490,187,37423,2,0,P|482:212|469:234,1,52.2499986047745,0|2,3:0|3:2,0:0:0:0:
409,300,37787,2,0,L|329:278,1,52.2499986047745,8|10,0:0|0:2,0:0:0:0:
292,223,38151,6,0,L|194:259,1,104.499997209549,4|8,3:2|0:0,0:0:0:0:
114,297,38696,1,2,3:2:0:0:
38,249,38878,2,0,L|22:189,1,52.2499986047745,0|2,3:0|3:2,0:0:0:0:
107,164,39242,2,0,L|120:214,1,52.2499986047745,8|2,0:0|3:2,0:0:0:0:
195,260,39605,2,0,L|292:223,1,104.499997209549,0|10,3:0|0:0,0:0:0:0:
372,182,40151,1,2,3:2:0:0:
437,241,40333,2,0,P|459:200|460:164,1,52.2499986047745,8|2,0:0|3:2,0:0:0:0:
466,106,40696,2,0,P|457:81|442:59,1,52.2499986047745,8|0,0:0|3:0,0:0:0:0:
355,78,41060,6,0,B|299:78|299:78|260:58|260:58|171:58,1,156.749995814324,6|0,3:2|0:0,0:0:0:0:
170,140,41787,2,0,L|250:141,1,52.2499986047745,2|8,3:2|0:0,0:0:0:0:
290,198,42151,1,10,0:0:0:0:
243,273,42333,2,0,P|196:232|77:261,1,156.749995814324,6|8,3:2|0:0,0:0:0:0:
254,363,43242,2,0,P|291:351|327:317,1,52.2499986047745,0|2,3:0|3:2,0:0:0:0:
390,354,43605,2,0,P|408:319|409:269,1,52.2499986047745,8|10,0:0|0:2,0:0:0:0:
476,245,43969,6,0,P|468:219|455:197,1,52.2499986047745,4|2,3:2|3:0,0:0:0:0:
375,157,44333,1,8,0:0:0:0:
375,157,44514,2,0,P|367:181|364:207,2,52.2499986047745,2|0|6,3:0|3:0|3:0,0:0:0:0:
249,74,45242,2,0,P|216:112|209:163,1,104.499997209549,6|2,3:3|3:0,0:0:0:0:
139,219,45787,2,0,P|158:238|180:249,1,52.2499986047745,8|2,0:0|3:0,0:0:0:0:
273,297,46151,6,0,L|283:364,2,60.5000018463135,8|8|10,3:2|3:2|3:2,0:0:0:0:
256,195,46696,1,8,3:2:0:0:
349,237,46878,6,0,P|444:226|472:169,1,156.749995814324,2|0,3:2|0:0,0:0:0:0:
430,99,47605,2,0,L|359:86,1,52.2499986047745,2|8,3:2|0:0,0:0:0:0:
290,75,47969,1,10,0:0:0:0:
210,114,48151,2,0,P|163:54|88:56,1,156.749995814324,6|8,3:2|0:0,0:0:0:0:
200,204,49060,2,0,P|257:192|286:168,1,52.2499986047745,0|2,3:0|3:2,0:0:0:0:
335,221,49423,2,0,P|322:244|305:263,1,52.2499986047745,8|10,0:0|0:2,0:0:0:0:
255,337,49787,6,0,L|173:317,1,52.2499986047745,4|2,3:2|3:2,0:0:0:0:
134,269,50151,2,0,L|83:281,1,52.2499986047745,8|2,0:0|3:2,0:0:0:0:
21,346,50514,2,0,P|-7:282|26:216,1,104.499997209549,0|8,3:0|0:0,0:0:0:0:
135,135,51242,2,0,L|217:155,1,52.2499986047745,0|2,3:0|3:2,0:0:0:0:
261,195,51606,2,0,L|311:182,1,52.2499986047745,8|2,0:0|3:2,0:0:0:0:
399,199,51969,2,0,L|426:273,2,52.2499986047745,8|2|8,0:0|3:2|0:0,0:0:0:0:
370,113,52514,1,0,3:0:0:0:
285,86,52696,6,0,L|153:51,1,104.499997209549,14|0,3:2|3:0,0:0:0:0:
147,141,53242,2,0,L|248:167,1,104.499997209549,12|0,3:2|3:0,0:0:0:0:
227,254,53787,1,12,3:2:0:0:
73,336,54151,6,0,P|46:291|49:238,1,104.499997209549,14|0,3:2|3:0,0:0:0:0:
108,175,54696,2,0,P|136:131|134:80,1,104.499997209549,12|0,3:2|3:0,0:0:0:0:
49,108,55242,1,12,3:2:0:0:
188,226,55605,6,0,B|249:231|249:231|320:195,1,104.499997209549,14|12,3:2|3:2,0:0:0:0:
421,93,56333,2,0,L|394:36,2,52.2499986047745,14|8|0,3:2|0:3|3:0,0:0:0:0:
486,217,57060,5,14,3:2:0:0:
486,217,58514,6,0,L|356:189,1,110,12|12,3:2|3:2,0:0:0:0:
221,296,59242,2,0,L|167:282,2,55,8|8|12,0:0|0:0|3:2,0:0:0:0:
295,352,59787,2,0,L|425:324,1,110,12|12,3:2|3:2,0:0:0:0:
402,328,60696,2,0,L|415:274,2,55,8|8|12,0:0|0:0|3:2,0:0:0:0:
221,296,61423,6,0,L|249:166,1,110,12|12,3:2|3:2,0:0:0:0:
402,86,62151,2,0,L|415:139,2,55,8|8|12,0:0|0:0|3:2,0:0:0:0:
313,116,62696,1,12,3:2:0:0:
256,192,62878,12,0,64196,0:0:0:0:
