osu file format v14

[General]
AudioFilename: audio.mp3
AudioLeadIn: 0
PreviewTime: 35151
Countdown: 0
SampleSet: Soft
StackLeniency: 0.5
Mode: 0
LetterboxInBreaks: 0
WidescreenStoryboard: 0

[Editor]
Bookmarks: 64196
DistanceSpacing: 1.1
BeatDivisor: 4
GridSize: 4
TimelineZoom: 1

[Metadata]
Title:20/20
TitleUnicode:20/20
Artist:ONE OK ROCK
ArtistUnicode:ONE OK ROCK
Creator:A r M i N
Version:Turtle's Normal
Source:
Tags:Fueled by Ramen OOR Ambitions Short A-Sketch Japanese ver. Komore schoolboy waku JenHideo _dt3 turtle armin a_r_m_i_n bite you death byd
BeatmapID:1556677
BeatmapSetID:730303

[Difficulty]
HPDrainRate:3
CircleSize:3
OverallDifficulty:3.5
ApproachRate:4
SliderMultiplier:1
SliderTickRate:1

[Events]
//Background and Video events
0,0,"sunlight.jpg",0,0
//Break Periods
//Storyboard Layer 0 (Background)
//Storyboard Layer 1 (Fail)
//Storyboard Layer 2 (Pass)
//Storyboard Layer 3 (Foreground)
//Storyboard Sound Samples

[TimingPoints]
333,363.636363636364,4,2,2,40,1,0
6151,-100,4,2,2,50,0,0
16878,-100,4,3,2,30,0,0
17787,-100,4,2,2,50,0,0
17969,-100,4,2,2,60,0,0
32333,-100,4,2,2,50,0,0
35242,-100,4,2,2,70,0,1
44878,-100,4,2,3,70,0,1
45060,-100,4,2,2,70,0,1
45242,-100,4,2,3,70,0,1
45423,-100,4,2,2,70,0,1
46787,-100,4,2,2,60,0,0
46878,-100,4,2,2,70,0,1
57060,-100,4,2,2,60,0,0
58514,-100,4,2,2,70,0,0
63060,-100,4,2,2,20,0,0
63242,-100,4,2,2,15,0,0
63423,-100,4,2,2,10,0,0
63514,-100,4,2,1,15,0,0
63605,-100,4,2,2,20,0,0
63696,-100,4,2,1,25,0,0
63787,-100,4,2,2,30,0,0
63878,-100,4,2,1,35,0,0
63969,-100,4,2,2,40,0,0
64060,-100,4,2,1,45,0,0
64151,-100,4,2,2,50,0,0
64242,-100,4,2,1,55,0,0
64333,-100,4,2,2,30,0,0

[Colours]
Combo1 : 133,65,73
Combo2 : 255,255,89
Combo3 : 120,7,11
Combo4 : 230,86,0

[HitObjects]
118,209,333,6,0,B|174:185|218:209|218:209|262:233|318:209,1,200,2|8,1:2|0:1,0:0:0:0:
383,129,1423,1,0,0:0:0:0:
419,233,1787,2,0,L|432:392,2,150,0|2|2,1:0|0:0|0:0,0:0:0:0:
383,129,3242,6,0,B|327:105|283:129|283:129|239:153|183:129,1,200,2|8,1:2|0:1,0:0:0:0:
118,49,4332,1,0,0:0:0:0:
82,153,4696,1,0,1:0:0:0:
82,153,6151,5,2,1:2:0:0:
189,132,6514,2,0,L|180:238,1,99.9999999999999,0|8,0:0|0:1,0:0:0:0:
171,340,7242,1,0,0:0:0:0:
270,294,7605,2,0,L|287:95,1,200,0|8,1:0|0:1,0:0:0:0:
386,48,8696,1,2,0:0:0:0:
485,94,9060,5,2,1:2:0:0:
485,94,9242,2,0,L|476:200,1,99.9999999999999,2|2,0:0|0:0,0:0:0:0:
467,302,9970,1,2,0:0:0:0:
377,239,10333,1,2,0:0:0:0:
377,239,10514,1,0,1:0:0:0:
197,365,11242,1,10,0:1:0:0:
17,239,11969,5,2,1:2:0:0:
80,149,12333,2,0,L|186:158,1,99.9999999999999,0|8,0:0|0:1,0:0:0:0:
288,167,13061,1,0,0:0:0:0:
242,68,13423,2,0,L|441:85,1,200,0|8,1:0|0:1,0:0:0:0:
504,174,14514,1,2,0:0:0:0:
441,262,14878,5,2,1:2:0:0:
441,262,15060,2,0,L|335:253,1,99.9999999999999,2|2,0:0|0:0,0:0:0:0:
233,244,15788,1,2,0:0:0:0:
296,154,16151,1,2,0:0:0:0:
296,154,16333,2,0,B|240:130|196:154|196:154|152:178|96:154,1,200,2|0,1:2|0:0,0:0:0:0:
102,156,17969,5,4,3:2:0:0:
102,156,18151,2,0,L|93:56,2,99.9999999999999,8|0|8,0:0|3:0|0:0,0:0:0:0:
210,175,19242,1,0,3:0:0:0:
210,175,19423,2,0,L|201:281,1,99.9999999999999,0|0,3:0|0:0,0:0:0:0:
192,383,20151,1,0,3:0:0:0:
291,337,20514,2,0,L|349:341,1,50,8|0,0:3|3:0,0:0:0:0:
394,347,20878,5,0,3:0:0:0:
384,237,21242,1,0,3:0:0:0:
374,127,21605,1,0,3:0:0:0:
364,17,21969,1,0,3:0:0:0:
364,17,22151,2,0,P|317:0|268:9,1,99.9999999999999,2|8,3:0|0:0,0:0:0:0:
243,57,22696,2,0,L|184:61,1,50,0|0,3:0|3:0,0:0:0:0:
145,32,23060,2,0,L|86:27,2,50,8|8|8,0:0|0:0|0:0,0:0:0:0:
118,138,23787,5,4,3:2:0:0:
118,138,23969,2,0,L|126:237,1,99.9999999999999,8|0,0:0|3:0,0:0:0:0:
215,300,24696,1,8,0:0:0:0:
303,237,25060,2,0,L|307:179,1,50,0|0,3:0|3:0,0:0:0:0:
313,134,25423,2,0,L|413:125,1,99.9999999999999,8|0,0:0|3:0,0:0:0:0:
465,118,25969,1,0,3:0:0:0:
426,14,26333,2,0,L|368:18,1,50,8|0,0:3|3:0,0:0:0:0:
323,24,26696,5,0,3:0:0:0:
313,134,27060,1,0,3:0:0:0:
303,244,27423,1,0,3:0:0:0:
293,349,27787,1,0,3:0:0:0:
293,349,27969,2,0,P|340:366|388:358,1,99.9999999999999,2|8,3:0|0:3,0:0:0:0:
424,316,28514,1,0,3:0:0:0:
389,211,28878,2,0,L|384:152,1,50,8|8,3:2|3:2,0:0:0:0:
414,113,29242,6,0,P|367:129|318:121,1,99.9999999999999,4|0,3:2|3:0,0:0:0:0:
293,73,29787,1,8,0:0:0:0:
183,83,30151,2,0,L|174:183,1,99.9999999999999,8|2,0:0|0:3,0:0:0:0:
168,235,30696,1,0,3:0:0:0:
168,235,30878,1,8,0:0:0:0:
58,225,31242,1,8,0:0:0:0:
105,326,31605,2,0,L|154:329,2,50,2|8|2,0:3|0:0|0:3,0:0:0:0:
50,322,32150,1,8,0:0:0:0:
256,192,32333,12,2,33787,3:2:0:0:
229,161,35242,6,0,P|212:208|221:257,1,99.9999999999999,6|8,3:2|0:0,0:0:0:0:
324,217,35969,2,0,L|373:213,1,50,2|8,3:2|0:0,0:0:0:0:
427,207,36333,1,10,0:0:0:0:
427,207,36514,2,0,P|410:160|418:111,1,99.9999999999999,6|0,3:2|3:0,0:0:0:0:
446,64,37060,1,8,0:0:0:0:
337,74,37423,1,0,3:0:0:0:
337,74,37605,2,0,L|340:24,2,50,2|8|10,3:2|0:0|0:2,0:0:0:0:
331,127,38151,6,0,B|285:109|285:109|235:118,1,99.9999999999999,4|8,3:2|0:0,0:0:0:0:
182,135,38696,2,0,L|191:235,1,99.9999999999999,2|2,3:2|3:2,0:0:0:0:
245,330,39423,1,2,3:2:0:0:
245,330,39605,2,0,B|199:347|199:347|149:338,1,99.9999999999999,2|10,1:2|0:0,0:0:0:0:
96,322,40151,1,2,3:2:0:0:
96,322,40333,1,8,0:0:0:0:
86,212,40696,1,8,0:0:0:0:
76,102,41060,6,0,P|124:93|171:110,1,99.9999999999999,6|8,3:2|0:0,0:0:0:0:
200,217,41787,2,0,L|204:275,1,50,2|8,3:2|0:0,0:0:0:0:
210,320,42151,1,10,0:0:0:0:
210,320,42333,2,0,P|259:328|306:312,1,99.9999999999999,6|0,3:2|3:0,0:0:0:0:
347,275,42879,1,8,0:0:0:0:
337,165,43241,1,0,3:0:0:0:
337,165,43423,2,0,L|387:168,2,50,2|8|10,3:2|0:0|0:2,0:0:0:0:
288,192,43969,6,0,L|188:201,2,99.9999999999999,4|8|0,3:2|0:0|3:0,0:0:0:0:
350,103,45059,1,8,0:0:0:0:
287,15,45423,2,0,L|181:24,1,99.9999999999999,0|8,3:2|0:0,0:0:0:0:
125,112,46151,2,0,L|75:109,1,50,8|8,3:2|3:2,0:0:0:0:
35,146,46514,2,0,L|38:196,1,50,10|8,3:2|3:2,0:0:0:0:
10,244,46878,6,0,P|58:235|105:252,1,99.9999999999999,4|8,3:2|0:0,0:0:0:0:
205,296,47605,2,0,L|201:238,1,50,2|8,3:2|0:0,0:0:0:0:
195,193,47969,1,10,0:0:0:0:
195,193,48151,2,0,P|243:201|290:185,1,99.9999999999999,6|0,3:2|3:0,0:0:0:0:
331,147,48696,1,8,0:0:0:0:
441,156,49061,1,0,3:0:0:0:
394,55,49423,2,0,L|336:59,1,50,8|10,0:0|0:2,0:0:0:0:
291,65,49788,6,0,B|241:56|241:56|195:74,1,99.9999999999999,4|8,3:2|0:0,0:0:0:0:
173,124,50333,2,0,L|73:115,1,99.9999999999999,2|2,3:2|3:2,0:0:0:0:
25,214,51060,1,2,3:2:0:0:
25,214,51242,2,0,B|75:205|75:205|121:223,1,99.9999999999999,2|8,1:2|0:0,0:0:0:0:
143,273,51787,1,2,3:2:0:0:
143,273,51969,1,8,0:0:0:0:
253,263,52332,1,8,0:0:0:0:
363,253,52696,6,0,B|381:211|363:178|363:178|345:145|363:102,2,150,14|12|12,3:2|3:2|3:2,0:0:0:0:
317,354,54151,2,0,L|476:341,2,150,14|12|12,3:2|3:2|3:2,0:0:0:0:
253,263,55605,5,14,3:2:0:0:
143,253,55968,1,12,3:2:0:0:
97,153,56333,2,0,L|156:157,1,50,14|8,3:2|0:3,0:0:0:0:
195,128,56697,2,0,L|254:123,1,50,0|0,3:0|3:0,0:0:0:0:
293,153,57060,1,14,3:2:0:0:
293,153,58514,6,0,L|302:259,1,99.9999999999999,12|12,3:2|3:2,0:0:0:0:
225,333,59242,2,0,L|221:382,2,50,8|8|8,0:0|0:0|3:2,0:0:0:0:
197,284,59787,2,0,L|188:184,1,99.9999999999999,12|12,3:2|3:2,0:0:0:0:
306,68,60696,2,0,L|355:71,2,50,8|8|12,0:0|0:0|3:2,0:0:0:0:
197,84,61423,6,0,L|188:190,1,99.9999999999999,12|12,3:2|3:2,0:0:0:0:
265,264,62151,2,0,L|268:313,2,50,8|8|8,0:0|0:0|3:2,0:0:0:0:
293,215,62696,1,12,3:2:0:0:
256,192,62878,12,0,64196,0:0:0:0:
