osu file format v14

[General]
AudioFilename: audio.mp3
AudioLeadIn: 0
PreviewTime: 35151
Countdown: 0
SampleSet: Soft
StackLeniency: 0.7
Mode: 0
LetterboxInBreaks: 0
WidescreenStoryboard: 0

[Editor]
Bookmarks: 64196
DistanceSpacing: 0.7
BeatDivisor: 4
GridSize: 8
TimelineZoom: 1

[Metadata]
Title:20/20
TitleUnicode:20/20
Artist:ONE OK ROCK
ArtistUnicode:ONE OK ROCK
Creator:A r M i N
Version:Insane
Source:
Tags:Fueled by Ramen OOR Ambitions Short A-Sketch Japanese ver. Komore schoolboy waku JenHideo _dt3 turtle armin a_r_m_i_n bite you death byd
BeatmapID:1541292
BeatmapSetID:730303

[Difficulty]
HPDrainRate:5.5
CircleSize:4
OverallDifficulty:7
ApproachRate:8.8
SliderMultiplier:1.6
SliderTickRate:1

[Events]
//Background and Video events
0,0,"sunlight.jpg",0,0
//Break Periods
//Storyboard Layer 0 (Background)
//Storyboard Layer 1 (Fail)
//Storyboard Layer 2 (Pass)
//Storyboard Layer 3 (Foreground)
//Storyboard Sound Samples

[TimingPoints]
333,363.636363636364,4,2,2,40,1,0
333,-125,4,2,2,40,0,0
6151,-125,4,2,2,50,0,0
16878,-125,4,3,2,30,0,0
17787,-100,4,2,2,50,0,0
17969,-100,4,2,2,60,0,0
29242,-100,4,2,2,60,0,0
32333,-100,4,2,2,50,0,0
35242,-86.9565217391304,4,2,2,70,0,1
44878,-86.9565217391304,4,2,3,70,0,1
45060,-86.9565217391304,4,2,2,70,0,1
45242,-86.9565217391304,4,2,3,70,0,1
45423,-86.9565217391304,4,2,2,70,0,1
46787,-86.9565217391304,4,2,2,60,0,0
46878,-86.9565217391304,4,2,2,70,0,1
57060,-100,4,2,2,60,0,0
58514,-100,4,2,2,70,0,0
63060,-100,4,2,2,20,0,0
63242,-100,4,2,2,15,0,0
63423,-100,4,2,2,10,0,0
63514,-100,4,2,1,15,0,0
63605,-100,4,2,2,20,0,0
63696,-100,4,2,1,25,0,0
63787,-100,4,2,2,30,0,0
63878,-100,4,2,1,35,0,0
63969,-100,4,2,2,40,0,0
64060,-100,4,2,1,45,0,0
64151,-100,4,2,2,50,0,0
64242,-100,4,2,1,55,0,0
64333,-100,4,2,2,30,0,0

[Colours]
Combo1 : 133,65,73
Combo2 : 255,255,89
Combo3 : 120,7,11
Combo4 : 230,86,0

[HitObjects]
341,24,333,5,2,1:2:0:0:
341,24,514,2,0,L|329:156,1,128,2|2,0:0|0:0,0:0:0:0:
267,225,1060,1,8,0:1:0:0:
213,143,1242,2,0,P|150:134|97:167,1,128,2|2,0:0|0:0,0:0:0:0:
163,295,1787,6,0,L|170:231,2,64,0|2|0,1:0|0:0|0:0,0:0:0:0:
38,363,2333,2,0,B|19:316|45:274|45:274|79:263,1,128,2|2,0:0|0:0,0:0:0:0:
169,231,2878,1,2,0:0:0:0:
96,169,3060,1,2,0:0:0:0:
251,162,3242,5,2,1:2:0:0:
251,162,3423,2,0,B|269:245|269:245|250:283,1,128,2|2,0:0|0:0,0:0:0:0:
189,359,3969,1,8,0:1:0:0:
284,374,4151,2,0,L|416:362,1,128,2|2,0:0|0:0,0:0:0:0:
486,302,4696,6,0,P|501:330|507:361,2,64,0|2|2,1:0|0:0|0:0,0:0:0:0:
403,219,5242,2,0,B|399:175|399:175|407:135|407:135|403:91,1,128,2|2,0:0|0:0,0:0:0:0:
338,20,5787,2,0,P|317:46|306:82,1,64,2|0,0:0|0:0,0:0:0:0:
305,217,6151,5,2,1:2:0:0:
229,155,6333,1,2,0:0:0:0:
166,229,6514,2,0,L|102:222,1,64,0|2,0:0|0:0,0:0:0:0:
50,304,6878,2,0,L|177:317,1,128,8|0,0:1|0:0,0:0:0:0:
255,375,7423,1,2,0:0:0:0:
292,230,7605,6,0,P|345:197|407:206,1,128,0|0,1:0|0:0,0:0:0:0:
460,288,8151,1,2,0:0:0:0:
411,371,8333,2,0,P|377:337|364:292,2,96,8|0|2,0:1|0:0|0:0,0:0:0:0:
407,206,9060,5,2,1:2:0:0:
498,238,9242,2,0,P|483:266|460:288,1,64,2|0,0:0|0:0,0:0:0:0:
364,292,9605,1,2,0:0:0:0:
313,210,9787,2,0,L|249:217,1,64,8|2,0:1|0:0,0:0:0:0:
154,229,10151,1,0,0:0:0:0:
52,125,10333,6,0,B|28:193|75:177|52:249,1,128,2|2,0:0|0:0,0:0:0:0:
118,319,10878,1,2,0:0:0:0:
217,237,11060,2,0,L|153:228,1,64,2|10,0:0|0:1,0:0:0:0:
213,334,11423,2,0,L|343:316,1,128,2|2,0:0|0:0,0:0:0:0:
483,286,11969,5,2,1:2:0:0:
405,228,12151,1,2,0:0:0:0:
454,144,12333,2,0,P|448:112|432:84,1,64,0|2,0:0|0:0,0:0:0:0:
295,132,12696,2,0,P|325:143|357:144,1,64,8|2,0:1|0:0,0:0:0:0:
405,228,13060,2,0,P|374:238|343:239,1,64,0|2,0:0|0:0,0:0:0:0:
216,237,13423,6,0,P|240:257|257:285,1,64,0|2,1:0|0:0,0:0:0:0:
144,379,13787,2,0,P|150:348|166:320,1,64,0|2,0:0|0:0,0:0:0:0:
330,348,14151,1,8,0:1:0:0:
343,239,14333,2,0,L|325:112,1,128,2|2,0:0|0:0,0:0:0:0:
222,31,14878,5,2,1:2:0:0:
154,99,15060,2,0,L|145:163,1,64,2|0,0:0|0:0,0:0:0:0:
226,215,15423,2,0,L|235:279,1,64,2|8,0:0|0:1,0:0:0:0:
124,319,15787,2,0,P|126:287|140:258,1,64,2|0,0:0|0:0,0:0:0:0:
290,357,16151,6,0,P|261:370|229:374,1,64,2|2,0:0|1:2,0:0:0:0:
330,269,16514,2,0,P|361:272|390:286,1,64,0|0,0:0|0:0,0:0:0:0:
235,279,16878,2,0,L|226:215,1,64,0|0,0:0|0:0,0:0:0:0:
273,62,17242,2,0,B|317:39|317:39|355:109|313:174,1,192,0|2,0:0|0:3,0:0:0:0:
154,149,17969,5,4,3:2:0:0:
68,197,18151,2,0,P|57:240|63:276,1,80,8|0,0:0|3:0,0:0:0:0:
176,339,18514,1,0,3:0:0:0:
155,241,18696,1,0,3:0:0:0:
266,300,18878,2,0,P|274:329|266:378,1,80,8|0,0:0|3:0,0:0:0:0:
246,204,19242,5,0,3:0:0:0:
417,219,19423,2,0,L|339:234,1,80,0|8,3:0|0:0,0:0:0:0:
224,107,19787,2,0,L|302:122,1,80,0|0,0:0|3:0,0:0:0:0:
266,300,20151,1,0,3:0:0:0:
246,204,20333,1,8,0:0:0:0:
346,242,20514,1,8,0:3:0:0:
346,242,20605,1,8,0:3:0:0:
346,242,20696,1,0,3:0:0:0:
173,269,20878,6,0,P|134:277|95:268,1,80,0|8,3:0|0:0,0:0:0:0:
101,62,21242,2,0,P|162:44|224:109,1,160,0|0,3:0|3:0,0:0:0:0:
135,178,21787,1,8,0:0:0:0:
246,204,21969,6,0,B|324:168|324:239|398:204,1,160,0|0,3:0|3:0,0:0:0:0:
452,78,22514,1,8,0:0:0:0:
362,38,22696,2,0,P|353:77|362:116,1,80,0|0,3:0|3:0,0:0:0:0:
496,211,23060,1,8,0:0:0:0:
319,299,23242,1,8,0:0:0:0:
403,207,23423,1,8,0:0:0:0:
403,207,23787,5,4,3:2:0:0:
250,175,23969,2,0,L|172:190,1,80,8|0,0:0|3:0,0:0:0:0:
105,325,24333,2,0,P|181:332|228:271,1,160,0|8,3:0|0:0,0:0:0:0:
171,190,24878,1,0,3:0:0:0:
325,174,25060,6,0,P|333:213|325:252,1,80,0|0,3:0|3:0,0:0:0:0:
242,123,25423,2,0,P|233:84|241:45,1,80,8|0,0:0|0:0,0:0:0:0:
388,2,25787,1,0,3:0:0:0:
331,83,25969,2,0,L|409:98,1,80,0|8,3:0|0:0,0:0:0:0:
457,224,26333,1,8,0:3:0:0:
457,224,26423,1,8,0:3:0:0:
457,224,26514,1,0,3:0:0:0:
325,174,26696,5,0,3:0:0:0:
502,133,26878,1,8,0:0:0:0:
366,264,27060,2,0,L|206:249,1,160,0|0,3:0|3:0,0:0:0:0:
140,142,27605,1,8,0:0:0:0:
83,303,27787,2,0,P|159:309|206:248,1,160,0|0,3:0|3:0,0:0:0:0:
140,142,28333,5,8,0:3:0:0:
220,85,28514,2,0,P|236:121|235:161,1,80,0|0,3:0|3:0,0:0:0:0:
131,44,28878,1,8,3:2:0:0:
287,13,29060,1,8,3:2:0:0:
140,142,29242,6,0,B|113:191|113:191|140:293,1,160,4|0,3:2|3:0,0:0:0:0:
309,265,29787,2,0,L|231:250,1,80,8|0,0:0|3:0,0:0:0:0:
254,372,30151,1,8,0:0:0:0:
254,372,30333,2,0,L|417:340,1,160,0|0,3:0|3:0,0:0:0:0:
465,206,30878,6,0,P|472:167|463:128,1,80,8|0,0:0|3:0,0:0:0:0:
307,131,31242,1,8,0:0:0:0:
307,131,31423,2,0,P|337:157|375:169,1,80,0|2,3:0|0:3,0:0:0:0:
450,32,31787,2,0,P|413:43|385:71,1,80,8|2,0:0|0:3,0:0:0:0:
389,267,32151,1,8,0:0:0:0:
310,282,32333,6,0,L|388:267,1,80,2|0,3:2|0:0,0:0:0:0:
254,179,32696,2,0,L|332:194,1,80,2|0,3:2|0:0,0:0:0:0:
287,369,33060,2,0,L|365:354,1,80,2|0,3:2|0:0,0:0:0:0:
231,266,33423,2,0,L|309:281,1,80,2|0,3:2|0:0,0:0:0:0:
256,192,33696,12,0,35060,0:0:0:0:
154,56,35242,6,0,B|146:120|146:120|162:176|162:176|154:240,1,184.000003509522,6|8,3:2|0:0,0:0:0:0:
62,184,35787,1,0,3:0:0:0:
246,111,35969,2,0,L|339:119,1,92.0000017547608,2|8,3:2|0:0,0:0:0:0:
434,16,36333,1,10,0:0:0:0:
501,209,36514,6,0,B|460:252|460:252|341:218,1,184.000003509522,6|0,3:2|3:0,0:0:0:0:
251,341,37060,2,0,P|290:318|336:318,1,92.0000017547608,8|0,0:0|3:0,0:0:0:0:
430,142,37423,1,0,3:0:0:0:
483,291,37605,1,2,3:2:0:0:
341,218,37787,2,0,P|330:194|326:161,1,46.0000008773804,8|8,0:0|0:2,0:0:0:0:
367,37,37969,2,0,P|362:60|353:81,1,46.0000008773804,10|8,0:2|0:2,0:0:0:0:
258,104,38151,5,4,3:2:0:0:
430,142,38333,1,2,3:2:0:0:
244,226,38514,2,0,L|152:218,1,92.0000017547608,8|2,0:0|3:2,0:0:0:0:
48,88,38878,1,0,3:0:0:0:
162,121,39060,1,2,3:2:0:0:
12,186,39242,1,8,0:0:0:0:
127,29,39423,6,0,P|209:35|260:115,1,184.000003509522,2|0,3:2|3:0,0:0:0:0:
219,286,39969,2,0,P|234:242|269:214,1,92.0000017547608,10|2,0:0|3:2,0:0:0:0:
436,163,40333,2,0,P|391:172|349:157,1,92.0000017547608,8|2,0:0|3:2,0:0:0:0:
162,121,40696,1,8,0:0:0:0:
269,214,40878,1,0,3:0:0:0:
300,40,41060,6,0,B|428:25|428:25|399:72,1,184.000003509522,6|8,3:2|0:0,0:0:0:0:
436,163,41605,1,0,3:0:0:0:
268,213,41787,2,0,P|268:168|291:129,1,92.0000017547608,2|8,3:2|0:0,0:0:0:0:
440,167,42151,1,10,0:0:0:0:
313,302,42333,6,0,B|225:342|225:262|137:302,1,184.000003509522,6|0,3:2|3:0,0:0:0:0:
51,140,42878,1,8,0:0:0:0:
5,277,43060,1,0,3:0:0:0:
147,160,43242,2,0,P|145:114|122:72,1,92.0000017547608,0|2,3:0|3:2,0:0:0:0:
54,5,43605,2,0,P|40:23|31:44,1,46.0000008773804,8|8,0:0|0:2,0:0:0:0:
27,178,43787,2,0,P|41:159|50:139,1,46.0000008773804,10|8,0:2|0:2,0:0:0:0:
123,74,43969,5,4,3:2:0:0:
225,218,44151,1,2,3:0:0:0:
332,73,44333,2,0,L|424:81,1,92.0000017547608,8|2,0:0|3:0,0:0:0:0:
318,184,44696,1,0,3:0:0:0:
228,38,44878,1,6,3:0:0:0:
129,200,45060,2,0,P|130:245|152:285,1,92.0000017547608,8|6,0:0|3:3,0:0:0:0:
243,120,45423,5,4,3:2:0:0:
91,93,45605,1,2,3:0:0:0:
225,218,45787,2,0,L|317:210,1,92.0000017547608,8|2,0:0|3:0,0:0:0:0:
476,308,46151,5,8,3:2:0:0:
318,184,46333,1,8,3:2:0:0:
501,66,46514,5,10,3:2:0:0:
417,230,46696,1,8,3:2:0:0:
271,64,46878,6,0,P|353:38|410:103,1,184.000003509522,2|12,3:2|0:0,0:0:0:0:
321,214,47423,1,0,3:0:0:0:
512,250,47605,2,0,P|510:204|488:164,1,92.0000017547608,2|8,3:2|0:0,0:0:0:0:
356,307,47969,1,10,0:0:0:0:
242,157,48151,6,0,B|112:139|112:139|100:163|98:191,1,184.000003509522,6|0,3:2|3:0,0:0:0:0:
149,366,48696,1,8,0:0:0:0:
177,247,48878,1,0,3:0:0:0:
2,170,49060,2,0,P|3:215|25:255,1,92.0000017547608,0|2,3:0|3:2,0:0:0:0:
242,157,49423,2,0,P|241:121|232:95,1,46.0000008773804,8|8,0:0|0:2,0:0:0:0:
136,64,49605,2,0,P|135:87|140:110,1,46.0000008773804,10|8,0:2|0:2,0:0:0:0:
221,15,49787,5,4,3:2:0:0:
336,127,49969,1,2,3:2:0:0:
177,230,50151,2,0,P|216:252|262:253,1,92.0000017547608,8|2,0:0|3:2,0:0:0:0:
431,147,50514,1,0,3:0:0:0:
242,157,50696,1,2,3:2:0:0:
413,244,50878,1,8,0:0:0:0:
217,369,51060,6,0,P|150:312|176:229,1,184.000003509522,6|2,3:2|3:2,0:0:0:0:
336,127,51605,5,8,0:0:0:0:
295,309,51787,1,2,3:2:0:0:
263,61,51969,5,8,0:0:0:0:
431,147,52151,1,2,3:2:0:0:
242,157,52333,5,8,0:0:0:0:
401,53,52514,1,0,3:0:0:0:
180,9,52696,5,14,3:2:0:0:
336,127,52878,2,0,P|337:182|318:220,1,92.0000017547608,0|0,3:0|3:0,0:0:0:0:
158,105,53242,1,12,3:2:0:0:
315,30,53423,2,0,P|361:31|401:53,1,92.0000017547608,2|0,3:2|3:0,0:0:0:0:
178,201,53787,2,0,P|132:200|92:178,1,92.0000017547608,12|0,3:2|3:0,0:0:0:0:
256,108,54151,5,14,3:2:0:0:
313,306,54333,2,0,L|321:214,1,92.0000017547608,0|0,3:0|3:0,0:0:0:0:
158,105,54696,1,12,3:2:0:0:
346,29,54878,2,0,L|354:121,1,92.0000017547608,2|0,3:2|3:0,0:0:0:0:
178,201,55242,2,0,P|132:200|92:178,1,92.0000017547608,12|0,3:2|3:0,0:0:0:0:
218,27,55605,6,0,P|246:62|255:107,1,92.0000017547608,14|0,3:2|3:0,0:0:0:0:
0,183,55969,2,0,P|9:138|37:103,1,92.0000017547608,12|0,3:2|3:0,0:0:0:0:
164,288,56333,1,14,3:2:0:0:
198,284,56423,1,8,0:0:0:0:
232,280,56514,1,8,0:3:0:0:
266,276,56605,1,8,0:3:0:0:
301,272,56696,2,0,L|346:286,3,46.0000008773804,0|0|0|0,3:0|3:0|3:0|3:0,0:0:0:0:
373,296,57060,5,14,3:2:0:0:
234,101,58514,6,0,P|226:139|235:178,1,80,12|0,3:2|0:0,0:0:0:0:
395,247,58878,2,0,P|402:208|393:169,1,80,12|0,3:2|0:0,0:0:0:0:
296,257,59242,2,0,L|289:295,1,40,8|8,0:0|0:0,0:0:0:0:
382,382,59423,2,0,L|375:343,1,40,8|8,0:0|0:0,0:0:0:0:
395,247,59605,1,12,3:2:0:0:
235,178,59787,6,0,L|143:186,1,80,12|0,3:2|0:0,0:0:0:0:
327,71,60151,2,0,L|419:79,1,80,12|0,3:2|0:0,0:0:0:0:
337,254,60696,6,0,L|297:257,1,40,8|8,0:0|0:0,0:0:0:0:
235,178,60878,2,0,L|275:175,1,40,8|8,0:0|0:0,0:0:0:0:
200,270,61060,2,0,P|191:308|198:347,1,80,12|0,3:2|0:0,0:0:0:0:
425,292,61423,6,0,P|433:253|426:214,1,80,12|0,3:2|0:0,0:0:0:0:
274,97,61787,2,0,P|266:136|274:175,1,80,12|0,3:2|0:0,0:0:0:0:
404,133,62151,2,0,L|364:136,1,40,8|8,0:0|0:0,0:0:0:0:
425,213,62333,2,0,L|465:210,1,40,8|8,0:0|0:0,0:0:0:0:
502,119,62514,1,12,3:2:0:0:
512,297,62696,5,12,3:2:0:0:
256,192,62878,12,0,64196,0:0:0:0:
