osu file format v14

[General]
AudioFilename: audio.mp3
AudioLeadIn: 0
PreviewTime: 35151
Countdown: 0
SampleSet: Soft
StackLeniency: 0.7
Mode: 0
LetterboxInBreaks: 0
WidescreenStoryboard: 0

[Editor]
Bookmarks: 64196
DistanceSpacing: 1.1
BeatDivisor: 4
GridSize: 4
TimelineZoom: 1

[Metadata]
Title:20/20
TitleUnicode:20/20
Artist:ONE OK ROCK
ArtistUnicode:ONE OK ROCK
Creator:A r M i N
Version:Easy
Source:
Tags:Fueled by Ramen OOR Ambitions Short A-Sketch Japanese ver. Komore schoolboy waku JenHideo _dt3 turtle armin a_r_m_i_n bite you death byd
BeatmapID:1541289
BeatmapSetID:730303

[Difficulty]
HPDrainRate:2
CircleSize:2.5
OverallDifficulty:2
ApproachRate:3
SliderMultiplier:0.899999999999999
SliderTickRate:1

[Events]
//Background and Video events
0,0,"sunlight.jpg",0,0
//Break Periods
//Storyboard Layer 0 (Background)
//Storyboard Layer 1 (Fail)
//Storyboard Layer 2 (Pass)
//Storyboard Layer 3 (Foreground)
//Storyboard Sound Samples

[TimingPoints]
333,363.636363636364,4,2,2,40,1,0
6151,-100,4,2,2,50,0,0
16878,-100,4,3,2,30,0,0
17787,-100,4,2,2,50,0,0
17969,-100,4,2,2,60,0,0
29242,-100,4,2,2,60,0,0
32333,-100,4,2,2,50,0,0
35242,-100,4,2,2,70,0,1
44878,-100,4,2,3,70,0,1
45060,-100,4,2,2,70,0,1
45242,-100,4,2,3,70,0,1
45423,-100,4,2,2,70,0,1
46787,-100,4,2,2,60,0,0
46878,-100,4,2,2,70,0,1
57060,-100,4,2,2,60,0,0
58514,-100,4,2,2,70,0,0
63060,-100,4,2,2,20,0,0
63242,-100,4,2,2,15,0,0
63423,-100,4,2,2,10,0,0
63514,-100,4,2,1,15,0,0
63605,-100,4,2,2,20,0,0
63696,-100,4,2,1,25,0,0
63787,-100,4,2,2,30,0,0
63878,-100,4,2,1,35,0,0
63969,-100,4,2,2,40,0,0
64060,-100,4,2,1,45,0,0
64151,-100,4,2,2,50,0,0
64242,-100,4,2,1,55,0,0
64333,-100,4,2,2,30,0,0

[Colours]
Combo1 : 133,65,73
Combo2 : 255,255,89
Combo3 : 120,7,11
Combo4 : 230,86,0

[HitObjects]
62,215,333,6,0,B|46:125|46:125|62:38,2,180,2|8|0,1:2|0:1|1:0,0:0:0:0:
224,327,2514,2,0,L|234:234,1,89.9999999999999,8|2,0:1|0:0,0:0:0:0:
291,156,3242,2,0,P|368:135|448:207,2,180,2|8|0,1:2|0:1|1:0,0:0:0:0:
22,344,6151,6,0,L|201:329,1,180,2|8,1:2|0:1,0:0:0:0:
265,253,7242,1,0,0:0:0:0:
320,335,7605,2,0,P|370:338|412:319,1,89.9999999999999,0|0,1:0|0:0,0:0:0:0:
451,234,8333,2,0,L|443:144,1,89.9999999999999,8|2,0:1|0:0,0:0:0:0:
374,72,9060,6,0,B|334:48|290:56|290:56|250:83|202:72,1,180,2|8,1:2|0:1,0:0:0:0:
120,15,10151,1,0,0:0:0:0:
41,74,10514,2,0,P|20:151|92:231,1,180,0|10,1:0|0:1,0:0:0:0:
245,120,11969,6,0,P|260:161|256:206,1,89.9999999999999,2|0,1:2|0:0,0:0:0:0:
312,288,12696,2,0,P|270:303|225:299,1,89.9999999999999,8|0,0:1|0:0,0:0:0:0:
144,356,13423,2,0,P|128:314|132:269,1,89.9999999999999,0|0,1:0|0:0,0:0:0:0:
77,188,14151,2,0,P|118:172|163:176,1,89.9999999999999,8|2,0:1|0:0,0:0:0:0:
256,206,14878,6,0,B|350:205|316:133|412:132,2,180,2|8|2,1:2|0:1|1:2,0:0:0:0:
123,34,18151,6,0,P|107:75|111:120,1,89.9999999999999,8|0,0:0|3:0,0:0:0:0:
183,187,18878,1,8,0:0:0:0:
276,157,19242,2,0,L|411:168,2,135,0|0|8,3:0|3:0|0:0,0:0:0:0:
204,90,20696,5,0,3:0:0:0:
111,120,21060,2,0,P|95:161|99:206,1,89.9999999999999,8|0,0:0|3:0,0:0:0:0:
161,283,21787,2,0,P|121:351|64:297,1,180,8|8,0:0|0:0,0:0:0:0:
99,206,22878,1,0,3:0:0:0:
29,135,23242,1,8,0:0:0:0:
221,182,23969,5,8,0:0:0:0:
259,91,24333,2,0,L|348:98,1,89.9999999999999,0|8,3:0|0:0,0:0:0:0:
403,181,25060,2,0,P|465:174|514:120,2,135,0|0|8,3:0|3:0|0:0,0:0:0:0:
348,98,26514,5,0,3:0:0:0:
268,157,26878,2,0,P|263:201|280:243,1,89.9999999999999,8|0,0:0|3:0,0:0:0:0:
367,288,27605,1,8,0:0:0:0:
284,342,27969,2,0,B|220:350|220:350|172:334|172:334|108:342,1,180,2|0,3:0|3:0,0:0:0:0:
26,285,29060,6,0,P|21:240|37:199,1,89.9999999999999,8|0,3:2|0:0,0:0:0:0:
121,146,29787,1,8,0:0:0:0:
188,218,30151,2,0,L|277:211,1,89.9999999999999,8|2,0:0|0:3,0:0:0:0:
364,258,30878,1,8,0:0:0:0:
419,175,31242,2,0,B|429:109|385:48|385:48|342:48|324:88,1,180,8|2,0:0|0:3,0:0:0:0:
261,117,32333,6,0,P|244:158|250:202,1,89.9999999999999,2|2,3:2|3:2,0:0:0:0:
281,296,33060,2,0,P|236:301|195:285,1,89.9999999999999,2|2,3:2|3:2,0:0:0:0:
139,61,35242,6,0,L|132:150,1,89.9999999999999,6|8,3:2|0:0,0:0:0:0:
152,247,35969,2,0,P|90:240|41:186,2,135,2|6|8,3:2|3:2|0:0,0:0:0:0:
226,182,37423,2,0,P|270:177|311:193,1,89.9999999999999,0|8,3:0|0:0,0:0:0:0:
364,277,38151,6,0,B|408:285|408:285|452:277,1,89.9999999999999,4|8,3:2|0:0,0:0:0:0:
497,188,38878,2,0,B|453:180|453:180|409:188,1,89.9999999999999,0|8,3:0|0:0,0:0:0:0:
311,193,39605,2,0,B|217:192|251:120|155:119,1,180,0|8,3:0|0:0,0:0:0:0:
57,127,40696,1,8,0:0:0:0:
101,38,41060,6,0,P|142:22|190:27,1,89.9999999999999,6|8,3:2|0:0,0:0:0:0:
278,61,41787,2,0,L|413:50,2,135,2|6|8,3:2|3:2|0:0,0:0:0:0:
203,124,43242,2,0,P|198:168|214:209,1,89.9999999999999,0|8,3:0|0:0,0:0:0:0:
290,272,43969,6,0,B|298:316|298:316|290:360,2,89.9999999999999,4|8|0,3:2|0:0|3:0,0:0:0:0:
214,209,45060,1,8,0:0:0:0:
138,146,45423,2,0,B|130:102|130:102|138:58,1,89.9999999999999,4|8,3:2|0:0,0:0:0:0:
224,8,46151,1,8,3:2:0:0:
284,86,46514,1,10,3:2:0:0:
365,31,46878,6,0,P|381:72|376:118,1,89.9999999999999,2|12,3:2|0:0,0:0:0:0:
305,184,47605,2,0,B|308:235|308:235|301:266|301:266|305:317,2,135,2|6|8,3:2|3:2|0:0,0:0:0:0:
233,114,49060,2,0,P|188:109|147:125,1,89.9999999999999,0|8,3:0|0:0,0:0:0:0:
95,209,49787,6,0,L|102:298,1,89.9999999999999,4|8,3:2|0:0,0:0:0:0:
200,302,50514,2,0,L|193:213,1,89.9999999999999,0|8,3:0|0:0,0:0:0:0:
147,125,51242,2,0,B|242:88|236:162|324:126,1,180,0|8,3:0|0:0,0:0:0:0:
382,49,52333,1,8,0:0:0:0:
452,119,52696,6,0,B|467:184|467:184|452:250,2,135,14|12|12,3:2|3:2|3:2,0:0:0:0:
382,49,54151,2,0,B|316:33|316:33|250:49,2,135,14|12|12,3:2|3:2|3:2,0:0:0:0:
256,192,55605,12,14,57060,3:2:0:0:
421,308,58514,6,0,P|376:312|335:296,1,89.9999999999999,12|12,3:2|3:2,0:0:0:0:
272,218,59242,2,0,L|137:229,2,135,8|12|0,0:0|3:2|3:0,0:0:0:0:
347,153,60696,2,0,P|351:108|335:67,1,89.9999999999999,8|12,0:0|3:2,0:0:0:0:
242,31,61423,6,0,L|153:38,1,89.9999999999999,12|12,3:2|3:2,0:0:0:0:
73,99,62151,2,0,B|57:164|57:164|73:230,1,135,8|12,0:0|3:2,0:0:0:0:
