osu file format v14

[General]
AudioFilename: audio.mp3
AudioLeadIn: 0
PreviewTime: 35151
Countdown: 0
SampleSet: Soft
StackLeniency: 0.7
Mode: 0
LetterboxInBreaks: 0
WidescreenStoryboard: 0

[Editor]
Bookmarks: 64196
DistanceSpacing: 0.6
BeatDivisor: 4
GridSize: 4
TimelineZoom: 1

[Metadata]
Title:20/20
TitleUnicode:20/20
Artist:ONE OK ROCK
ArtistUnicode:ONE OK ROCK
Creator:A r M i N
Version:Another
Source:
Tags:Fueled by Ramen OOR Ambitions Short A-Sketch Japanese ver. Komore schoolboy waku JenHideo _dt3 turtle armin a_r_m_i_n bite you death byd
BeatmapID:1541288
BeatmapSetID:730303

[Difficulty]
HPDrainRate:6
CircleSize:4.5
OverallDifficulty:8
ApproachRate:9
SliderMultiplier:1.8
SliderTickRate:1

[Events]
//Background and Video events
0,0,"sunlight.jpg",0,0
//Break Periods
//Storyboard Layer 0 (Background)
//Storyboard Layer 1 (Fail)
//Storyboard Layer 2 (Pass)
//Storyboard Layer 3 (Foreground)
//Storyboard Sound Samples

[TimingPoints]
333,363.636363636364,4,2,2,40,1,0
333,-133.333333333333,4,2,2,40,0,0
6151,-133.333333333333,4,2,2,50,0,0
16878,-133.333333333333,4,3,2,50,0,0
17787,-100,4,2,2,50,0,0
17969,-100,4,2,2,60,0,0
32333,-100,4,2,2,50,0,0
35242,-86.9565217391304,4,2,2,70,0,1
44878,-86.9565217391304,4,2,3,70,0,1
45060,-86.9565217391304,4,2,2,70,0,1
45242,-86.9565217391304,4,2,3,70,0,1
45423,-86.9565217391304,4,2,2,70,0,1
46787,-86.9565217391304,4,2,2,60,0,0
46878,-86.9565217391304,4,2,2,70,0,1
57060,-86.9565217391304,4,2,2,60,0,1
58514,-100,4,2,2,70,0,0
63060,-100,4,2,2,20,0,0
63242,-100,4,2,2,15,0,0
63423,-100,4,2,2,10,0,0
63514,-100,4,2,1,15,0,0
63605,-100,4,2,2,20,0,0
63696,-100,4,2,1,25,0,0
63787,-100,4,2,2,30,0,0
63878,-100,4,2,1,35,0,0
63969,-100,4,2,2,40,0,0
64060,-100,4,2,1,45,0,0
64151,-100,4,2,2,50,0,0
64242,-100,4,2,1,55,0,0
64333,-100,4,2,2,30,0,0

[Colours]
Combo1 : 133,65,73
Combo2 : 255,255,89
Combo3 : 120,7,11
Combo4 : 230,86,0

[HitObjects]
77,334,333,5,2,1:2:0:0:
77,334,514,2,0,L|213:317,1,135.000005149842,2|2,0:0|0:0,0:0:0:0:
346,211,1060,1,8,0:1:0:0:
397,280,1242,2,0,P|333:296|277:263,1,135.000005149842,2|2,0:0|0:0,0:0:0:0:
353,125,1787,5,0,1:0:0:0:
424,174,1969,1,2,0:0:0:0:
346,211,2151,1,0,0:0:0:0:
430,88,2333,2,0,P|484:113|509:182,1,135.000005149842,2|2,0:0|0:0,0:0:0:0:
461,252,2878,1,2,0:0:0:0:
424,174,3060,1,2,0:0:0:0:
465,342,3242,5,2,1:2:0:0:
465,342,3423,2,0,L|331:358,1,135.000005149842,2|2,0:0|0:0,0:0:0:0:
277,219,3969,1,8,0:1:0:0:
264,305,4151,2,0,L|130:288,1,135.000005149842,2|2,0:0|0:0,0:0:0:0:
54,248,4696,6,0,P|44:287|48:314,2,67.5000025749208,0|2|2,1:0|0:0|0:0,0:0:0:0:
130,206,5242,2,0,P|174:246|130:287,1,135.000005149842,2|2,0:0|0:0,0:0:0:0:
54,248,5787,2,0,P|44:214|50:174,1,67.5000025749208,2|0,0:0|0:0,0:0:0:0:
140,53,6151,5,2,1:2:0:0:
67,98,6333,1,2,0:0:0:0:
129,206,6514,2,0,L|137:139,1,67.5000025749208,0|2,0:0|0:0,0:0:0:0:
229,231,6878,2,0,L|212:97,1,135.000005149842,8|0,0:1|0:0,0:0:0:0:
140,53,7423,1,2,0:0:0:0:
95,126,7605,6,0,P|160:137|212:97,1,135.000005149842,0|0,1:0|0:0,0:0:0:0:
215,11,8151,1,2,0:0:0:0:
288,57,8333,2,0,B|334:68|334:68|385:57,2,101.250003862381,8|0|2,0:1|0:0|0:0,0:0:0:0:
140,53,9060,5,2,1:2:0:0:
211,97,9242,2,0,L|203:164,1,67.5000025749208,2|0,0:0|0:0,0:0:0:0:
150,232,9605,1,2,0:0:0:0:
270,219,9787,1,8,0:1:0:0:
225,354,9969,2,0,L|217:287,1,67.5000025749208,2|0,0:0|0:0,0:0:0:0:
349,184,10333,6,0,P|349:250|304:298,1,135.000005149842,2|2,0:0|0:0,0:0:0:0:
216,286,10878,1,2,0:0:0:0:
207,199,11060,2,0,P|240:202|270:219,1,67.5000025749208,2|10,0:0|0:1,0:0:0:0:
159,378,11423,2,0,B|126:291|126:291|138:251,1,135.000005149842,2|2,0:0|0:0,0:0:0:0:
198,113,11969,5,2,1:2:0:0:
129,165,12151,1,2,0:0:0:0:
276,148,12333,2,0,P|284:112|276:77,1,67.5000025749208,0|2,0:0|0:0,0:0:0:0:
208,201,12696,2,0,P|202:234|210:266,1,67.5000025749208,8|2,0:1|0:0,0:0:0:0:
357,284,13060,1,0,0:0:0:0:
289,232,13242,1,2,0:0:0:0:
279,318,13423,5,0,1:0:0:0:
210,266,13605,1,2,0:0:0:0:
200,352,13787,1,0,0:0:0:0:
289,232,13969,1,2,0:0:0:0:
348,370,14151,1,8,0:1:0:0:
210,266,14333,2,0,L|76:283,1,135.000005149842,2|2,0:0|0:0,0:0:0:0:
76,108,14878,5,2,1:2:0:0:
143,187,15060,2,0,L|76:195,1,67.5000025749208,2|0,0:0|0:0,0:0:0:0:
3,240,15423,1,2,0:0:0:0:
76,108,15605,1,8,0:1:0:0:
143,274,15787,2,0,L|210:265,1,67.5000025749208,2|0,0:0|0:0,0:0:0:0:
237,114,16151,6,0,L|229:181,1,67.5000025749208,2|2,0:0|1:2,0:0:0:0:
300,307,16514,2,0,L|292:240,1,67.5000025749208,0|0,0:0|0:0,0:0:0:0:
155,138,16878,2,0,L|146:205,1,67.5000025749208,0|0,0:0|0:0,0:0:0:0:
374,264,17242,2,0,L|349:62,1,202.500007724762,0|2,0:0|0:3,0:0:0:0:
135,15,17969,5,4,3:2:0:0:
65,148,18151,2,0,L|155:137,1,90,8|0,0:0|3:0,0:0:0:0:
321,206,18514,2,0,L|231:195,1,90,0|0,3:0|3:0,0:0:0:0:
144,232,18878,1,8,0:0:0:0:
216,65,19060,1,0,3:0:0:0:
220,290,19242,5,0,3:0:0:0:
317,119,19423,2,0,P|329:167|320:206,1,90,0|8,3:0|0:0,0:0:0:0:
133,111,19787,2,0,P|121:63|130:24,1,90,0|0,0:0|3:0,0:0:0:0:
234,167,20151,1,0,3:0:0:0:
41,134,20333,1,8,0:0:0:0:
223,72,20514,1,8,0:3:0:0:
223,72,20605,1,8,0:3:0:0:
223,72,20696,1,0,3:0:0:0:
106,243,20878,6,0,B|98:287|98:287|106:331,1,90,0|8,3:0|0:0,0:0:0:0:
320,294,21242,2,0,B|328:250|328:250|320:206,1,90,0|0,3:0|3:0,0:0:0:0:
156,95,21605,1,0,3:0:0:0:
236,250,21787,1,8,0:0:0:0:
316,68,21969,6,0,B|369:41|369:41|486:69,1,180,0|0,3:0|3:0,0:0:0:0:
459,265,22514,1,8,0:0:0:0:
381,143,22696,2,0,L|370:233,1,90,0|0,3:0|3:0,0:0:0:0:
508,347,23060,1,8,0:0:0:0:
291,285,23242,1,8,0:0:0:0:
473,170,23423,1,8,0:0:0:0:
473,170,23787,5,4,3:2:0:0:
316,68,23969,1,8,0:0:0:0:
370,232,24151,1,0,3:0:0:0:
512,82,24333,2,0,B|468:74|468:74|424:82,1,90,0|0,3:0|3:0,0:0:0:0:
459,267,24696,1,8,0:0:0:0:
347,139,24878,1,0,3:0:0:0:
239,277,25060,5,0,3:0:0:0:
370,232,25242,1,0,3:0:0:0:
261,98,25423,2,0,P|252:141|264:184,1,90,8|0,0:0|0:0,0:0:0:0:
444,172,25787,1,0,3:0:0:0:
340,44,25969,1,0,3:0:0:0:
370,232,26151,1,8,0:0:0:0:
431,89,26333,1,8,0:3:0:0:
431,89,26423,1,8,0:3:0:0:
431,89,26514,1,0,3:0:0:0:
430,307,26696,5,0,3:0:0:0:
347,139,26878,1,8,0:0:0:0:
240,275,27060,2,0,L|150:264,1,90,0|0,3:0|3:0,0:0:0:0:
325,232,27423,2,0,L|415:221,1,90,0|8,3:0|0:0,0:0:0:0:
277,47,27787,6,0,P|213:101|244:178,1,180,0|0,3:0|3:0,0:0:0:0:
431,89,28333,1,8,0:3:0:0:
368,277,28514,1,0,3:0:0:0:
327,130,28696,1,0,3:0:0:0:
284,360,28878,5,8,3:2:0:0:
403,189,29060,1,8,3:2:0:0:
233,69,29242,6,0,B|177:118|212:198|212:198|245:178,1,180,4|0,3:2|3:0,0:0:0:0:
368,277,29787,2,0,L|278:266,1,90,8|0,0:0|3:0,0:0:0:0:
129,371,30151,2,0,P|157:336|197:318,1,90,8|0,0:0|3:0,0:0:0:0:
284,360,30514,1,2,0:3:0:0:
284,360,30696,1,0,3:0:0:0:
194,222,30878,6,0,L|104:233,1,90,8|0,0:0|3:0,0:0:0:0:
233,134,31242,2,0,L|288:207,1,90,8|0,0:0|3:0,0:0:0:0:
139,143,31605,1,2,0:3:0:0:
139,143,31787,2,0,L|174:59,1,90,8|2,0:0|0:3,0:0:0:0:
194,222,32151,1,8,0:0:0:0:
314,82,32333,5,2,3:2:0:0:
233,134,32514,1,0,0:0:0:0:
400,126,32696,5,2,3:2:0:0:
319,178,32877,1,0,0:0:0:0:
404,222,33060,5,2,3:2:0:0:
323,274,33241,1,0,0:0:0:0:
490,266,33423,5,2,3:2:0:0:
409,318,33604,1,0,0:0:0:0:
256,192,33787,12,0,35060,0:0:0:0:
36,140,35242,6,0,B|136:184|136:96|236:140,1,207.000003948212,6|8,3:2|0:0,0:0:0:0:
353,278,35787,1,0,3:0:0:0:
185,223,35969,1,2,3:2:0:0:
408,131,36151,1,8,0:0:0:0:
235,139,36333,1,10,0:0:0:0:
476,204,36514,6,0,B|510:147|510:147|475:10,1,207.000003948212,6|0,3:2|3:0,0:0:0:0:
307,105,37060,2,0,L|407:130,1,103.500001974106,8|0,0:0|3:0,0:0:0:0:
445,295,37423,1,0,3:0:0:0:
338,196,37605,1,2,3:2:0:0:
475,63,37787,1,8,0:0:0:0:
496,95,37878,1,8,0:2:0:0:
503,133,37969,1,10,0:2:0:0:
494,171,38060,1,8,0:2:0:0:
470,202,38150,5,4,3:2:0:0:
307,105,38333,1,2,3:2:0:0:
344,320,38514,2,0,L|444:295,1,103.500001974106,8|2,0:0|3:2,0:0:0:0:
407,130,38878,1,0,3:0:0:0:
259,250,39060,1,2,3:2:0:0:
213,91,39242,1,8,0:0:0:0:
12,196,39423,6,0,B|146:232|146:232|180:221|191:184,1,207.000003948212,2|0,3:2|3:0,0:0:0:0:
407,130,39969,2,0,L|307:105,1,103.500001974106,10|2,0:0|3:2,0:0:0:0:
259,250,40333,5,8,0:0:0:0:
476,197,40514,1,2,3:2:0:0:
213,91,40696,5,8,0:0:0:0:
385,223,40878,1,0,3:0:0:0:
186,339,41060,6,0,P|273:379|336:306,1,207.000003948212,6|8,3:2|0:0,0:0:0:0:
189,184,41605,1,0,3:0:0:0:
407,130,41787,1,2,3:2:0:0:
259,250,41969,1,8,0:0:0:0:
453,291,42151,1,10,0:0:0:0:
316,100,42333,6,0,B|176:118|176:118|243:150,1,207.000003948212,6|0,3:2|3:0,0:0:0:0:
335,306,42878,2,0,P|354:258|344:207,1,103.500001974106,8|0,0:0|3:0,0:0:0:0:
170,217,43242,1,0,3:0:0:0:
259,250,43423,1,2,3:2:0:0:
95,275,43605,1,8,0:0:0:0:
77,240,43695,1,8,0:2:0:0:
76,201,43786,1,10,0:2:0:0:
89,165,43877,1,8,0:2:0:0:
116,137,43968,5,4,3:2:0:0:
259,250,44151,1,2,3:0:0:0:
236,31,44333,2,0,L|211:131,1,103.500001974106,8|2,0:0|3:0,0:0:0:0:
348,283,44696,1,0,3:0:0:0:
170,217,44878,1,6,3:0:0:0:
397,201,45060,2,0,P|434:242|442:297,1,103.500001974106,8|6,0:0|3:3,0:0:0:0:
259,250,45423,5,4,3:2:0:0:
382,106,45605,1,2,3:0:0:0:
348,283,45787,2,0,P|312:330|269:346,1,103.500001974106,8|2,0:0|3:0,0:0:0:0:
30,162,46151,5,8,3:2:0:0:
259,250,46333,1,8,3:2:0:0:
70,249,46514,5,10,3:2:0:0:
310,169,46696,1,8,3:2:0:0:
159,20,46878,6,0,B|192:161|192:161|159:214,1,207.000003948212,2|12,3:2|0:0,0:0:0:0:
56,344,47423,1,0,3:0:0:0:
84,154,47605,1,2,3:2:0:0:
259,250,47787,1,8,0:0:0:0:
70,249,47969,1,10,0:0:0:0:
310,169,48151,6,0,B|372:249|372:249|303:338,1,207.000003948212,6|0,3:2|3:0,0:0:0:0:
125,379,48696,2,0,P|163:344|213:334,1,103.500001974106,8|0,0:0|3:0,0:0:0:0:
372,248,49060,1,0,3:0:0:0:
135,167,49242,1,2,3:2:0:0:
288,16,49424,1,8,0:0:0:0:
294,53,49514,1,8,0:2:0:0:
299,92,49605,1,10,0:2:0:0:
305,130,49696,1,8,0:2:0:0:
310,169,49787,5,4,3:2:0:0:
215,336,49969,1,2,3:2:0:0:
146,125,50151,2,0,L|121:225,1,103.500001974106,8|2,0:0|3:2,0:0:0:0:
294,282,50514,1,0,3:0:0:0:
121,321,50696,1,2,3:2:0:0:
310,169,50878,1,8,0:0:0:0:
61,167,51060,6,0,P|68:68|158:29,1,207.000003948212,6|2,3:2|3:2,0:0:0:0:
340,111,51605,2,0,L|240:136,1,103.500001974106,8|2,0:0|3:2,0:0:0:0:
120,320,51969,2,0,P|157:355|208:366,1,103.500001974106,8|2,0:0|3:2,0:0:0:0:
240,137,52333,1,8,0:0:0:0:
201,271,52514,1,0,3:0:0:0:
189,56,52696,5,14,3:2:0:0:
383,198,52878,2,0,L|283:223,1,103.500001974106,0|0,3:0|3:0,0:0:0:0:
418,36,53242,1,12,3:2:0:0:
475,221,53423,2,0,P|474:170|446:126,1,103.500001974106,2|0,3:2|3:0,0:0:0:0:
201,271,53787,2,0,P|202:322|229:365,1,103.500001974106,12|0,3:2|3:0,0:0:0:0:
383,198,54151,5,14,3:2:0:0:
189,56,54333,2,0,B|177:107|177:107|189:155,1,103.500001974106,0|0,3:0|3:0,0:0:0:0:
418,36,54696,1,12,3:2:0:0:
295,207,54878,2,0,L|270:107,1,103.500001974106,2|0,3:2|3:0,0:0:0:0:
474,168,55242,2,0,L|449:268,1,103.500001974106,12|0,3:2|3:0,0:0:0:0:
193,330,55605,6,0,P|244:329|288:302,1,103.500001974106,14|0,3:2|3:0,0:0:0:0:
471,363,55969,2,0,P|419:361|376:334,1,103.500001974106,12|0,3:2|3:0,0:0:0:0:
291,178,56333,1,14,3:2:0:0:
257,159,56423,1,8,0:0:0:0:
218,157,56514,1,8,0:3:0:0:
183,172,56605,1,8,0:3:0:0:
157,200,56696,1,0,3:0:0:0:
137,223,56787,1,0,3:0:0:0:
108,235,56878,1,0,3:0:0:0:
78,233,56969,1,0,3:0:0:0:
53,220,57060,5,14,3:2:0:0:
294,109,58514,6,0,L|305:19,1,90,12|0,3:2|0:0,0:0:0:0:
167,173,58878,2,0,L|178:263,1,90,12|0,3:2|0:0,0:0:0:0:
364,253,59242,1,8,0:0:0:0:
349,222,59333,1,8,0:0:0:0:
324,201,59424,1,8,0:0:0:0:
292,192,59515,1,8,0:0:0:0:
259,198,59605,1,12,3:2:0:0:
149,354,59787,6,0,P|200:356|241:335,1,90,12|0,3:2|0:0,0:0:0:0:
167,173,60151,2,0,P|116:171|75:192,1,90,12|0,3:2|0:0,0:0:0:0:
364,253,60696,5,8,0:0:0:0:
368,219,60786,1,8,0:0:0:0:
372,185,60877,1,8,0:0:0:0:
376,152,60968,1,8,0:0:0:0:
381,119,61060,2,0,L|370:29,1,90,12|0,3:2|0:0,0:0:0:0:
203,192,61423,6,0,B|247:200|247:200|291:192,1,90,12|0,3:2|0:0,0:0:0:0:
198,25,61787,2,0,B|154:17|154:17|110:25,1,90,12|0,3:2|0:0,0:0:0:0:
49,176,62151,1,8,0:0:0:0:
65,146,62242,1,8,0:0:0:0:
90,124,62333,1,8,0:0:0:0:
121,111,62424,1,8,0:0:0:0:
154,110,62514,1,12,3:2:0:0:
364,253,62696,5,12,3:2:0:0:
256,192,62878,12,0,64196,0:0:0:0:
