osu file format v14

[General]
AudioFilename: audio.mp3
AudioLeadIn: 0
PreviewTime: 35151
Countdown: 0
SampleSet: None
StackLeniency: 0.4
Mode: 0
LetterboxInBreaks: 0
WidescreenStoryboard: 0

[Editor]
Bookmarks: 64196
DistanceSpacing: 0.2
BeatDivisor: 2
GridSize: 4
TimelineZoom: 1

[Metadata]
Title:20/20
TitleUnicode:20/20
Artist:ONE OK ROCK
ArtistUnicode:ONE OK ROCK
Creator:A r M i N
Version:schoolboy's Extra
Source:
Tags:Fueled by Ramen OOR Ambitions Short A-Sketch Japanese ver. Komore schoolboy waku JenHideo _dt3 turtle armin a_r_m_i_n bite you death byd
BeatmapID:1541293
BeatmapSetID:730303

[Difficulty]
HPDrainRate:6
CircleSize:4
OverallDifficulty:8.7
ApproachRate:9.2
SliderMultiplier:1.8
SliderTickRate:1

[Events]
//Background and Video events
0,0,"sunlight.jpg",0,0
//Break Periods
//Storyboard Layer 0 (Background)
//Storyboard Layer 1 (Fail)
//Storyboard Layer 2 (Pass)
//Storyboard Layer 3 (Foreground)
//Storyboard Sound Samples

[TimingPoints]
333,363.636363636364,4,2,2,40,1,0
333,-133.333333333333,4,2,2,40,0,0
6151,-133.333333333333,4,2,2,50,0,0
16605,-200,4,2,2,50,0,0
16878,-200,4,3,2,30,0,0
17787,-100,4,2,2,50,0,0
17969,-100,4,2,2,60,0,0
29242,-133.333333333333,4,2,2,60,0,0
32333,-133.333333333333,4,2,2,50,0,0
33787,-200,4,2,2,50,0,0
35242,-83.3333333333333,4,2,2,70,0,1
35514,-83.3333333333333,4,2,2,30,0,1
35605,-100,4,2,2,70,0,1
43605,-76.9230769230769,4,2,2,70,0,1
44878,-76.9230769230769,4,2,3,70,0,1
45060,-76.9230769230769,4,2,2,70,0,1
45242,-76.9230769230769,4,2,3,70,0,1
45423,-76.9230769230769,4,2,2,70,0,1
46787,-83.3333333333333,4,2,2,60,0,0
46878,-83.3333333333333,4,2,2,70,0,1
47151,-83.3333333333333,4,2,2,30,0,1
47242,-100,4,2,2,70,0,1
53787,-83.3333333333333,4,2,2,70,0,1
57060,-200,4,2,2,60,0,0
58514,-111.111111111111,4,2,2,70,0,0
63060,-111.111111111111,4,2,2,20,0,0
63242,-111.111111111111,4,2,2,15,0,0
63423,-111.111111111111,4,2,2,10,0,0
63514,-111.111111111111,4,2,1,15,0,0
63605,-111.111111111111,4,2,2,20,0,0
63696,-111.111111111111,4,2,1,25,0,0
63787,-111.111111111111,4,2,2,30,0,0
63878,-111.111111111111,4,2,1,35,0,0
63969,-111.111111111111,4,2,2,40,0,0
64060,-111.111111111111,4,2,1,45,0,0
64151,-111.111111111111,4,2,2,50,0,0
64242,-111.111111111111,4,2,1,55,0,0
64333,-111.111111111111,4,2,2,30,0,0

[Colours]
Combo1 : 133,65,73
Combo2 : 255,255,89
Combo3 : 120,7,11
Combo4 : 230,86,0

[HitObjects]
0,236,333,5,2,1:2:0:0:
0,236,514,2,0,P|35:231|78:216,1,67.5000025749208,2|0,0:0|0:0,0:0:0:0:
156,161,878,1,2,0:0:0:0:
156,161,1060,2,0,L|248:177,1,67.5000025749208,8|2,0:1|0:0,0:0:0:0:
331,305,1605,5,2,0:0:0:0:
331,305,1787,2,0,P|325:272|319:238,1,67.5000025749208,0|2,1:0|0:0,0:0:0:0:
435,155,2151,1,0,0:0:0:0:
435,155,2333,2,0,P|428:190|418:245,1,67.5000025749208,2|8,0:0|0:1,0:0:0:0:
343,107,2696,1,2,0:0:0:0:
447,65,2878,2,0,P|482:72|537:85,1,67.5000025749208,2|2,0:0|0:0,0:0:0:0:
343,107,3242,5,2,1:2:0:0:
343,107,3423,2,0,L|330:30,1,67.5000025749208,2|0,0:0|0:0,0:0:0:0:
224,128,3787,1,2,0:0:0:0:
224,128,3969,2,0,P|217:162|211:205,1,67.5000025749208,8|2,0:1|0:0,0:0:0:0:
263,362,4514,5,2,0:0:0:0:
263,362,4696,2,0,P|319:350|337:347,1,67.5000025749208,0|2,1:0|0:0,0:0:0:0:
461,384,5060,1,2,0:0:0:0:
461,384,5242,2,0,P|470:324|403:287,1,135.000005149842,2|2,0:0|0:0,0:0:0:0:
314,202,5787,2,0,L|326:273,1,67.5000025749208,2|0,0:0|0:0,0:0:0:0:
423,163,6151,5,2,1:2:0:0:
423,163,6333,1,2,0:0:0:0:
409,64,6514,2,0,P|444:77|485:85,1,67.5000025749208,0|2,0:0|0:0,0:0:0:0:
323,132,6878,2,0,P|239:149|166:165,1,135.000005149842,8|0,0:1|0:0,0:0:0:0:
114,110,7423,1,2,0:0:0:0:
81,230,7605,6,0,P|56:183|114:119,1,135.000005149842,0|0,1:0|0:0,0:0:0:0:
261,54,8151,1,2,0:0:0:0:
173,20,8333,2,0,P|180:58|192:120,1,90.0000034332277,8|0,0:1|0:0,0:0:0:0:
176,128,8878,1,2,0:0:0:0:
15,254,9060,5,2,1:2:0:0:
15,254,9242,2,0,P|52:246|91:239,1,67.5000025749208,2|0,0:0|0:0,0:0:0:0:
201,201,9605,2,0,P|194:234|186:282,1,67.5000025749208,2|8,0:0|0:1,0:0:0:0:
99,150,9969,2,0,P|88:112|96:60,1,67.5000025749208,2|0,0:0|0:0,0:0:0:0:
163,16,10333,1,2,0:0:0:0:
298,152,10514,6,0,P|335:174|421:148,1,135.000005149842,0|2,1:0|0:0,0:0:0:0:
371,23,11060,2,0,P|364:55|353:109,1,67.5000025749208,2|10,0:0|0:1,0:0:0:0:
504,151,11423,1,2,0:0:0:0:
504,151,11514,1,0,0:0:0:0:
504,151,11605,2,0,P|497:109|478:86,1,67.5000025749208,2|2,0:0|0:0,0:0:0:0:
489,243,11969,5,2,1:2:0:0:
489,243,12151,1,2,0:0:0:0:
416,149,12333,2,0,P|409:182|398:244,1,67.5000025749208,0|2,0:0|0:0,0:0:0:0:
284,331,12696,2,0,P|324:304|394:320,1,101.250003862381,8|0,0:1|0:0,0:0:0:0:
387,317,13060,5,0,0:0:0:0:
489,243,13242,1,2,0:0:0:0:
342,186,13423,5,0,1:0:0:0:
475,344,13605,1,2,0:0:0:0:
296,368,13787,6,0,P|307:316|306:284,1,67.5000025749208,0|2,0:0|0:0,0:0:0:0:
413,194,14151,2,0,P|454:197|488:251,1,90.0000034332277,8|0,0:1|0:0,0:0:0:0:
483,255,14696,1,2,0:0:0:0:
313,155,14878,5,2,1:2:0:0:
313,155,15060,2,0,L|328:232,1,67.5000025749208,2|0,0:0|0:0,0:0:0:0:
473,125,15423,2,0,P|431:124|398:110,1,67.5000025749208,2|8,0:0|0:1,0:0:0:0:
302,45,15787,2,0,P|238:59|151:78,1,135.000005149842,2|2,0:0|0:0,0:0:0:0:
15,247,16333,5,2,1:2:0:0:
145,178,16514,1,0,0:0:0:0:
47,129,16696,1,0,0:0:0:0:
155,315,16878,6,0,B|277:344|240:240|371:277,1,225,0|2,0:0|0:3,0:0:0:0:
435,359,17969,5,4,3:2:0:0:
292,217,18151,2,0,P|304:172|323:123,1,90,8|0,0:0|3:0,0:0:0:0:
407,64,18514,1,0,3:0:0:0:
191,151,18696,1,0,3:0:0:0:
421,248,18878,2,0,P|468:261|522:228,1,90,8|0,0:0|3:0,0:0:0:0:
268,69,19242,5,0,3:0:0:0:
421,248,19423,1,0,3:0:0:0:
197,172,19605,1,8,0:0:0:0:
376,78,19787,2,0,P|370:122|364:167,1,90,0|0,0:0|3:0,0:0:0:0:
244,340,20151,2,0,P|229:291|266:246,1,90,0|8,3:0|0:0,0:0:0:0:
446,156,20514,1,8,0:3:0:0:
454,158,20605,1,8,0:3:0:0:
462,160,20696,5,0,3:0:0:0:
325,60,20878,2,0,P|268:74|230:76,1,90,0|8,3:0|0:0,0:0:0:0:
89,183,21242,2,0,P|32:169|-6:167,1,90,0|0,3:0|3:0,0:0:0:0:
237,77,21605,1,0,3:0:0:0:
167,267,21787,1,8,0:0:0:0:
370,384,21969,6,0,P|402:316|325:238,1,180,0|0,3:0|3:0,0:0:0:0:
207,117,22514,2,0,L|222:225,1,90,8|0,0:0|3:0,0:0:0:0:
239,319,22878,1,0,3:0:0:0:
336,92,23060,1,8,0:0:0:0:
89,208,23242,1,8,0:0:0:0:
352,341,23423,1,8,0:0:0:0:
352,341,23787,5,4,3:2:0:0:
256,141,23969,1,8,0:0:0:0:
440,219,24151,1,0,3:0:0:0:
248,367,24333,2,0,P|232:294|253:263,1,90,0|0,3:0|3:0,0:0:0:0:
375,134,24696,5,8,0:0:0:0:
318,321,24878,1,0,3:0:0:0:
113,224,25060,2,0,P|157:212|210:199,1,90,0|0,3:0|3:0,0:0:0:0:
86,329,25423,5,8,0:0:0:0:
179,104,25605,1,0,0:0:0:0:
350,235,25787,2,0,P|403:236|456:202,1,90,0|0,3:0|3:0,0:0:0:0:
278,131,26151,1,8,0:0:0:0:
202,335,26333,1,8,0:3:0:0:
204,344,26423,1,8,0:3:0:0:
206,353,26514,5,0,3:0:0:0:
17,252,26696,2,0,P|52:225|96:224,1,90,0|8,3:0|0:0,0:0:0:0:
278,131,27060,2,0,P|242:104|198:103,1,90,0|0,3:0|3:0,0:0:0:0:
62,18,27423,2,0,L|76:106,1,90,0|8,3:0|0:0,0:0:0:0:
97,225,27787,1,0,3:0:0:0:
265,44,27969,5,2,3:0:0:0:
194,262,28151,1,0,3:0:0:0:
393,190,28333,1,8,0:3:0:0:
160,89,28514,1,0,3:0:0:0:
316,339,28696,1,0,3:0:0:0:
265,44,28878,5,8,3:2:0:0:
204,378,29060,1,8,3:2:0:0:
41,52,29242,6,0,P|48:107|59:185,1,135,4|0,3:2|3:0,0:0:0:0:
158,133,29787,2,0,P|172:102|171:69,1,67.5000025749208,8|0,0:0|3:0,0:0:0:0:
101,278,30151,2,0,P|169:245|227:258,1,135.000005149842,8|2,0:0|0:3,0:0:0:0:
298,315,30696,1,0,3:0:0:0:
372,190,30878,6,0,P|379:224|385:256,1,67.5000025749208,8|0,0:0|3:0,0:0:0:0:
292,379,31242,2,0,P|286:348|301:310,1,67.5000025749208,8|0,0:0|3:0,0:0:0:0:
385,256,31605,1,2,0:3:0:0:
214,187,31787,1,8,0:0:0:0:
308,99,31969,2,0,L|298:174,1,67.5000025749208,2|8,0:3|0:0,0:0:0:0:
185,349,32333,5,2,3:2:0:0:
334,268,32514,1,0,0:0:0:0:
178,268,32696,5,2,3:2:0:0:
327,349,32877,1,0,0:0:0:0:
185,349,33060,5,2,3:2:0:0:
334,268,33241,1,0,0:0:0:0:
178,268,33423,5,2,3:2:0:0:
327,349,33604,1,0,0:0:0:0:
280,53,33787,6,0,B|262:150|262:150|258:149|258:149|262:150|262:150|246:247|300:267|358:243|338:161|288:193,1,315,0|0,0:0|0:0,0:0:0:0:
288,192,35242,6,0,P|200:209|101:230,1,161.999995056153,6|0,3:2|0:0,0:0:0:0:
45,121,35605,2,0,P|93:129|149:139,1,90,8|0,0:0|3:0,0:0:0:0:
244,38,35969,1,2,3:2:0:0:
26,214,36151,1,8,0:0:0:0:
268,304,36333,1,10,0:0:0:0:
481,199,36514,6,0,P|436:153|322:187,1,180,6|0,3:2|3:0,0:0:0:0:
142,57,37060,2,0,P|189:70|251:70,1,90,8|0,0:0|3:0,0:0:0:0:
337,0,37423,1,0,3:0:0:0:
219,167,37605,1,2,3:2:0:0:
392,270,37787,1,8,0:0:0:0:
416,233,37877,1,8,0:2:0:0:
419,188,37968,1,10,0:2:0:0:
398,149,38059,1,8,0:2:0:0:
360,126,38150,5,4,3:2:0:0:
317,347,38333,2,0,P|389:365|405:370,1,90,2|8,3:2|0:0,0:0:0:0:
177,241,38696,2,0,P|7:275|-13:278,1,180,2|2,3:2|3:2,0:0:0:0:
80,159,39242,1,8,0:0:0:0:
260,308,39423,6,0,P|291:237|221:153,1,180,2|0,3:2|3:0,0:0:0:0:
64,328,39969,2,0,P|113:311|161:313,1,90,10|2,0:0|3:2,0:0:0:0:
381,363,40333,5,8,0:0:0:0:
106,193,40514,1,2,3:2:0:0:
406,193,40696,5,8,0:0:0:0:
131,363,40877,1,0,3:0:0:0:
262,199,41060,6,0,P|247:100|233:3,1,180,6|8,3:2|0:0,0:0:0:0:
344,119,41605,1,0,3:0:0:0:
164,253,41787,2,0,P|147:209|179:159,1,90,2|8,3:2|0:0,0:0:0:0:
389,274,42151,1,10,0:0:0:0:
195,371,42333,6,0,B|92:404|113:324|-5:370,1,180,6|0,3:2|3:0,0:0:0:0:
164,253,42878,1,8,0:0:0:0:
33,176,43060,2,0,P|41:217|51:268,1,90,0|0,3:0|3:0,0:0:0:0:
192,131,43423,1,2,3:2:0:0:
115,39,43605,6,0,P|112:73|105:109,1,58.4999973220826,8|8,0:0|0:2,0:0:0:0:
264,236,43787,2,0,P|267:202|274:166,1,58.4999973220826,10|8,0:2|0:2,0:0:0:0:
361,68,43969,5,4,3:2:0:0:
147,219,44151,1,2,3:0:0:0:
368,289,44333,1,8,0:0:0:0:
245,69,44514,1,2,3:0:0:0:
194,353,44696,1,0,3:0:0:0:
347,172,44878,1,6,3:0:0:0:
141,71,45060,5,8,0:0:0:0:
307,250,45242,1,6,3:3:0:0:
387,47,45424,1,4,3:2:0:0:
147,219,45606,1,2,3:0:0:0:
403,344,45787,1,8,0:0:0:0:
241,198,45969,1,2,3:0:0:0:
387,47,46151,5,8,3:2:0:0:
124,142,46333,1,8,3:2:0:0:
452,267,46514,1,10,3:2:0:0:
107,384,46696,1,8,3:2:0:0:
325,371,46878,6,0,P|359:301|321:233,1,161.999995056153,2|0,3:2|0:0,0:0:0:0:
209,182,47242,2,0,P|216:223|225:275,1,90,12|0,0:0|0:0,0:0:0:0:
323,125,47605,1,2,3:2:0:0:
95,259,47787,1,8,0:0:0:0:
325,371,47969,1,10,0:0:0:0:
190,147,48151,6,0,P|104:168|10:189,1,180,6|0,3:2|3:0,0:0:0:0:
201,288,48696,2,0,P|240:300|298:305,1,90,8|0,0:0|3:0,0:0:0:0:
490,134,49060,1,0,3:0:0:0:
307,205,49242,1,2,3:2:0:0:
438,372,49423,1,8,0:0:0:0:
467,339,49513,1,8,0:2:0:0:
477,295,49604,1,10,0:2:0:0:
463,253,49695,1,8,0:2:0:0:
430,223,49786,5,4,3:2:0:0:
239,342,49969,2,0,P|292:351|359:370,1,90,2|8,3:2|0:0,0:0:0:0:
166,212,50333,2,0,P|106:268|-15:265,1,180,2|2,3:2|3:2,0:0:0:0:
52,163,50878,1,8,0:0:0:0:
239,342,51060,6,0,P|253:248|270:150,1,180,6|2,3:2|3:2,0:0:0:0:
126,45,51605,2,0,L|150:166,1,90,8|2,0:0|3:2,0:0:0:0:
355,319,51969,5,8,0:0:0:0:
413,90,52151,1,2,3:2:0:0:
362,329,52333,5,8,0:0:0:0:
424,84,52515,1,0,3:0:0:0:
143,133,52696,5,14,3:2:0:0:
233,330,52878,1,0,3:0:0:0:
328,61,53060,1,0,3:0:0:0:
202,248,53242,5,12,3:2:0:0:
170,53,53423,1,2,3:2:0:0:
321,302,53605,1,0,3:0:0:0:
21,226,53787,2,0,P|77:213|134:199,1,107.999996704102,12|0,3:2|3:0,0:0:0:0:
252,59,54151,5,14,3:2:0:0:
490,207,54333,1,0,3:0:0:0:
242,339,54514,1,0,3:0:0:0:
418,69,54696,5,12,3:2:0:0:
397,347,54878,1,2,3:2:0:0:
164,191,55059,1,0,3:0:0:0:
372,142,55242,2,0,P|363:188|348:264,1,107.999996704102,12|0,3:2|3:0,0:0:0:0:
128,282,55605,5,14,3:2:0:0:
452,192,55787,1,0,3:0:0:0:
128,102,55969,5,12,3:2:0:0:
464,192,56151,1,0,3:0:0:0:
263,384,56333,6,0,P|259:357|248:323,1,53.9999983520508,14|8,3:2|0:0,0:0:0:0:
377,239,56514,2,0,P|370:272|364:308,1,53.9999983520508,8|8,0:3|0:3,0:0:0:0:
270,213,56696,6,0,P|260:187|259:161,1,53.9999983520508,0|0,3:0|3:0,0:0:0:0:
412,58,56878,2,0,P|413:82|403:119,1,53.9999983520508,0|0,3:0|3:0,0:0:0:0:
276,16,57060,6,0,B|219:5|168:53|168:53|168:40|168:40|168:53|168:53|126:92|62:105|42:71|73:12|119:58,1,315,14|0,3:2|0:0,0:0:0:0:
107,48,58514,6,0,P|100:104|91:180,1,121.499996292114,12|0,3:2|0:0,0:0:0:0:
174,218,58878,2,0,P|189:171|174:141,1,80.9999975280763,12|0,3:2|0:0,0:0:0:0:
64,291,59242,1,8,0:0:0:0:
76,289,59333,1,8,0:0:0:0:
87,287,59423,1,8,0:0:0:0:
99,285,59514,1,8,0:0:0:0:
111,283,59605,1,12,3:2:0:0:
186,373,59787,6,0,P|196:313|208:285,1,80.9999975280763,12|0,3:2|0:0,0:0:0:0:
85,122,60151,2,0,P|96:193|111:286,1,161.999995056153,12|0,3:2|0:0,0:0:0:0:
308,366,60696,1,8,0:0:0:0:
330,333,60786,1,8,0:0:0:0:
335,293,60877,1,8,0:0:0:0:
320,255,60968,1,8,0:0:0:0:
290,229,61060,2,0,P|363:242|433:254,1,121.499996292114,12|0,3:2|0:0,0:0:0:0:
461,149,61423,6,0,P|421:158|373:171,1,80.9999975280763,12|0,3:2|0:0,0:0:0:0:
255,61,61787,2,0,P|309:71|344:110,1,80.9999975280763,12|0,3:2|0:0,0:0:0:0:
262,154,62151,1,8,0:0:0:0:
234,160,62242,1,8,0:0:0:0:
206,166,62332,1,8,0:0:0:0:
178,173,62423,1,8,0:0:0:0:
150,180,62514,1,12,3:2:0:0:
7,51,62696,5,12,3:2:0:0:
256,192,62878,12,0,64196,0:0:0:0:
