osu file format v14

[General]
AudioFilename: audio.mp3
AudioLeadIn: 0
PreviewTime: 35151
Countdown: 0
SampleSet: Soft
StackLeniency: 0.7
Mode: 0
LetterboxInBreaks: 0
WidescreenStoryboard: 0

[Editor]
Bookmarks: -30
DistanceSpacing: 0.7
BeatDivisor: 4
GridSize: 4
TimelineZoom: 1

[Metadata]
Title:20/20
TitleUnicode:20/20
Artist:ONE OK ROCK
ArtistUnicode:ONE OK ROCK
Creator:A r M i N
Version:Hard
Source:
Tags:Fueled by Ramen OOR Ambitions Short A-Sketch Japanese ver. Komore schoolboy waku JenHideo _dt3 turtle armin a_r_m_i_n bite you death byd
BeatmapID:1541290
BeatmapSetID:730303

[Difficulty]
HPDrainRate:5
CircleSize:4
OverallDifficulty:6.8
ApproachRate:8
SliderMultiplier:1.5
SliderTickRate:1

[Events]
//Background and Video events
0,0,"sunlight.jpg",0,0
//Break Periods
//Storyboard Layer 0 (Background)
//Storyboard Layer 1 (Fail)
//Storyboard Layer 2 (Pass)
//Storyboard Layer 3 (Foreground)
//Storyboard Sound Samples

[TimingPoints]
333,363.636363636364,4,2,2,40,1,0
333,-125,4,2,2,40,0,0
6151,-125,4,2,2,50,0,0
16878,-125,4,3,2,30,0,0
17787,-100,4,2,2,50,0,0
17969,-100,4,2,2,60,0,0
29242,-100,4,2,2,60,0,0
32333,-100,4,2,2,50,0,0
35242,-100,4,2,2,70,0,1
44878,-100,4,2,3,70,0,1
45060,-100,4,2,2,70,0,1
45242,-100,4,2,3,70,0,1
45423,-100,4,2,2,70,0,1
46787,-100,4,2,2,60,0,0
46878,-100,4,2,2,70,0,1
57060,-100,4,2,2,60,0,0
58514,-100,4,2,2,70,0,0
63060,-100,4,2,2,20,0,0
63242,-100,4,2,2,15,0,0
63423,-100,4,2,2,10,0,0
63514,-100,4,2,1,15,0,0
63605,-100,4,2,2,20,0,0
63696,-100,4,2,1,25,0,0
63787,-100,4,2,2,30,0,0
63878,-100,4,2,1,35,0,0
63969,-100,4,2,2,40,0,0
64060,-100,4,2,1,45,0,0
64151,-100,4,2,2,50,0,0
64242,-100,4,2,1,55,0,0
64333,-100,4,2,2,30,0,0

[Colours]
Combo1 : 133,65,73
Combo2 : 255,255,89
Combo3 : 120,7,11
Combo4 : 230,86,0

[HitObjects]
42,228,333,5,2,1:2:0:0:
42,228,514,2,0,L|161:216,1,120,2|2,0:0|0:0,0:0:0:0:
228,149,1060,1,8,0:1:0:0:
228,149,1242,2,0,P|217:194|246:258,1,120,2|2,0:0|0:0,0:0:0:0:
333,294,1787,2,0,L|339:353,2,60,0|2|0,1:0|0:0|0:0,0:0:0:0:
402,232,2333,2,0,L|414:113,1,120,2|2,0:0|0:0,0:0:0:0:
327,77,2878,2,0,L|321:136,1,60,2|2,0:0|0:0,0:0:0:0:
260,207,3242,5,2,1:2:0:0:
260,207,3423,2,0,P|215:218|151:189,1,120,2|2,0:0|0:0,0:0:0:0:
82,125,3969,1,8,0:1:0:0:
82,125,4151,2,0,B|95:184|95:184|74:239,1,120,2|2,0:0|0:0,0:0:0:0:
5,303,4696,2,0,P|30:323|65:332,2,60,0|2|2,1:0|0:0|0:0,0:0:0:0:
73,239,5242,2,0,L|192:251,1,120,2|2,0:0|0:0,0:0:0:0:
247,327,5787,2,0,L|306:321,1,60,2|0,0:0|0:0,0:0:0:0:
383,180,6151,5,2,1:2:0:0:
303,228,6333,1,2,0:0:0:0:
254,152,6514,2,0,P|251:120|269:83,1,60,0|2,0:0|0:0,0:0:0:0:
331,33,6878,2,0,P|286:4|219:10,1,120,8|0,0:1|0:0,0:0:0:0:
151,70,7423,1,2,0:0:0:0:
151,70,7605,2,0,P|196:99|263:93,1,120,0|0,1:0|0:0,0:0:0:0:
331,33,8151,1,2,0:0:0:0:
387,109,8333,2,0,L|476:99,2,90,8|0|2,0:1|0:0|0:0,0:0:0:0:
316,170,9060,5,2,1:2:0:0:
341,260,9242,2,0,P|336:289|323:316,1,60,2|0,0:0|0:0,0:0:0:0:
248,262,9605,2,0,P|243:232|230:205,1,60,2|8,0:0|0:1,0:0:0:0:
155,260,9969,2,0,P|150:289|137:316,1,60,2|0,0:0|0:0,0:0:0:0:
62,261,10333,2,0,B|44:184|44:184|67:135,1,120,2|2,0:0|0:0,0:0:0:0:
146,108,10878,1,2,0:0:0:0:
146,108,11060,2,0,L|152:167,1,60,2|10,0:0|0:1,0:0:0:0:
237,130,11423,2,0,L|223:259,1,120,2|2,0:0|0:0,0:0:0:0:
260,336,11969,5,2,1:2:0:0:
316,261,12151,1,2,0:0:0:0:
362,343,12333,2,0,L|421:337,1,60,0|2,0:0|0:0,0:0:0:0:
466,239,12696,2,0,L|407:245,1,60,8|2,0:1|0:0,0:0:0:0:
348,173,13060,1,0,0:0:0:0:
348,173,13242,1,2,0:0:0:0:
316,261,13423,1,0,1:0:0:0:
316,261,13605,1,2,0:0:0:0:
254,184,13787,2,0,L|260:125,1,60,0|2,0:0|0:0,0:0:0:0:
169,145,14151,1,8,0:1:0:0:
169,145,14333,2,0,L|156:25,1,120,2|2,0:0|0:0,0:0:0:0:
75,70,14878,5,2,1:2:0:0:
75,70,15060,2,0,L|81:129,1,60,2|0,0:0|0:0,0:0:0:0:
63,247,15423,2,0,L|111:212,1,60,2|8,0:0|0:1,0:0:0:0:
223,169,15787,2,0,L|168:144,1,60,2|0,0:0|0:0,0:0:0:0:
193,260,16151,2,0,P|249:261|302:222,1,120,2|0,0:0|0:0,0:0:0:0:
178,86,16878,1,0,0:0:0:0:
49,168,17242,2,0,B|135:132|135:204|223:168,1,180,0|2,0:0|0:3,0:0:0:0:
304,26,17969,5,4,3:2:0:0:
371,89,18151,2,0,P|340:110|304:119,1,75,8|0,0:0|3:0,0:0:0:0:
224,72,18514,2,0,P|187:79|155:98,1,75,0|0,3:0|3:0,0:0:0:0:
214,240,18878,2,0,P|211:202|222:167,1,75,8|0,0:0|3:0,0:0:0:0:
303,214,19242,5,0,3:0:0:0:
303,308,19423,2,0,P|340:299|371:278,1,75,0|8,3:0|0:0,0:0:0:0:
450,231,19787,2,0,P|425:204|392:188,1,75,0|0,0:0|3:0,0:0:0:0:
311,141,20151,2,0,P|299:176|302:213,1,75,0|8,3:0|0:0,0:0:0:0:
379,286,20514,1,8,0:3:0:0:
379,286,20605,1,8,0:3:0:0:
379,286,20696,1,0,3:0:0:0:
236,279,20878,6,0,L|161:271,1,75,0|8,3:0|0:0,0:0:0:0:
38,323,21242,2,0,P|110:324|161:270,1,150,0|0,3:0|3:0,0:0:0:0:
146,179,21787,1,8,0:0:0:0:
90,105,21969,2,0,P|53:168|74:238,1,150,0|0,3:0|3:0,0:0:0:0:
233,212,22514,5,8,0:0:0:0:
196,126,22696,2,0,P|166:147|146:179,1,75,0|0,3:0|3:0,0:0:0:0:
247,305,23060,2,0,L|250:343,1,37.5,8|0,0:0|0:0,0:0:0:0:
233,212,23242,2,0,L|263:190,1,37.5,8|0,0:0|0:0,0:0:0:0:
160,269,23423,2,0,L|127:253,1,37.5,8|0,0:0|0:0,0:0:0:0:
327,257,23787,5,4,3:2:0:0:
331,165,23969,2,0,P|294:169|262:190,1,75,8|0,0:0|3:0,0:0:0:0:
196,253,24333,2,0,P|175:221|170:184,1,75,0|0,3:0|3:0,0:0:0:0:
221,106,24696,1,8,0:0:0:0:
138,64,24878,1,0,3:0:0:0:
253,18,25060,6,0,L|327:10,1,75,0|0,3:0|3:0,0:0:0:0:
423,124,25423,2,0,P|386:119|354:98,1,75,8|0,0:0|0:0,0:0:0:0:
418,31,25787,1,0,3:0:0:0:
501,73,25969,2,0,P|515:113|511:154,1,75,0|8,3:0|0:0,0:0:0:0:
458,221,26333,1,8,0:3:0:0:
458,221,26423,1,8,0:3:0:0:
458,221,26514,1,0,3:0:0:0:
348,116,26696,6,0,L|422:123,1,75,0|8,3:0|0:0,0:0:0:0:
302,197,27060,2,0,L|227:204,1,75,0|0,3:0|3:0,0:0:0:0:
160,141,27423,1,0,3:0:0:0:
138,232,27605,1,8,0:0:0:0:
247,110,27787,6,0,P|206:60|119:57,1,150,0|0,3:0|3:0,0:0:0:0:
35,76,28333,1,8,0:3:0:0:
87,153,28514,2,0,P|124:153|159:140,1,75,0|0,3:0|3:0,0:0:0:0:
226,24,28878,1,8,3:2:0:0:
125,54,29060,1,8,3:2:0:0:
295,90,29242,6,0,B|336:72|336:72|440:92,1,150,4|0,3:2|3:0,0:0:0:0:
510,234,29787,2,0,L|503:160,1,75,8|0,0:0|3:0,0:0:0:0:
446,17,30151,2,0,L|438:91,1,75,8|0,0:0|3:0,0:0:0:0:
384,168,30514,2,0,L|391:242,1,75,2|0,0:3|3:0,0:0:0:0:
252,319,30878,6,0,P|290:320|325:307,1,75,8|0,0:0|3:0,0:0:0:0:
296,137,31242,2,0,P|258:137|223:150,1,75,8|0,0:0|3:0,0:0:0:0:
275,229,31605,1,2,0:3:0:0:
384,168,31787,2,0,B|420:160|420:160|457:168,1,75,8|2,0:0|0:3,0:0:0:0:
421,255,32151,1,8,0:0:0:0:
296,137,32333,6,0,L|302:59,1,75,2|0,3:2|0:0,0:0:0:0:
219,18,32696,2,0,L|214:93,1,75,2|0,3:2|0:0,0:0:0:0:
126,123,33060,2,0,L|132:49,1,75,2|0,3:2|0:0,0:0:0:0:
50,5,33423,2,0,L|45:80,1,75,2|0,3:2|0:0,0:0:0:0:
256,192,33696,12,0,34878,0:0:0:0:
350,138,35242,6,0,B|303:130|303:130|249:145|249:145|202:138,1,150,6|8,3:2|0:0,0:0:0:0:
137,72,35787,2,0,P|116:103|110:146,1,75,0|2,3:0|3:2,0:0:0:0:
251,218,36151,1,8,0:0:0:0:
158,219,36333,1,10,0:0:0:0:
300,138,36514,6,0,P|338:185|327:271,1,150,6|0,3:2|3:0,0:0:0:0:
220,341,37060,2,0,L|293:355,1,75,8|0,0:0|3:0,0:0:0:0:
251,218,37423,2,0,L|177:232,1,75,0|2,3:0|3:2,0:0:0:0:
71,296,37787,2,0,L|108:306,3,37.5,8|8|10|8,0:0|0:2|0:2|0:2,0:0:0:0:
132,314,38151,5,4,3:2:0:0:
177,232,38333,1,2,3:2:0:0:
252,292,38514,2,0,P|291:292|325:278,1,75,8|2,0:0|3:2,0:0:0:0:
366,193,38878,1,0,3:0:0:0:
264,124,39060,2,0,L|271:198,1,75,2|8,3:2|0:0,0:0:0:0:
178,84,39423,6,0,P|216:41|306:39,1,150,2|0,3:2|3:0,0:0:0:0:
430,132,39969,2,0,L|357:118,1,75,10|2,0:0|3:2,0:0:0:0:
339,272,40333,2,0,L|389:216,1,75,8|2,0:0|3:2,0:0:0:0:
264,124,40696,2,0,L|288:195,1,75,8|0,0:0|3:0,0:0:0:0:
273,337,41060,6,0,P|220:286|147:290,1,150,6|8,3:2|0:0,0:0:0:0:
82,358,41605,2,0,P|58:319|54:285,1,75,0|2,3:0|3:2,0:0:0:0:
163,198,41969,1,8,0:0:0:0:
147,290,42151,1,10,0:0:0:0:
92,137,42333,6,0,B|164:113|164:113|234:136,1,150,6|0,3:2|3:0,0:0:0:0:
311,267,42878,2,0,P|275:255|248:231,1,75,8|0,0:0|3:0,0:0:0:0:
323,100,43242,2,0,P|330:136|322:173,1,75,0|2,3:0|3:2,0:0:0:0:
172,154,43605,2,0,L|209:144,3,37.5,8|8|10|8,0:0|0:2|0:2|0:2,0:0:0:0:
234,136,43969,5,4,3:2:0:0:
176,58,44151,1,2,3:0:0:0:
92,102,44333,2,0,P|78:139|80:178,1,75,8|2,0:0|3:0,0:0:0:0:
143,245,44696,1,0,3:0:0:0:
64,298,44878,1,6,3:0:0:0:
137,358,45060,2,0,L|210:344,1,75,8|6,0:0|3:3,0:0:0:0:
300,242,45423,5,4,3:2:0:0:
329,333,45605,1,2,3:0:0:0:
393,263,45787,2,0,P|393:225|380:191,1,75,8|2,0:0|3:0,0:0:0:0:
299,109,46151,6,0,L|296:146,1,37.5,8|0,3:2|0:0,0:0:0:0:
209,122,46333,2,0,L|206:159,1,37.5,8|0,3:2|0:0,0:0:0:0:
121,98,46514,2,0,L|118:135,1,37.5,10|0,3:2|0:0,0:0:0:0:
31,111,46696,2,0,L|28:148,1,37.5,8|0,3:2|0:0,0:0:0:0:
20,296,46878,6,0,B|54:278|54:278|162:305,1,150,2|12,3:2|0:0,0:0:0:0:
222,380,47423,2,0,L|295:366,1,75,0|2,3:0|3:2,0:0:0:0:
411,250,47787,1,8,0:0:0:0:
388,343,47969,1,10,0:0:0:0:
283,271,48151,6,0,B|256:163|256:163|274:129,1,150,6|0,3:2|3:0,0:0:0:0:
428,92,48696,2,0,L|355:78,1,75,8|0,0:0|3:0,0:0:0:0:
357,174,49060,2,0,L|430:188,1,75,0|2,3:0|3:2,0:0:0:0:
433,283,49423,2,0,L|396:276,3,37.5,8|8|10|8,0:0|0:2|0:2|0:2,0:0:0:0:
370,272,49787,5,4,3:2:0:0:
310,345,49969,1,2,3:2:0:0:
255,267,50151,2,0,L|182:281,1,75,8|2,0:0|3:2,0:0:0:0:
115,213,50514,1,0,3:0:0:0:
40,334,50696,2,0,L|113:348,1,75,2|8,3:2|0:0,0:0:0:0:
24,240,51060,6,0,B|6:206|6:206|33:98,1,150,6|2,3:2|3:2,0:0:0:0:
179,51,51605,2,0,P|144:37|107:38,1,75,8|2,0:0|3:2,0:0:0:0:
223,137,51969,2,0,P|251:113|270:81,1,75,8|2,0:0|3:2,0:0:0:0:
128,132,52333,2,0,P|133:168|152:201,1,75,8|0,0:0|3:0,0:0:0:0:
39,307,52696,6,0,P|58:274|63:238,2,75,14|0|0,3:2|3:0|3:0,0:0:0:0:
171,362,53242,2,0,P|161:326|140:296,2,75,12|2|0,3:2|3:2|3:0,0:0:0:0:
303,307,53787,2,0,P|270:288|233:282,1,75,12|0,3:2|3:0,0:0:0:0:
383,360,54151,6,0,P|419:354|452:335,2,75,14|0|0,3:2|3:0|3:0,0:0:0:0:
419,197,54696,2,0,P|409:233|388:264,2,75,12|2|0,3:2|3:2|3:0,0:0:0:0:
298,122,55242,2,0,P|317:155|323:192,1,75,12|0,3:2|3:0,0:0:0:0:
208,94,55605,6,0,L|232:23,1,75,14|0,3:2|3:0,0:0:0:0:
228,187,55969,2,0,L|155:201,1,75,12|0,3:2|3:0,0:0:0:0:
298,122,56333,2,0,L|334:129,3,37.5,14|8|8|8,3:2|0:0|0:3|0:3,0:0:0:0:
352,148,56696,2,0,L|388:141,3,37.5,0|0|0|0,3:0|3:0|3:0|3:0,0:0:0:0:
406,159,57060,5,14,3:2:0:0:
116,269,58514,6,0,P|85:239|162:214,1,150,12|12,3:2|3:2,0:0:0:0:
215,372,59242,2,0,L|178:379,1,37.5,8|8,0:0|0:0,0:0:0:0:
211,277,59423,2,0,L|247:284,1,37.5,8|8,0:0|0:0,0:0:0:0:
309,358,59605,1,12,3:2:0:0:
294,200,59787,6,0,P|359:202|341:265,1,150,12|12,3:2|3:2,0:0:0:0:
160,163,60696,6,0,P|153:192|154:220,1,37.5,8|8,0:0|0:0,0:0:0:0:
245,119,60878,2,0,P|242:100|237:82,1,37.5,8|8,0:0|0:0,0:0:0:0:
247,215,61060,2,0,P|287:205|336:148,1,112.5,12|0,3:2|0:0,0:0:0:0:
339,128,61423,6,0,P|400:105|408:170,1,150,12|12,3:2|3:2,0:0:0:0:
254,251,62151,2,0,L|246:214,1,37.5,8|8,0:0|0:0,0:0:0:0:
349,247,62332,2,0,L|341:283,1,37.5,8|8,0:0|0:0,0:0:0:0:
268,345,62514,1,12,3:2:0:0:
407,353,62696,1,12,3:2:0:0:
256,192,62878,12,0,64196,0:0:0:0:
