osu file format v14

[General]
AudioFilename: audio.mp3
AudioLeadIn: 0
PreviewTime: 35242
Countdown: 0
SampleSet: Soft
StackLeniency: 0.7
Mode: 0
LetterboxInBreaks: 0
WidescreenStoryboard: 0

[Editor]
DistanceSpacing: 1
BeatDivisor: 4
GridSize: 32
TimelineZoom: 3.899999

[Metadata]
Title:20/20
TitleUnicode:20/20
Artist:ONE OK ROCK
ArtistUnicode:ONE OK ROCK
Creator:-NanoRIPE-
Version:NaWi's Insane
Source:
Tags:Fueled by Ramen OOR Ambitions Short Ver A-Sketch William K Akitoshi Hazu- Twenty
BeatmapID:1284947
BeatmapSetID:608415

[Difficulty]
HPDrainRate:6
CircleSize:4
OverallDifficulty:7.5
ApproachRate:8.5
SliderMultiplier:1.6
SliderTickRate:1

[Events]
//Background and Video events
0,0,"b0a514f475509fbef4f4bcfdbf6d92dc.jpg",0,0
//Break Periods
//Storyboard Layer 0 (Background)
//Storyboard Layer 1 (Fail)
//Storyboard Layer 2 (Pass)
//Storyboard Layer 3 (Foreground)
//Storyboard Sound Samples

[TimingPoints]
333,363.636363636364,4,2,1,40,1,0
16878,-200,4,2,1,40,0,0
17969,-100,4,2,1,60,0,0
29242,-100,4,2,1,60,0,0
32333,-100,4,2,1,60,0,0
35242,-100,4,2,1,70,0,1
46151,-100,4,2,1,70,0,0
46878,-100,4,2,1,70,0,1
57060,-153.846153846154,4,2,1,70,0,1
58514,-100,4,2,1,60,0,0
61060,-125,4,2,1,60,0,0
61423,-100,4,2,1,60,0,0
64272,-100,4,2,1,5,0,0

[Colours]
Combo1 : 255,192,0
Combo2 : 255,255,128
Combo3 : 255,155,106
Combo4 : 183,255,183

[HitObjects]
506,112,333,5,2,0:1:0:0:
421,54,514,2,0,B|377:85|377:85|239:67,1,160,2|2,0:1|0:1,0:0:0:0:
180,21,1060,1,8,0:1:0:0:
182,123,1242,2,0,B|208:180|208:180|175:286,1,160,2|2,0:1|0:1,0:0:0:0:
84,240,1787,6,0,P|43:237|5:261,2,80,2|2|0,0:1|0:1|0:0,0:0:0:0:
144,372,2333,2,0,B|232:406|226:332|321:374,1,160,2|2,0:1|0:1,0:0:0:0:
378,300,2878,2,0,P|368:269|390:203,1,80,2|0,0:1|0:0,0:0:0:0:
464,82,3242,5,2,0:1:0:0:
368,121,3423,2,0,L|273:102,1,80,2|0,0:1|0:0,0:0:0:0:
192,71,3787,1,2,0:1:0:0:
289,105,3969,1,8,0:1:0:0:
192,71,4151,2,0,L|113:86,1,80,2|0,0:1|0:0,0:0:0:0:
26,140,4514,1,0,0:0:0:0:
26,140,4605,1,2,0:1:0:0:
26,140,4696,5,2,0:1:0:0:
109,183,4878,1,0,0:0:0:0:
119,276,5060,1,2,0:1:0:0:
58,349,5242,1,2,0:1:0:0:
58,349,5605,5,2,0:1:0:0:
119,276,5787,2,0,P|176:265|234:302,1,120,2|0,0:1|0:0,0:0:0:0:
258,332,6151,5,2,0:1:0:0:
323,210,6333,1,2,0:1:0:0:
354,384,6514,2,0,P|357:344|354:304,1,80,0|2,0:0|0:1,0:0:0:0:
323,210,6878,2,0,P|390:172|462:201,1,160,8|2,0:1|0:1,0:0:0:0:
457,303,7423,1,0,0:0:0:0:
385,142,7605,6,0,L|392:37,1,80,2|0,0:1|0:0,0:0:0:0:
323,210,7969,1,2,0:1:0:0:
277,115,8151,1,2,0:1:0:0:
125,205,8333,2,0,P|146:188|242:210,2,120,8|2|2,0:1|0:1|0:1,0:0:0:0:
33,107,9060,5,2,0:1:0:0:
40,280,9242,2,0,P|35:223|38:195,1,80,2|0,0:1|0:0,0:0:0:0:
131,295,9605,2,0,P|133:334|128:374,1,80,2|8,0:1|0:1,0:0:0:0:
233,361,9969,2,0,P|300:324|371:355,1,160,2|0,0:1|0:0,0:0:0:0:
460,307,10514,6,0,P|471:359|462:396,2,80,2|0|2,0:1|0:0|0:1,0:0:0:0:
381,243,11060,2,0,P|415:216|454:204,1,80,2|0,0:1|0:0,0:0:0:0:
509,119,11423,2,0,L|344:97,1,160,2|2,0:1|0:1,0:0:0:0:
304,92,11878,1,0,0:0:0:0:
304,92,11969,5,2,0:1:0:0:
392,16,12151,1,2,0:1:0:0:
296,176,12333,2,0,P|246:178|197:156,1,80,0|2,0:0|0:1,0:0:0:0:
178,276,12696,5,8,0:1:0:0:
178,276,13060,2,0,P|226:266|277:286,1,80,2|0,0:1|0:0,0:0:0:0:
120,187,13423,2,0,P|87:150|79:96,1,80,2|0,0:1|0:0,0:0:0:0:
71,281,13787,2,0,P|55:327|12:361,1,80,2|0,0:1|0:0,0:0:0:0:
178,276,14151,1,8,0:1:0:0:
224,368,14333,2,0,P|299:362|352:292,1,160,2|2,0:1|0:1,0:0:0:0:
268,113,14878,5,2,0:1:0:0:
255,273,15060,1,2,0:1:0:0:
337,196,15242,1,0,0:0:0:0:
180,184,15423,2,0,L|98:183,1,80,2|8,0:1|0:1,0:0:0:0:
2,151,15787,2,0,P|49:171|54:289,1,160,2|0,0:1|0:0,0:0:0:0:
26,356,16242,1,2,0:1:0:0:
26,356,16333,5,2,0:1:0:0:
137,337,16514,1,2,0:1:0:0:
67,269,16696,1,2,0:1:0:0:
137,337,16878,6,0,B|212:325|212:325|243:292|243:292|322:283,1,200,2|0,0:1|0:0,0:0:0:0:
266,203,17969,5,4,0:0:0:0:
369,355,18151,2,0,P|399:311|396:260,1,80,8|0,0:0|0:0,0:0:0:0:
391,163,18514,1,2,0:0:0:0:
322,283,18696,1,0,0:1:0:0:
186,197,18878,2,0,L|280:203,1,80,8|0,0:0|0:0,0:0:0:0:
129,130,19242,5,2,0:0:0:0:
183,298,19423,1,0,0:0:0:0:
90,241,19605,1,8,0:0:0:0:
265,202,19787,2,0,P|301:222|349:218,1,80,2|2,0:1|0:0,0:0:0:0:
506,282,20151,2,0,P|470:262|422:266,1,80,2|8,0:1|0:0,0:0:0:0:
317,145,20514,1,8,0:3:0:0:
317,145,20605,1,8,0:3:0:0:
317,145,20696,5,8,0:3:0:0:
432,262,20878,2,0,P|452:219|451:175,1,80,0|8,0:0|0:0,0:0:0:0:
414,15,21242,2,0,P|394:58|395:102,1,80,0|2,0:1|0:0,0:0:0:0:
476,74,21605,1,0,0:0:0:0:
314,33,21787,1,8,0:0:0:0:
308,164,21969,6,0,B|300:216|300:216|312:264|312:264|300:324,1,160,2|0,0:0|0:0,0:0:0:0:
220,272,22514,1,8,0:0:0:0:
384,212,22696,2,0,L|464:203,1,80,0|2,0:0|0:0,0:0:0:0:
308,164,23060,5,8,0:0:0:0:
123,195,23242,1,8,0:0:0:0:
222,17,23423,1,8,0:0:0:0:
222,17,23787,5,4,0:0:0:0:
173,85,23969,2,0,P|132:95|84:80,1,80,8|0,0:0|0:0,0:0:0:0:
12,240,24333,2,0,P|68:208|164:256,1,160,2|8,0:0|0:0,0:0:0:0:
240,328,24878,1,0,0:0:0:0:
74,368,25060,6,0,L|83:268,1,80,2|0,0:0|0:0,0:0:0:0:
149,159,25423,2,0,L|152:238,1,80,8|0,0:0|0:0,0:0:0:0:
90,75,25787,1,2,0:0:0:0:
258,137,25969,1,0,0:0:0:0:
192,22,26151,1,8,0:0:0:0:
149,159,26333,1,8,0:3:0:0:
149,159,26423,1,8,0:3:0:0:
149,159,26514,1,8,0:3:0:0:
266,61,26696,6,0,P|305:51|344:60,1,80,2|8,0:1|0:0,0:0:0:0:
504,148,27060,2,0,P|465:157|426:149,1,80,2|2,0:1|0:0,0:0:0:0:
464,60,27423,1,2,0:1:0:0:
464,60,27605,1,8,0:0:0:0:
315,223,27787,6,0,P|300:187|305:148,1,80,2|2,0:1|0:0,0:0:0:0:
343,59,28151,1,2,0:0:0:0:
220,188,28333,1,8,0:0:0:0:
379,172,28514,2,0,L|219:187,1,160,2|8,0:0|0:0,0:0:0:0:
392,272,29060,1,8,0:0:0:0:
512,144,29242,6,0,B|480:109|442:112|442:112|484:80|480:29,1,160,4|2,0:0|0:0,0:0:0:0:
304,40,29787,2,0,P|344:28|395:48,1,80,8|0,0:0|0:0,0:0:0:0:
240,112,30151,2,0,P|172:137|92:97,1,160,8|2,0:0|0:0,0:0:0:0:
36,28,30696,1,2,0:0:0:0:
32,200,30878,5,8,0:0:0:0:
56,216,31242,1,8,0:0:0:0:
80,232,31605,1,2,0:0:0:0:
235,182,31787,5,8,0:0:0:0:
181,298,31969,1,2,0:0:0:0:
95,116,32151,1,8,0:0:0:0:
235,182,32333,6,0,L|326:191,1,80,2|0,0:0|0:0,0:0:0:0:
483,131,32696,2,0,L|403:123,1,80,2|0,0:0|0:0,0:0:0:0:
233,201,33060,2,0,L|312:208,1,80,2|0,0:0|0:0,0:0:0:0:
490,107,33423,2,0,L|410:99,1,80,2|0,0:0|0:0,0:0:0:0:
256,192,33787,12,0,35060,0:0:0:0:
0,139,35242,6,0,B|44:125|44:125|108:132|108:132|180:110,1,160,4|8,0:0|0:0,0:0:0:0:
100,38,35787,1,0,0:0:0:0:
53,212,35969,2,0,L|79:311,1,80,2|8,0:0|0:0,0:0:0:0:
153,362,36333,1,2,0:0:0:0:
279,241,36514,6,0,P|234:200|126:232,1,160,4|2,0:0|0:1,0:0:0:0:
287,353,37060,2,0,L|398:345,1,80,8|2,0:0|0:1,0:0:0:0:
453,276,37423,1,2,0:0:0:0:
478,384,37605,1,2,0:1:0:0:
370,229,37787,5,8,0:0:0:0:
359,190,37878,1,8,0:0:0:0:
361,150,37968,1,8,0:0:0:0:
376,113,38059,1,8,0:0:0:0:
401,83,38151,5,2,0:0:0:0:
266,135,38333,1,2,0:0:0:0:
473,174,38514,1,8,0:0:0:0:
232,128,38696,2,0,L|128:137,1,80,2|2,0:0|0:0,0:0:0:0:
224,29,39060,2,0,L|328:38,1,80,2|8,0:0|0:0,0:0:0:0:
135,45,39423,2,0,L|55:38,2,80,2|2|0,0:0|0:0|0:0,0:0:0:0:
236,277,39969,5,8,0:0:0:0:
54,241,40151,1,0,0:0:0:0:
261,189,40333,5,8,0:0:0:0:
37,223,40514,1,2,0:0:0:0:
200,117,40696,5,8,0:0:0:0:
32,201,40878,1,2,0:0:0:0:
203,374,41060,6,0,B|262:375|262:375|304:353|304:353|365:358,1,160,4|8,0:0|0:0,0:0:0:0:
440,286,41605,1,0,0:0:0:0:
348,176,41787,2,0,L|336:265,1,80,2|8,0:0|0:0,0:0:0:0:
462,134,42151,1,0,0:0:0:0:
224,122,42333,6,0,L|237:281,1,160,4|0,0:0|0:0,0:0:0:0:
52,318,42878,2,0,P|91:309|149:313,1,80,8|0,0:0|0:0,0:0:0:0:
141,199,43242,1,2,0:0:0:0:
204,376,43423,1,2,0:0:0:0:
51,205,43605,5,8,0:0:0:0:
53,165,43695,1,8,0:0:0:0:
56,125,43786,1,8,0:0:0:0:
59,85,43877,1,8,0:0:0:0:
62,45,43969,6,0,P|110:58|154:41,1,80,4|0,0:0|0:0,0:0:0:0:
245,23,44333,2,0,L|235:132,1,80,8|0,0:0|0:0,0:0:0:0:
433,111,44696,1,2,0:0:0:0:
333,66,44878,2,0,L|340:145,1,80,0|8,0:0|0:0,0:0:0:0:
413,4,45242,1,2,0:0:0:0:
393,223,45423,6,0,P|356:238|316:236,1,80,2|0,0:0|0:0,0:0:0:0:
210,209,45787,2,0,L|220:318,1,80,8|0,0:0|0:0,0:0:0:0:
340,144,46151,5,8,0:0:0:0:
105,206,46333,1,8,0:0:0:0:
316,236,46514,5,8,0:0:0:0:
100,120,46696,1,8,0:0:0:0:
347,234,46878,6,0,B|399:227|399:227|440:199|440:199|514:191,2,160,4|8|2,0:0|0:0|0:0,0:0:0:0:
223,188,47787,1,8,0:0:0:0:
398,310,47969,1,2,0:0:0:0:
308,155,48151,6,0,P|305:217|228:272,1,160,4|2,0:0|0:1,0:0:0:0:
48,228,48696,1,8,0:0:0:0:
223,188,48878,1,2,0:1:0:0:
71,137,49060,1,2,0:0:0:0:
152,271,49242,1,2,0:1:0:0:
178,53,49423,5,8,0:0:0:0:
207,37,49514,1,8,0:0:0:0:
242,28,49605,1,8,0:0:0:0:
276,34,49696,1,8,0:0:0:0:
309,48,49787,5,2,0:0:0:0:
227,186,49969,1,0,0:0:0:0:
395,156,50151,1,8,0:0:0:0:
175,251,50333,2,0,P|149:211|155:152,1,80,2|2,0:1|0:0,0:0:0:0:
242,28,50696,1,2,0:1:0:0:
306,191,50878,1,8,0:0:0:0:
56,147,51060,6,0,L|74:308,1,160,2|2,0:1|0:0,0:0:0:0:
182,369,51605,1,8,0:0:0:0:
248,240,51787,1,0,0:0:0:0:
352,344,51969,5,8,0:0:0:0:
392,160,52151,1,2,0:0:0:0:
480,364,52333,5,8,0:0:0:0:
336,230,52514,1,2,0:0:0:0:
397,80,52696,6,0,L|391:163,1,80,12|2,0:0|0:0,0:0:0:0:
336,230,53060,1,2,0:0:0:0:
476,46,53242,2,0,P|436:8|397:2,1,80,12|2,0:0|0:0,0:0:0:0:
317,30,53605,1,2,0:0:0:0:
470,166,53787,2,0,L|385:159,1,80,12|2,0:0|0:0,0:0:0:0:
237,37,54151,6,0,L|317:29,1,80,12|2,0:0|0:0,0:0:0:0:
398,81,54514,1,2,0:0:0:0:
153,124,54696,2,0,L|245:133,1,80,12|2,0:0|0:0,0:0:0:0:
237,37,55060,1,2,0:0:0:0:
219,212,55242,2,0,L|135:202,1,80,12|2,0:0|0:0,0:0:0:0:
84,53,55605,6,0,P|114:27|159:21,1,80,12|0,0:0|0:0,0:0:0:0:
352,154,55969,2,0,P|312:186|277:186,1,80,12|0,0:0|0:0,0:0:0:0:
55,167,56333,6,8,L|40:208,3,40,8|8|8|8,0:0|0:0|0:3|0:3,0:0:0:0:
31,231,56696,1,8,0:3:0:0:
26,258,56787,1,8,0:3:0:0:
27,286,56878,1,8,0:3:0:0:
42,309,56969,1,8,0:3:0:0:
68,324,57060,6,0,B|132:339|132:339|193:312|193:312|256:331|256:331|317:311|317:311|376:337|376:337|454:317,1,389.999982147218,8|0,0:0|0:0,0:0:0:0:
496,265,58514,5,12,0:0:0:0:
472,225,58878,2,0,B|431:234|431:234|373:227,1,80,8|0,0:0|0:0,0:0:0:0:
208,164,59242,5,8,0:0:0:0:
188,198,59333,1,8,0:0:0:0:
181,237,59423,1,8,0:0:0:0:
192,275,59514,1,8,0:0:0:0:
215,307,59605,1,2,0:0:0:0:
100,296,59787,6,0,L|20:286,1,80,8|0,0:0|0:0,0:0:0:0:
277,233,60151,1,8,0:0:0:0:
254,384,60333,1,2,0:0:0:0:
372,223,60696,5,8,0:0:0:0:
379,183,60787,1,8,0:0:0:0:
384,143,60878,1,8,0:0:0:0:
393,104,60969,1,8,0:0:0:0:
381,68,61060,6,0,P|340:57|273:84,1,96,2|0,0:0|0:0,0:0:0:0:
224,126,61423,6,0,L|240:210,1,80,8|0,0:0|0:0,0:0:0:0:
129,0,61787,2,0,L|122:79,1,80,8|0,0:0|0:0,0:0:0:0:
38,208,62151,5,8,0:0:0:0:
56,243,62242,1,8,0:0:0:0:
84,267,62333,1,8,0:3:0:0:
124,271,62423,1,8,0:3:0:0:
164,259,62514,1,2,0:0:0:0:
257,67,62696,5,8,0:0:0:0:
256,192,62878,12,0,64272,0:0:0:0:
