osu file format v14

[General]
AudioFilename: audio.mp3
AudioLeadIn: 0
PreviewTime: 35242
Countdown: 0
SampleSet: Soft
StackLeniency: 0.7
Mode: 0
LetterboxInBreaks: 0
WidescreenStoryboard: 0

[Editor]
DistanceSpacing: 1.1
BeatDivisor: 4
GridSize: 4
TimelineZoom: 2.2

[Metadata]
Title:20/20
TitleUnicode:20/20
Artist:ONE OK ROCK
ArtistUnicode:ONE OK ROCK
Creator:-NanoRIPE-
Version:Hazu's Light Insane
Source:
Tags:Fueled by Ramen OOR Ambitions Short Ver A-Sketch William K Akitoshi Hazu- Twenty
BeatmapID:1308512
BeatmapSetID:608415

[Difficulty]
HPDrainRate:5.5
CircleSize:4
OverallDifficulty:7
ApproachRate:8
SliderMultiplier:1.5
SliderTickRate:1

[Events]
//Background and Video events
0,0,"b0a514f475509fbef4f4bcfdbf6d92dc.jpg",0,0
//Break Periods
//Storyboard Layer 0 (Background)
//Storyboard Layer 1 (Fail)
//Storyboard Layer 2 (Pass)
//Storyboard Layer 3 (Foreground)
//Storyboard Sound Samples

[TimingPoints]
333,363.636363636364,4,2,1,50,1,0
333,-125,4,2,1,50,0,0
6060,-125,4,2,1,5,0,0
6151,-125,4,2,1,50,0,0
16878,-200,4,2,1,50,0,0
17787,-200,4,2,1,5,0,0
17969,-111.111111111111,4,2,1,50,0,0
32333,-125,4,2,1,50,0,0
35242,-100,4,2,1,70,0,1
46151,-100,4,2,1,70,0,0
46878,-100,4,2,1,70,0,1
57060,-200,4,2,1,70,0,1
58514,-100,4,2,1,60,0,0
61333,-100,4,2,1,5,0,0
61423,-100,4,2,1,60,0,0
64272,-100,4,2,1,5,0,0

[Colours]
Combo1 : 255,192,0
Combo2 : 255,255,43
Combo3 : 255,155,106
Combo4 : 183,255,183

[HitObjects]
92,88,333,5,2,0:1:0:0:
92,88,514,2,0,P|104:168|108:216,1,120,2|2,0:1|0:1,0:0:0:0:
192,224,1060,1,8,0:1:0:0:
192,224,1241,2,0,P|187:164|177:105,1,120,2|2,0:1|0:1,0:0:0:0:
276,76,1787,6,0,P|272:44|268:-4,2,60,2|2|0,0:1|0:1|0:0,0:0:0:0:
328,144,2333,2,0,B|408:148|368:104|460:116,1,120,2|2,0:1|0:1,0:0:0:0:
496,176,2878,2,0,P|492:216|492:252,1,60,2|0,0:1|0:0,0:0:0:0:
440,324,3242,5,2,0:1:0:0:
440,324,3423,2,0,P|400:320|296:316,1,120,2|2,0:1|0:1,0:0:0:0:
240,340,3969,1,8,0:1:0:0:
240,340,4150,2,0,P|200:336|96:332,1,120,2|0,0:1|0:0,0:0:0:0:
108,324,4605,1,2,0:1:0:0:
96,316,4696,6,0,P|100:336|104:404,2,60,2|0|2,0:1|0:0|0:1,0:0:0:0:
140,244,5242,2,0,P|192:212|264:232,1,120,2|2,0:1|0:1,0:0:0:0:
304,284,5787,2,0,P|348:292|400:272,1,90,2|0,0:1|0:0,0:0:0:0:
424,256,6151,6,0,P|420:292|416:336,1,60,2|2,0:1|0:1,0:0:0:0:
500,332,6514,2,0,P|502:302|506:272,1,60,0|2,0:0|0:1,0:0:0:0:
508,188,6878,2,0,P|464:148|384:156,1,120,8|2,0:1|0:1,0:0:0:0:
340,200,7423,1,0,0:0:0:0:
256,140,7605,6,0,P|262:80|268:20,1,120,2|2,0:1|0:1,0:0:0:0:
188,44,8151,1,2,0:1:0:0:
108,72,8333,2,0,P|68:64|8:56,2,90,8|2|2,0:1|0:1|0:1,0:0:0:0:
176,148,9060,5,2,0:1:0:0:
100,188,9242,2,0,P|80:184|20:176,1,60,2|0,0:1|0:0,0:0:0:0:
16,260,9605,2,0,P|45:264|75:269,1,60,2|8,0:1|0:1,0:0:0:0:
140,324,9969,2,0,P|169:328|199:333,1,60,2|0,0:1|0:0,0:0:0:0:
296,360,10333,6,0,P|328:304|312:228,1,120,2|2,0:1|0:1,0:0:0:0:
292,172,10878,1,0,0:1:0:0:
212,192,11060,2,0,P|188:188|140:184,1,60,2|8,0:1|0:1,0:0:0:0:
120,260,11423,2,0,P|196:268|240:276,1,120,2|2,0:1|0:1,0:0:0:0:
332,232,11969,5,2,0:1:0:0:
332,232,12151,1,2,0:1:0:0:
376,304,12333,2,0,P|372:328|368:372,1,60,2|0,0:1|0:0,0:0:0:0:
452,372,12696,2,0,P|456:316|468:236,1,120,8|2,0:1|0:1,0:0:0:0:
432,176,13242,1,2,0:1:0:0:
336,212,13423,6,0,P|304:208|256:204,1,60,2|0,0:1|0:0,0:0:0:0:
208,252,13787,2,0,P|178:250|148:246,1,60,2|0,0:1|0:0,0:0:0:0:
88,188,14151,1,8,0:1:0:0:
28,248,14333,2,0,P|36:316|40:380,1,120,2|2,0:1|0:1,0:0:0:0:
140,376,14878,5,2,0:1:0:0:
208,328,15060,2,0,L|284:332,1,60,2|0,0:1|0:0,0:0:0:0:
344,364,15423,2,0,L|420:368,1,60,2|8,0:1|0:1,0:0:0:0:
480,332,15787,2,0,B|492:288|492:288|480:196,1,120,2|2,0:1|0:1,0:0:0:0:
392,168,16333,6,0,P|388:132|380:92,2,60,2|2|2,0:1|0:1|0:1,0:0:0:0:
332,236,16878,2,0,B|244:272|244:192|148:224,1,187.5,2|0,0:1|0:0,0:0:0:0:
40,280,17969,5,4,0:0:0:0:
60,132,18151,2,0,P|64:164|68:216,1,67.4999979400635,8|0,0:0|0:0,0:0:0:0:
136,64,18514,2,0,P|140:96|144:148,1,67.4999979400635,2|0,0:0|0:0,0:0:0:0:
228,172,18877,1,8,0:0:0:0:
224,160,19060,1,0,0:0:0:0:
296,68,19241,6,0,P|340:60|380:68,1,67.4999979400635,2|0,0:0|0:0,0:0:0:0:
448,104,19605,1,8,0:0:0:0:
376,168,19787,2,0,P|343:175|309:173,1,67.4999979400635,2|2,0:1|0:0,0:0:0:0:
216,152,20151,2,0,P|220:180|224:244,1,67.4999979400635,2|8,0:1|0:0,0:0:0:0:
192,308,20514,1,8,0:3:0:0:
192,308,20605,1,8,0:3:0:0:
192,308,20696,5,8,0:3:0:0:
120,248,20878,2,0,P|117:214|112:180,1,67.4999979400635,0|8,0:0|0:0,0:0:0:0:
132,88,21242,2,0,P|172:68|200:64,1,67.4999979400635,0|2,0:0|0:0,0:0:0:0:
280,28,21605,2,0,P|322:42|345:59,1,67.4999979400635,0|8,0:0|0:0,0:0:0:0:
412,152,21969,6,0,P|404:216|400:288,1,134.999995880127,2|2,0:0|0:0,0:0:0:0:
336,356,22514,1,8,0:0:0:0:
272,284,22696,2,0,P|244:280|180:276,1,67.4999979400635,0|2,0:0|0:0,0:0:0:0:
44,248,23060,5,8,0:0:0:0:
216,188,23242,1,8,0:0:0:0:
124,356,23423,1,8,0:0:0:0:
124,356,23787,5,4,0:0:0:0:
212,324,23969,2,0,P|260:328|296:332,1,67.4999979400635,8|0,0:0|0:0,0:0:0:0:
368,368,24333,2,0,P|416:364|452:360,1,67.4999979400635,2|0,0:0|0:0,0:0:0:0:
476,276,24696,1,8,0:0:0:0:
464,280,24878,1,0,0:0:0:0:
364,216,25060,6,0,P|330:219|296:222,1,67.4999979400635,2|0,0:3|0:0,0:0:0:0:
212,184,25423,2,0,P|178:187|144:190,1,67.4999979400635,8|0,0:0|0:0,0:0:0:0:
56,152,25787,1,2,0:0:0:0:
4,232,25969,2,0,P|8:260|12:316,1,67.4999979400635,0|8,0:0|0:0,0:0:0:0:
92,352,26333,1,8,0:3:0:0:
92,352,26423,1,8,0:3:0:0:
92,352,26514,5,8,0:3:0:0:
172,304,26696,2,0,P|208:296|248:296,1,67.4999979400635,2|8,0:1|0:0,0:0:0:0:
332,272,27060,2,0,P|363:291|391:320,1,67.4999979400635,2|2,0:1|0:0,0:0:0:0:
472,352,27423,2,0,P|468:324|464:264,1,67.4999979400635,2|8,0:1|0:0,0:0:0:0:
472,172,27787,6,0,P|469:138|464:104,2,67.4999979400635,2|2|2,0:1|0:0|0:0,0:0:0:0:
400,32,28332,1,8,0:0:0:0:
320,80,28514,2,0,P|288:76|236:72,1,67.4999979400635,2|0,0:0|0:0,0:0:0:0:
64,40,28878,5,8,0:0:0:0:
184,160,29060,1,8,0:0:0:0:
0,136,29242,6,0,P|8:180|16:284,1,134.999995880127,4|2,0:0|0:0,0:0:0:0:
104,300,29787,2,0,P|100:260|96:216,1,67.4999979400635,8|2,0:0|0:0,0:0:0:0:
180,184,30151,1,8,0:0:0:0:
184,196,30333,1,0,0:0:0:0:
196,288,30514,2,0,P|200:320|204:376,1,67.4999979400635,2|0,0:3|0:0,0:0:0:0:
328,376,30879,6,0,P|324:344|320:288,1,67.4999979400635,8|0,0:0|0:0,0:0:0:0:
332,216,31242,2,0,B|380:200|380:200|468:212,1,134.999995880127,8|2,0:0|0:0,0:0:0:0:
492,120,31787,2,0,P|460:116|408:108,1,67.4999979400635,8|2,0:0|0:0,0:0:0:0:
332,96,32151,1,8,0:0:0:0:
232,156,32333,6,0,B|200:156|200:156|164:148,1,60,2|0,0:0|0:0,0:0:0:0:
56,80,32696,2,0,B|88:80|88:80|124:88,1,60,2|0,0:0|0:0,0:0:0:0:
248,168,33060,2,0,B|209:168|209:168|165:158,1,60,2|0,0:0|0:0,0:0:0:0:
36,68,33423,2,0,B|74:68|74:68|118:77,1,60,2|0,0:0|0:0,0:0:0:0:
256,192,33787,12,0,35060,0:0:0:0:
176,88,35242,6,0,B|179:135|179:135|166:180|166:180|171:248,1,150,4|8,0:0|0:0,0:0:0:0:
88,112,35787,1,0,0:0:0:0:
268,200,35969,1,2,0:0:0:0:
100,268,36151,2,0,P|68:264|24:260,1,75,8|2,0:0|0:0,0:0:0:0:
284,196,36514,6,0,P|328:200|444:212,1,150,4|2,0:0|0:1,0:0:0:0:
496,88,37060,2,0,P|448:92|408:96,1,75,8|2,0:0|0:1,0:0:0:0:
232,64,37423,1,2,0:0:0:0:
400,4,37605,1,2,0:1:0:0:
344,152,37787,2,0,L|304:148,3,37.5,8|8|8|8,0:0|0:0|0:0|0:0,0:0:0:0:
276,144,38151,6,0,P|284:204|296:312,1,150,2|8,0:0|0:0,0:0:0:0:
144,384,38696,2,0,L|148:296,1,75,2|2,0:1|0:0,0:0:0:0:
160,128,39060,1,2,0:1:0:0:
56,236,39242,2,0,P|60:276|64:332,1,75,8|2,0:0|0:1,0:0:0:0:
272,352,39605,6,0,B|352:376|352:328|420:348,1,150,2|8,0:0|0:0,0:0:0:0:
312,272,40151,1,0,0:0:0:0:
140,320,40333,1,8,0:0:0:0:
328,264,40514,1,2,0:0:0:0:
124,212,40696,2,0,P|128:176|132:132,1,75,8|2,0:0|0:0,0:0:0:0:
304,64,41060,6,0,P|372:64|424:152,1,150,4|8,0:0|0:0,0:0:0:0:
424,312,41605,1,0,0:0:0:0:
336,148,41787,1,2,0:0:0:0:
508,208,41969,2,0,P|504:244|504:292,1,75,8|2,0:0|0:0,0:0:0:0:
320,352,42333,6,0,P|264:348|156:344,1,150,4|2,0:0|0:1,0:0:0:0:
44,224,42878,2,0,L|132:228,1,75,8|2,0:0|0:1,0:0:0:0:
292,276,43242,1,2,0:0:0:0:
88,308,43423,1,2,0:1:0:0:
180,172,43605,2,0,L|232:176,3,37.5,8|8|8|8,0:0|0:0|0:0|0:0,0:0:0:0:
252,176,43969,6,0,B|255:120|255:120|238:78|238:78|243:14,1,150,4|8,0:0|0:0,0:0:0:0:
344,116,44514,1,2,0:3:0:0:
140,100,44696,1,2,0:3:0:0:
364,116,44878,2,0,P|372:156|372:212,1,75,2|8,0:3|0:0,0:0:0:0:
232,336,45242,6,0,P|172:332|72:328,1,150,2|2,0:3|0:3,0:0:0:0:
0,180,45787,2,0,L|108:184,1,75,8|2,0:0|0:3,0:0:0:0:
304,220,46151,5,8,0:0:0:0:
104,256,46333,1,8,0:0:0:0:
236,120,46514,1,8,0:0:0:0:
184,332,46696,1,8,0:0:0:0:
156,96,46878,6,0,P|188:52|296:64,1,150,4|8,0:0|0:0,0:0:0:0:
424,192,47423,1,0,0:0:0:0:
236,120,47605,1,2,0:0:0:0:
408,56,47787,2,0,P|456:60|496:64,1,75,8|2,0:0|0:0,0:0:0:0:
296,208,48151,6,0,P|252:204|128:196,1,150,4|2,0:0|0:1,0:0:0:0:
4,304,48696,2,0,P|40:300|100:296,1,75,8|2,0:0|0:1,0:0:0:0:
280,336,49060,1,2,0:0:0:0:
96,380,49242,1,2,0:1:0:0:
172,244,49423,2,0,L|220:248,3,37.5,8|8|8|8,0:0|0:0|0:0|0:0,0:0:0:0:
240,252,49787,6,0,P|292:220|296:120,1,150,2|8,0:0|0:0,0:0:0:0:
136,96,50333,2,0,P|92:100|48:104,1,75,2|2,0:1|0:0,0:0:0:0:
216,164,50696,1,2,0:1:0:0:
184,8,50878,2,0,P|140:12|96:16,1,75,8|2,0:0|0:1,0:0:0:0:
8,160,51242,6,0,P|16:216|28:312,1,150,0|8,0:0|0:0,0:0:0:0:
224,352,51787,1,0,0:0:0:0:
120,192,51969,1,8,0:0:0:0:
120,380,52151,1,2,0:0:0:0:
120,172,52333,2,0,P|160:168|204:164,1,75,8|2,0:0|0:0,0:0:0:0:
388,232,52696,6,0,P|384:268|384:328,1,75,12|2,0:0|0:0,0:0:0:0:
296,136,53060,1,2,0:0:0:0:
480,160,53243,2,0,P|476:196|476:256,1,75,12|2,0:0|0:0,0:0:0:0:
304,272,53606,1,2,0:0:0:0:
400,68,53787,2,0,P|396:104|396:164,1,75,12|2,0:0|0:0,0:0:0:0:
288,284,54151,6,0,P|244:276|208:272,1,75,12|2,0:0|0:0,0:0:0:0:
44,248,54515,1,2,0:0:0:0:
244,120,54696,2,0,P|252:160|252:208,1,75,12|2,0:0|0:0,0:0:0:0:
112,100,55060,1,2,0:0:0:0:
328,112,55242,2,0,P|372:104|412:100,1,75,12|2,0:0|0:0,0:0:0:0:
504,260,55605,6,0,P|512:300|504:352,1,75,12|0,0:0|0:0,0:0:0:0:
328,268,55969,2,0,P|320:228|328:176,1,75,12|0,0:0|0:0,0:0:0:0:
472,56,56333,1,8,0:0:0:0:
468,82,56423,1,8,0:0:0:0:
465,108,56514,1,8,0:3:0:0:
463,134,56605,1,8,0:3:0:0:
461,160,56696,2,0,L|468:212,3,37.5,8|8|8|8,0:3|0:3|0:3|0:3,0:0:0:0:
472,232,57060,5,8,0:0:0:0:
472,232,58514,6,0,P|408:224|368:220,1,75,12|0,0:0|0:0,0:0:0:0:
196,152,58878,2,0,P|260:144|300:140,1,75,8|0,0:0|0:0,0:0:0:0:
364,292,59242,2,0,L|320:288,3,37.5,8|8|8|8,0:0|0:0|0:0|0:0,0:0:0:0:
292,288,59605,1,2,0:0:0:0:
472,232,59787,6,0,P|488:272|488:328,1,75,8|2,0:0|0:0,0:0:0:0:
368,144,60151,2,8,P|372:106|386:72,1,75,8|2,0:0|0:0,0:0:0:0:
340,364,60696,2,0,P|308:360|276:360,3,37.5,8|8|8|8,0:0|0:0|0:0|0:0,0:0:0:0:
268,340,61060,2,0,P|224:344|148:352,1,112.5,2|0,0:0|0:0,0:0:0:0:
120,356,61423,6,0,P|124:308|128:264,1,75,8|0,0:0|0:0,0:0:0:0:
212,108,61787,2,0,P|216:156|220:200,1,75,8|0,0:0|0:0,0:0:0:0:
44,268,62151,2,0,L|48:228,3,37.5,8|8|8|8,0:0|0:0|0:3|0:3,0:0:0:0:
52,196,62514,1,2,0:0:0:0:
268,340,62696,5,8,0:0:0:0:
256,192,62878,12,0,64272,0:0:0:0:
