osu file format v14

[General]
AudioFilename: audio.mp3
AudioLeadIn: 0
PreviewTime: 35242
Countdown: 0
SampleSet: Soft
StackLeniency: 0.7
Mode: 0
LetterboxInBreaks: 0
WidescreenStoryboard: 0

[Editor]
DistanceSpacing: 1.2
BeatDivisor: 4
GridSize: 4
TimelineZoom: 3.299999

[Metadata]
Title:20/20
TitleUnicode:20/20
Artist:ONE OK ROCK
ArtistUnicode:ONE OK ROCK
Creator:-NanoRIPE-
Version:Hard
Source:
Tags:Fueled by Ramen OOR Ambitions Short Ver A-Sketch William K Akitoshi Hazu- Twenty
BeatmapID:1284946
BeatmapSetID:608415

[Difficulty]
HPDrainRate:5
CircleSize:4
OverallDifficulty:6
ApproachRate:7
SliderMultiplier:1.4
SliderTickRate:1

[Events]
//Background and Video events
0,0,"b0a514f475509fbef4f4bcfdbf6d92dc.jpg",0,0
//Break Periods
//Storyboard Layer 0 (Background)
//Storyboard Layer 1 (Fail)
//Storyboard Layer 2 (Pass)
//Storyboard Layer 3 (Foreground)
//Storyboard Sound Samples

[TimingPoints]
333,363.636363636364,4,2,1,40,1,0
333,-111.111111111111,4,2,1,40,0,0
16878,-133.333333333333,4,2,1,40,0,0
17242,-133.333333333333,4,2,1,45,0,0
17605,-133.333333333333,4,2,1,50,0,0
17969,-100,4,2,1,60,0,0
35242,-100,4,2,1,70,0,1
46151,-100,4,2,1,70,0,0
46878,-100,4,2,1,70,0,1
57060,-125,4,2,1,70,0,1
58514,-100,4,2,1,60,0,0
64272,-100,4,2,1,5,0,0

[Colours]
Combo1 : 255,192,0
Combo2 : 255,255,128
Combo3 : 255,155,106
Combo4 : 183,255,183

[HitObjects]
26,305,333,5,2,0:1:0:0:
96,260,514,2,0,L|82:122,1,125.999996154785,2|2,0:1|0:1,0:0:0:0:
73,59,1060,1,8,0:1:0:0:
140,24,1242,2,0,P|180:56|172:148,1,125.999996154785,2|0,0:1|0:0,0:0:0:0:
198,201,1787,6,0,P|230:188|258:152,2,62.9999980773926,2|2|0,0:1|0:1|0:0,0:0:0:0:
167,270,2333,2,0,B|236:299|227:244|306:277,1,125.999996154785,2|2,0:1|0:1,0:0:0:0:
264,342,2878,2,0,P|208:359|181:352,1,62.9999980773926,2|0,0:1|0:0,0:0:0:0:
130,344,3242,5,2,0:1:0:0:
89,280,3423,2,0,P|63:309|55:355,2,62.9999980773926,2|0|2,0:1|0:0|0:1,0:0:0:0:
162,258,3969,1,8,0:1:0:0:
223,214,4151,2,0,L|313:206,1,62.9999980773926,2|0,0:1|0:0,0:0:0:0:
305,280,4514,1,0,0:0:0:0:
305,280,4696,2,0,L|227:286,2,62.9999980773926,2|0|2,0:1|0:0|0:1,0:0:0:0:
380,286,5242,2,0,P|400:240|394:164,1,125.999996154785,2|2,0:1|0:1,0:0:0:0:
343,103,5787,1,2,0:1:0:0:
195,138,6151,5,2,0:1:0:0:
167,67,6333,2,0,P|132:50|88:48,1,62.9999980773926,2|0,0:1|0:0,0:0:0:0:
36,80,6696,1,2,0:1:0:0:
36,80,6878,2,0,P|29:38|38:12,2,62.9999980773926,8|0|2,0:1|0:1|0:1,0:1:0:0:
105,123,7423,1,2,0:1:0:0:
162,172,7605,6,0,L|145:314,1,125.999996154785,2|2,0:1|0:1,0:0:0:0:
200,350,8151,1,2,0:1:0:0:
267,316,8333,2,0,P|301:283|365:283,2,94.499997116089,8|2|2,0:1|0:1|0:1,0:0:0:0:
334,350,9060,5,2,0:1:0:0:
346,277,9242,2,0,P|350:205|287:170,1,125.999996154785,2|2,0:1|0:1,0:0:0:0:
263,115,9787,1,8,0:1:0:0:
204,164,9969,2,0,L|130:168,1,62.9999980773926,2|0,0:1|0:0,0:0:0:0:
71,198,10333,6,0,P|67:135|139:92,1,125.999996154785,2|2,0:1|0:1,0:0:0:0:
141,167,10878,1,2,0:1:0:0:
143,242,11060,2,0,L|221:237,1,62.9999980773926,2|0,0:1|0:0,0:0:0:0:
247,174,11423,2,0,L|261:320,1,125.999996154785,2|0,0:1|0:0,0:0:0:0:
334,307,11969,6,0,P|371:273|382:239,1,62.9999980773926,2|0,0:1|0:0,0:0:0:0:
352,189,12333,2,0,P|341:143|406:68,2,125.999996154785,2|8|2,0:1|0:1|0:1,0:0:0:0:
416,148,13242,1,2,0:1:0:0:
470,200,13423,6,0,L|461:271,1,62.9999980773926,2|2,0:1|0:1,0:0:0:0:
436,332,13787,2,0,B|401:339|401:339|352:329,1,62.9999980773926,2|2,0:1|0:1,0:0:0:0:
368,258,14151,1,8,0:1:0:0:
368,258,14333,2,0,B|330:258|310:282|310:282|283:265|242:270,1,125.999996154785,2|2,0:1|0:1,0:0:0:0:
260,344,14878,5,2,0:1:0:0:
189,316,15060,2,0,P|173:259|231:190,1,125.999996154785,2|2,0:1|0:1,0:0:0:0:
260,152,15605,1,8,0:1:0:0:
331,186,15787,2,0,B|406:210|396:164|461:185,1,125.999996154785,2|0,0:1|0:0,0:0:0:0:
420,260,16333,5,2,0:1:0:0:
459,323,16514,1,2,0:1:0:0:
501,260,16696,1,2,0:1:0:0:
454,184,16878,6,0,B|438:100|438:100|402:146|402:146|414:182|401:217|401:217|422:264,1,262.500010013581,2|0,0:1|0:0,0:0:0:0:
348,312,17969,5,4,0:0:0:0:
272,280,18151,2,0,L|180:292,1,70,8|0,0:0|0:0,0:0:0:0:
136,240,18514,1,2,0:0:0:0:
136,240,18696,1,0,0:0:0:0:
60,208,18878,2,0,P|44:168|56:120,1,70,8|0,0:0|0:0,0:0:0:0:
104,84,19242,6,0,L|92:-8,2,70,2|0|8,0:0|0:0|0:0,0:0:0:0:
196,152,19787,2,0,L|176:8,1,140,2|2,0:0|0:0,0:0:0:0:
94,14,20333,1,8,0:0:0:0:
24,60,20514,1,8,0:3:0:0:
24,60,20605,1,8,0:3:0:0:
24,60,20696,1,8,0:3:0:0:
48,140,20878,6,0,L|140:148,1,70,2|8,0:1|0:0,0:0:0:0:
228,224,21242,2,0,L|152:216,1,70,2|2,0:1|0:0,0:0:0:0:
84,256,21605,1,2,0:1:0:0:
84,256,21787,1,8,0:0:0:0:
144,348,21969,6,0,P|196:312|284:328,1,140,2|2,0:0|0:0,0:0:0:0:
336,368,22514,2,0,P|312:336|336:240,1,140,8|2,0:0|0:0,0:0:0:0:
388,176,23060,1,8,0:0:0:0:
476,240,23242,1,8,0:0:0:0:
388,304,23423,1,8,0:0:0:0:
388,304,23787,5,4,0:0:0:0:
331,244,23969,2,0,P|295:236|255:248,1,70,8|0,0:0|0:0,0:0:0:0:
189,284,24333,2,0,B|169:240|193:196|193:196|157:192|129:152,1,140,2|8,0:0|0:0,0:0:0:0:
84,124,24878,1,0,0:0:0:0:
84,124,25060,6,0,P|116:100|160:96,1,70,2|0,0:0|0:0,0:0:0:0:
224,64,25423,2,0,P|256:88|304:88,1,70,8|0,0:0|0:0,0:0:0:0:
352,40,25787,1,2,0:0:0:0:
224,64,25969,2,0,L|236:224,1,140,2|8,0:0|0:3,0:0:0:0:
236,217,26423,1,8,0:3:0:0:
236,217,26514,1,8,0:3:0:0:
175,275,26696,6,0,P|215:295|251:295,1,70,2|8,0:1|0:0,0:0:0:0:
141,192,27060,2,0,P|110:174|76:170,1,70,2|2,0:1|0:0,0:0:0:0:
49,313,27423,2,0,P|77:273|85:233,1,70,2|8,0:1|0:0,0:0:0:0:
76,169,27787,1,2,0:1:0:0:
25,101,27969,5,2,0:0:0:0:
25,101,28151,1,2,0:0:0:0:
87,45,28333,2,0,P|143:21|227:53,1,140,8|2,0:0|0:0,0:0:0:0:
277,100,28878,1,8,0:0:0:0:
154,99,29060,1,8,0:0:0:0:
176,216,29242,6,0,B|120:208|120:208|88:220|88:220|28:212,1,140,4|2,0:0|0:0,0:0:0:0:
32,296,29787,1,8,0:0:0:0:
32,296,30151,2,0,B|88:304|88:304|120:292|120:292|168:298,1,140,8|0,0:0|0:0,0:0:0:0:
240,336,30696,1,2,0:0:0:0:
260,258,30878,6,0,P|300:242|344:250,1,70,8|0,0:0|0:0,0:0:0:0:
316,384,31242,2,0,L|328:232,1,140,8|2,0:0|0:0,0:0:0:0:
284,164,31787,1,8,0:0:0:0:
340,100,31969,1,2,0:0:0:0:
380,172,32151,1,8,0:0:0:0:
284,164,32333,6,0,P|256:120|256:88,1,70
204,32,32696,2,0,P|178:64|175:111,1,70,2|0,0:0|0:0,0:0:0:0:
124,160,33060,2,0,P|98:128|95:81,1,70,2|0,0:0|0:0,0:0:0:0:
44,32,33423,2,0,P|18:64|15:111,1,70,2|0,0:0|2:2,0:0:0:0:
256,192,33787,12,0,35060,0:0:0:0:
384,360,35242,6,0,P|440:372|504:320,1,140,4|8,0:0|0:0,0:0:0:0:
492,240,35787,1,0,0:0:0:0:
492,240,35969,2,0,P|464:216|408:212,1,70,2|8,0:0|0:0,0:0:0:0:
428,288,36333,1,2,0:0:0:0:
312,316,36514,6,0,B|228:292|248:340|164:316,1,140,4|2,0:0|0:1,0:0:0:0:
92,296,37060,1,8,0:0:0:0:
92,296,37242,1,2,0:1:0:0:
108,216,37423,2,0,P|140:180|172:172,1,70,2|2,0:0|0:1,0:0:0:0:
224,120,37787,2,8,L|228:76,3,35
252,52,38151,6,0,L|272:196,1,140,2|8,0:0|0:0,0:0:0:0:
300,268,38696,2,0,P|364:272|388:256,1,70,2|2,0:1|0:0,0:0:0:0:
504,204,39060,2,0,P|470:197|436:206,1,70,2|8,0:1|0:0,0:0:0:0:
336,144,39423,2,0,P|400:116|400:40,1,140,2|0,0:1|0:0,0:0:0:0:
332,7,39969,2,0,L|248:27,1,70,8|0,0:0|0:0,0:0:0:0:
192,96,40333,5,8,0:0:0:0:
112,44,40514,1,2,0:0:0:0:
192,96,40696,2,0,L|200:188,1,70,8|2,0:0|0:0,0:0:0:0:
264,24,41060,6,0,L|276:168,1,140,4|8,0:0|0:0,0:0:0:0:
348,204,41605,1,0,0:0:0:0:
396,136,41787,2,0,P|420:164|428:208,1,70,2|8,0:0|0:0,0:0:0:0:
404,272,42151,1,8,0:0:0:0:
296,340,42333,6,0,B|384:312|352:372|452:340,1,140,4|2,0:0|0:1,0:0:0:0:
404,272,42878,1,8,0:0:0:0:
404,272,43060,1,2,0:1:0:0:
320,256,43242,2,0,P|276:264|248:280,1,70,2|2,0:0|0:1,0:0:0:0:
172,264,43605,2,8,L|176:208,3,35
152,196,43969,6,0,B|104:192|104:192|64:208|64:208|12:204,1,140,6|8,0:0|0:0,0:0:0:0:
48,124,44514,1,2,0:3:0:0:
48,124,44696,1,2,0:3:0:0:
132,116,44878,2,0,L|228:124,1,70,2|8,0:1|0:0,0:0:0:0:
256,56,45242,6,0,P|224:120|272:196,1,140,2|0,0:1|0:0,0:0:0:0:
316,232,45787,2,0,L|308:312,1,70,8|0,0:0|0:0,0:0:0:0:
240,352,46151,5,8,0:0:0:0:
164,272,46333,1,8,0:0:0:0:
92,348,46514,1,8,0:0:0:0:
24,264,46696,1,8,0:0:0:0:
120,204,46878,6,0,B|156:184|192:196|192:196|204:152|248:140,1,140,4|8,0:0|0:0,0:0:0:0:
280,216,47423,1,0,0:0:0:0:
308,136,47605,2,0,P|292:96|252:72,1,70,2|8,0:0|0:0,0:0:0:0:
196,40,47969,1,2,0:0:0:0:
336,20,48151,6,0,P|364:56|472:44,1,140,4|2,0:0|0:1,0:0:0:0:
488,136,48696,2,0,P|476:176|488:216,1,70,8|2,0:0|0:1,0:0:0:0:
410,249,49060,1,2,0:0:0:0:
410,249,49242,1,2,0:1:0:0:
354,186,49423,2,8,L|302:182,3,35
300,144,49787,6,0,L|312:288,1,140,2|8,0:0|0:0,0:0:0:0:
324,368,50333,2,0,P|364:384|404:376,1,70,2|2,0:1|0:0,0:0:0:0:
240,320,50696,2,0,P|200:304|160:308,1,70,2|8,0:1|0:0,0:0:0:0:
69,345,51060,6,0,P|120:314|128:225,1,140,2|2,0:1|0:0,0:0:0:0:
54,262,51605,2,0,L|-22:268,1,70,8|0,0:0|0:0,0:0:0:0:
47,182,51969,1,8,0:0:0:0:
133,239,52151,1,2,0:0:0:0:
47,182,52333,2,0,P|63:142|91:122,1,70,8|0,0:0|0:0,0:0:0:0:
165,90,52696,6,0,P|188:64|200:32,1,70,6|2,0:0|0:0,0:0:0:0:
116,24,53060,1,2,0:0:0:0:
216,156,53242,2,0,P|256:112|280:16,1,140,12|2,0:0|0:0,0:0:0:0:
364,24,53787,1,8,0:0:0:0:
364,24,53969,1,2,0:0:0:0:
404,96,54151,6,0,P|436:120|492:128,1,70,6|2,0:0|0:0,0:0:0:0:
464,44,54514,1,2,0:0:0:0:
460,208,54696,2,0,P|396:192|332:132,1,140,12|2,0:0|0:0,0:0:0:0:
284,80,55242,1,8,0:0:0:0:
284,80,55423,1,2,0:0:0:0:
344,20,55605,6,0,P|392:12|440:32,1,70,12|0,0:0|0:0,0:0:0:0:
496,136,55969,2,0,P|448:144|400:124,1,70,12|0,0:0|0:0,0:0:0:0:
340,144,56333,2,8,L|336:196,3,35,8|8|8|8,0:3|0:3|0:3|0:3,0:3:0:0:
304,208,56696,2,8,L|308:268,3,35,8|8|8|8,0:3|0:3|0:3|0:3,0:3:0:0:
296,276,57060,6,0,B|228:252|164:316|164:316|176:228|120:208|120:208|72:260|4:236,1,392,8|0,0:0|0:0,0:0:0:0:
44,160,58514,5,12,0:0:0:0:
44,160,58878,2,0,P|32:104|40:72,1,70,8|0,0:0|0:0,0:0:0:0:
96,36,59242,2,8,L|148:36,3,35
172,44,59605,1,2,0:0:0:0:
236,124,59787,6,0,B|224:168|224:168|232:216|232:216|216:272,1,140,8|8,0:0|0:0,0:0:0:0:
136,248,60333,1,2,0:0:0:0:
136,248,60696,2,8,L|148:196,3,35
140,172,61060,2,0,P|96:192|24:168,1,105,2|0,0:0|0:0,0:0:0:0:
0,192,61423,6,0,L|8:268,1,70,8|0,0:0|0:0,0:0:0:0:
85,114,61787,2,0,L|89:30,1,70,8|0,0:0|0:0,0:0:0:0:
176,28,62151,2,8,L|180:68,3,35,8|8|8|8,0:0|0:0|0:3|0:3,0:0:0:0:
184,104,62514,1,2,0:0:0:0:
304,44,62696,5,8,0:0:0:0:
256,192,62878,12,0,64272,0:0:0:0:
