osu file format v14

[General]
AudioFilename: audio.mp3
AudioLeadIn: 0
PreviewTime: 35242
Countdown: 0
SampleSet: Soft
StackLeniency: 0.7
Mode: 0
LetterboxInBreaks: 0
WidescreenStoryboard: 0

[Editor]
DistanceSpacing: 1.1
BeatDivisor: 4
GridSize: 4
TimelineZoom: 2.5

[Metadata]
Title:20/20
TitleUnicode:20/20
Artist:ONE OK ROCK
ArtistUnicode:ONE OK ROCK
Creator:-NanoRIPE-
Version:Easy
Source:
Tags:Fueled by Ramen OOR Ambitions Short Ver A-Sketch William K Akitoshi Hazu- Twenty
BeatmapID:1291106
BeatmapSetID:608415

[Difficulty]
HPDrainRate:3
CircleSize:3
OverallDifficulty:2
ApproachRate:3
SliderMultiplier:0.8
SliderTickRate:1

[Events]
//Background and Video events
0,0,"b0a514f475509fbef4f4bcfdbf6d92dc.jpg",0,0
//Break Periods
//Storyboard Layer 0 (Background)
//Storyboard Layer 1 (Fail)
//Storyboard Layer 2 (Pass)
//Storyboard Layer 3 (Foreground)
//Storyboard Sound Samples

[TimingPoints]
333,363.636363636364,4,2,1,50,1,0
18151,-100,4,2,1,60,0,0
35242,-100,4,2,1,70,0,1
46151,-100,4,2,1,70,0,0
46878,-100,4,2,1,70,0,1
57060,-100,4,2,1,70,0,1
58514,-100,4,2,1,60,0,0
64272,-100,4,2,1,5,0,0

[Colours]
Combo1 : 255,192,0
Combo2 : 255,255,128
Combo3 : 255,155,106
Combo4 : 183,255,183

[HitObjects]
72,80,333,6,0,L|92:244,1,160,2|8,0:1|0:1,0:0:0:0:
212,364,1787,2,0,P|228:320|336:288,1,160,2|8,0:1|0:1,0:0:0:0:
300,368,2878,1,2,0:1:0:0:
388,348,3242,6,0,L|472:208,1,160,2|8,0:1|0:1,0:0:0:0:
464,36,4696,2,0,L|396:148,2,120,2|2|2,0:1|0:1|0:1,0:0:0:0:
384,4,6151,6,0,B|352:52|352:52|240:52,1,160,2|8,0:1|0:1,0:0:0:0:
160,56,7242,1,0,0:0:0:0:
72,32,7605,2,0,B|54:114|121:112|84:192,1,160,2|8,0:1|0:1,0:0:0:0:
24,244,8696,1,0,0:1:0:0:
68,320,9060,6,0,P|124:284|220:308,1,160,2|8,0:1|0:1,0:0:0:0:
272,364,10151,1,0,0:0:0:0:
332,300,10514,2,0,B|348:232|308:248|328:168,2,120,2|2|2,0:1|0:1|0:1,0:0:0:0:
248,272,11969,6,0,P|212:260|164:272,2,80,2|0|8,0:1|0:0|0:1,0:0:0:0:
204,348,13060,1,0,0:0:0:0:
116,332,13423,2,0,P|92:296|92:252,1,80,2|0,0:1|0:0,0:0:0:0:
144,192,14151,2,0,B|104:164|56:180|56:180|76:144|60:100,1,160,8|2,0:1|0:1,0:0:0:0:
64,28,15242,5,0,0:0:0:0:
144,64,15605,2,0,P|200:72|236:56,1,80,8|0,0:1|0:0,0:0:0:0:
300,26,16333,2,0,P|371:0|463:180,1,320,2|0,0:1|0:0,0:0:0:0:
381,193,18151,6,0,L|373:273,2,80,8|2|8,0:0|0:0|0:0,0:0:0:0:
377,104,19242,1,2,0:0:0:0:
332,32,19605,2,0,P|288:28|252:48,1,80,8|2,0:0|0:0,0:0:0:0:
212,120,20333,1,8,0:0:0:0:
132,92,20696,6,0,L|124:12,1,80,2|8,0:0|0:0,0:0:0:0:
36,28,21423,2,0,L|44:108,1,80,2|8,0:0|0:0,0:0:0:0:
60,196,22151,1,2,0:0:0:0:
144,163,22514,2,0,B|207:137|201:189|269:162,1,120,8|8,0:0|0:0,0:0:0:0:
232,84,23423,1,8,0:0:0:0:
356,36,23969,5,8,0:0:0:0:
436,76,24333,2,0,L|452:160,1,80,2|8,0:0|0:0,0:0:0:0:
392,220,25060,2,0,P|360:208|308:212,2,80,2|8|2,0:0|0:0|0:0,0:0:0:0:
340,292,26151,1,8,0:0:0:0:
276,352,26514,6,0,L|184:368,1,80,2|8,0:0|0:0,0:0:0:0:
132,304,27242,2,0,L|36:296,1,80,2|8,0:0|0:0,0:0:0:0:
16,216,27969,1,2,0:0:0:0:
56,136,28333,2,0,P|104:116|172:152,1,120,8|8,0:0|0:0,0:0:0:0:
212,216,29242,6,0,L|348:204,1,120,4|8,0:0|0:0,0:0:0:0:
396,148,30151,2,0,P|416:188|412:228,1,80,8|2,0:0|0:0,0:0:0:0:
396,308,30878,1,8,0:0:0:0:
320,352,31242,2,0,L|192:344,1,120,8|8,0:0|0:0,0:0:0:0:
124,300,32151,1,8,0:0:0:0:
256,192,32333,12,0,33787,0:2:0:0:
124,296,35242,6,0,L|212:300,1,80,4|8,0:0|0:0,0:0:0:0:
272,356,35969,2,0,P|256:324|284:240,2,120,2|4|8,0:0|0:0|0:0,0:0:0:0:
342,303,37423,1,2,0:0:0:0:
420,348,37787,1,8,0:0:0:0:
464,276,38151,6,0,B|476:236|476:236|468:192,2,80,2|8|2,0:0|0:0|0:0,0:0:0:0:
420,348,39242,1,8,0:0:0:0:
342,306,39605,2,0,B|302:302|302:302|250:314,1,80,2|8,0:0|0:0,0:0:0:0:
186,355,40333,1,8,0:0:0:0:
128,288,40696,1,8,0:0:0:0:
60,232,41060,6,0,P|88:212|140:204,1,80,4|8,0:0|0:0,0:0:0:0:
108,120,41787,2,0,P|52:132|-4:172,2,120,2|4|8,0:0|0:0|0:0,0:0:0:0:
196,112,43242,1,2,0:0:0:0:
144,40,43605,1,8,0:0:0:0:
108,120,43969,6,0,L|104:204,1,80,4|8,0:0|0:0,0:0:0:0:
24,240,44696,2,0,L|48:324,1,80,2|8,0:0|0:0,0:0:0:0:
128,352,45423,2,0,P|156:328|204:320,1,80,2|8,0:0|0:0,0:0:0:0:
276,356,46151,1,8,0:0:0:0:
328,284,46514,1,8,0:0:0:0:
268,220,46878,6,0,L|172:208,1,80,4|8,0:0|0:0,0:0:0:0:
180,124,47605,2,0,L|316:140,2,120,2|4|8,0:0|0:0|0:0,0:0:0:0:
92,108,49060,1,2,0:0:0:0:
128,28,49423,1,8,0:0:0:0:
216,44,49787,6,0,L|312:56,1,80,2|8,0:0|0:0,0:0:0:0:
356,116,50514,2,0,L|444:104,1,80,2|8,0:0|0:0,0:0:0:0:
508,156,51242,2,0,P|520:196|508:248,1,80,2|8,0:0|0:0,0:0:0:0:
448,292,51969,1,8,0:0:0:0:
384,232,52333,1,8,0:0:0:0:
324,296,52696,6,0,L|208:324,2,120,12|12|12,0:0|0:0|0:0,0:0:0:0:
384,232,54151,2,0,P|402:195|383:106,2,120,12|12|12,0:0|0:0|0:0,0:0:0:0:
319,171,55605,5,12,0:0:0:0:
311,83,55969,1,12,0:0:0:0:
245,23,56333,2,0,B|218:56|226:100|226:100|187:114|179:175,1,160,8|8,0:3|0:0,0:0:0:0:
181,159,58514,6,0,L|267:161,1,80,12|8,0:0|0:0,0:0:0:0:
327,218,59242,2,0,P|310:170|345:100,1,120,8|8,0:0|0:0,0:0:0:0:
398,169,60151,1,8,0:0:0:0:
404,300,60696,2,0,P|359:323|320:317,1,80,8|2,0:0|0:0,0:0:0:0:
255,275,61423,6,0,L|167:283,1,80,8|8,0:0|0:0,0:0:0:0:
94,317,62151,2,0,B|76:274|99:236|99:236|73:203,1,120,8|8,0:0|0:0,0:0:0:0:
256,192,62878,12,0,64272,0:0:0:0:
