osu file format v14

[General]
AudioFilename: audio.mp3
AudioLeadIn: 0
PreviewTime: 35242
Countdown: 0
SampleSet: Soft
StackLeniency: 0.7
Mode: 0
LetterboxInBreaks: 0
WidescreenStoryboard: 0

[Editor]
DistanceSpacing: 1.4
BeatDivisor: 4
GridSize: 4
TimelineZoom: 1.800001

[Metadata]
Title:20/20
TitleUnicode:20/20
Artist:ONE OK ROCK
ArtistUnicode:ONE OK ROCK
Creator:-NanoRIPE-
Version:Akitoshi's Light Extra
Source:
Tags:Fueled by Ramen OOR Ambitions Short Ver A-Sketch William K Akitoshi Hazu- Twenty
BeatmapID:1305272
BeatmapSetID:608415

[Difficulty]
HPDrainRate:6
CircleSize:4
OverallDifficulty:8
ApproachRate:9
SliderMultiplier:1.8
SliderTickRate:1

[Events]
//Background and Video events
0,0,"b0a514f475509fbef4f4bcfdbf6d92dc.jpg",0,0
//Break Periods
//Storyboard Layer 0 (Background)
//Storyboard Layer 1 (Fail)
//Storyboard Layer 2 (Pass)
//Storyboard Layer 3 (Foreground)
//Storyboard Sound Samples

[TimingPoints]
333,363.636363636364,4,2,1,50,1,0
333,-133.333333333333,4,2,1,50,0,0
16878,-200,4,2,1,50,0,0
18151,-100,4,2,1,60,0,0
29242,-111.111111111111,4,2,1,60,0,0
32333,-125,4,2,1,60,0,0
33787,-166.666666666667,4,2,1,60,0,0
35242,-90.9090909090909,4,2,1,70,0,1
46151,-90.9090909090909,4,2,1,70,0,0
46878,-90.9090909090909,4,2,1,70,0,1
57060,-133.333333333333,4,2,1,70,0,1
58514,-100,4,2,1,60,0,0
61060,-83.3333333333333,4,2,1,60,0,0
61423,-100,4,2,1,60,0,0
64242,-100,4,2,1,5,0,0

[Colours]
Combo1 : 255,192,0
Combo2 : 255,255,128
Combo3 : 255,155,106
Combo4 : 183,255,183

[HitObjects]
58,193,333,5,2,0:1:0:0:
58,193,514,2,0,P|126:216|197:175,1,135.000005149842,2|2,0:1|0:0,0:0:0:0:
305,193,1060,1,8,0:1:0:0:
305,193,1242,2,0,P|237:216|166:175,1,135.000005149842
234,60,1787,6,0,L|243:127,2,67.5000025749208,0|2|0,0:0|0:1|0:0,0:0:0:0:
320,6,2333,1,0,0:0:0:0:
417,30,2514,2,0,L|425:96,1,67.5000025749208,8|0,0:1|0:1,0:0:0:0:
505,159,2878,2,0,L|497:225,1,67.5000025749208,0|0,0:1|0:1,0:0:0:0:
400,259,3242,5,2,0:1:0:0:
400,259,3423,2,0,P|361:241|261:271,1,135.000005149842,2|2,0:1|0:0,0:0:0:0:
148,259,3969,1,8,0:1:0:0:
148,259,4151,2,0,P|187:241|287:271,1,135.000005149842,0|0,0:1|0:0,0:0:0:0:
303,356,4696,6,0,L|234:362,2,67.5000025749208,0|0|0,0:0|0:1|0:0,0:0:0:0:
400,326,5242,2,0,P|420:272|388:184,1,135.000005149842,2|0,0:1|0:0,0:0:0:0:
330,126,5787,1,0,0:0:0:0:
198,280,6151,5,2,0:1:0:0:
198,280,6333,1,0,0:0:0:0:
96,228,6514,2,0,P|88:194|95:155,1,67.5000025749208
205,54,6878,2,0,B|271:75|271:75|353:54,1,135.000005149842,8|0,0:1|0:0,0:0:0:0:
432,31,7423,1,0,0:0:0:0:
498,107,7605,6,0,L|491:246,1,135.000005149842,2|0,0:1|0:0,0:0:0:0:
411,304,8151,1,0,0:0:0:0:
296,199,8333,1,8,0:1:0:0:
296,199,8514,2,0,P|244:189|161:237,1,135.000005149842
104,299,9060,6,0,B|127:261|127:261|109:148,1,135.000005149842,2|0,0:1|0:0,0:0:0:0:
91,72,9605,1,0,0:0:0:0:
243,100,9787,1,8,0:1:0:0:
243,100,9969,2,0,P|277:104|332:91,1,67.5000025749208,0|0,0:1|0:0,0:0:0:0:
401,17,10333,6,0,B|385:50|385:50|404:81|405:114|386:148,1,135.000005149842,2|0,0:1|0:0,0:0:0:0:
313,210,10878,1,0,0:0:0:0:
383,282,11060,2,0,L|472:272,1,67.5000025749208,0|8,0:0|0:1,0:0:0:0:
313,210,11423,2,0,L|174:194,1,135.000005149842,0|0,0:0|0:1,0:0:0:0:
77,182,11969,5,2,0:1:0:0:
77,182,12151,1,0,0:0:0:0:
162,95,12333,2,0,P|157:52|157:22,1,67.5000025749208
246,203,12696,2,0,P|241:246|241:276,1,67.5000025749208,8|0,0:1|0:0,0:0:0:0:
310,353,13060,1,0,0:0:0:0:
310,353,13242,1,0,0:0:0:0:
390,292,13423,6,0,P|421:280|459:278,1,67.5000025749208,2|0,0:1|0:0,0:0:0:0:
510,192,13787,2,0,P|479:180|441:178,1,67.5000025749208,0|0,0:1|0:0,0:0:0:0:
292,212,14151,1,8,0:1:0:0:
333,119,14333,2,0,P|329:84|324:49,2,67.5000025749208
292,212,14878,5,2,0:1:0:0:
201,166,15060,2,0,P|155:159|79:206,1,135.000005149842
27,347,15605,1,8,0:1:0:0:
161,322,15787,2,0,P|167:289|163:256,1,67.5000025749208
8,151,16151,1,2,0:1:0:0:
256,192,16333,12,0,17787,0:0:0:0:
327,248,17969,5,6,0:0:0:0:
327,248,18151,2,0,P|335:198|314:145,1,90,8|0,0:0|0:0,0:0:0:0:
168,70,18514,1,2,0:0:0:0:
234,208,18696,1,2,0:0:0:0:
367,49,18878,1,8,0:0:0:0:
433,187,19060,1,0,0:0:0:0:
263,101,19242,6,0,L|272:2,1,90,2|2,0:0|0:0,0:0:0:0:
457,102,19605,1,8,0:0:0:0:
295,181,19787,2,0,P|243:185|202:162,1,90,0|2,0:0|0:0,0:0:0:0:
67,56,20151,1,2,0:0:0:0:
263,101,20333,1,8,0:0:0:0:
75,186,20514,1,8,3:0:0:0:
75,186,20605,1,8,3:0:0:0:
75,186,20696,6,0,P|79:237|83:288,1,90,2|2,0:0|0:0,0:0:0:0:
266,373,21060,2,0,P|270:321|274:271,1,90,8|0,0:0|0:0,0:0:0:0:
263,101,21423,1,2,0:0:0:0:
176,227,21605,1,2,0:0:0:0:
388,187,21787,1,8,0:0:0:0:
176,141,21969,6,0,P|170:77|254:4,1,180
388,187,22514,1,8,0:0:0:0:
215,263,22696,2,0,L|119:253,1,90,2|0,0:0|0:0,0:0:0:0:
263,101,23060,1,8,0:0:0:0:
340,312,23242,1,8,0:0:0:0:
125,253,23423,1,8,0:0:0:0:
476,174,23787,5,2,0:0:0:0:
476,174,23969,2,0,P|482:127|466:84,1,90,8|0,0:0|0:0,0:0:0:0:
263,101,24333,2,0,P|257:148|273:191,1,90,2|0,0:0|0:0,0:0:0:0:
387,5,24696,1,8,0:0:0:0:
370,133,24878,1,0,0:0:0:0:
234,14,25060,6,0,L|134:20,1,90,0|2,0:0|0:0,0:0:0:0:
14,180,25423,1,8,0:0:0:0:
170,137,25605,1,0,0:0:0:0:
24,31,25787,1,2,0:0:0:0:
126,231,25969,2,0,P|171:240|229:222,1,90,0|8,0:0|0:0,0:0:0:0:
417,155,26333,1,8,3:0:0:0:
417,155,26423,1,8,3:0:0:0:
417,155,26514,6,0,L|407:65,1,90,2|2,0:0|0:0,0:0:0:0:
211,136,26878,1,8,0:0:0:0:
373,233,27060,2,0,P|415:244|469:228,1,90,0|2,0:0|0:0,0:0:0:0:
306,101,27423,1,2,0:0:0:0:
276,313,27605,1,8,0:0:0:0:
373,233,27787,1,0,0:0:0:0:
174,232,27969,6,0,P|128:235|72:237,1,90,2|0,0:0|0:0,0:0:0:0:
192,358,28333,1,8,0:0:0:0:
280,223,28514,1,0,0:0:0:0:
84,236,28696,1,2,0:0:0:0:
276,313,28878,1,8,0:0:0:0:
169,94,29060,1,8,0:0:0:0:
379,155,29242,6,0,P|435:144|497:51,1,161.999995056153,6|0,0:0|0:0,0:0:0:0:
275,100,29787,1,8,0:0:0:0:
349,252,29969,1,2,0:0:0:0:
386,43,30151,1,8,0:0:0:0:
289,183,30333,1,2,0:0:0:0:
432,272,30514,2,0,P|436:316|434:364,1,80.9999975280763,0|0,3:0|0:0,0:0:0:0:
289,183,30878,5,8,0:0:0:0:
455,147,31060,1,0,0:0:0:0:
322,321,31242,2,0,P|282:315|239:311,1,80.9999975280763,8|0,0:0|0:0,0:0:0:0:
72,329,31605,1,0,3:0:0:0:
147,123,31787,1,8,0:0:0:0:
155,293,31969,1,0,0:0:0:0:
0,137,32151,1,8,0:0:0:0:
177,205,32333,6,0,B|216:197|216:197|252:191,1,72,2|0,0:0|0:0,0:0:0:0:
290,54,32696,2,0,B|298:93|298:93|304:129,1,72,2|0,0:0|0:0,0:0:0:0:
187,215,33060,2,0,B|226:207|226:207|262:201,1,72,2|0,0:0|0:0,0:0:0:0:
300,64,33423,2,0,B|308:103|308:103|314:139,1,72,2|0,0:0|0:0,0:0:0:0:
256,192,33787,12,0,35060,0:0:0:0:
146,163,35242,6,0,B|248:138|228:226|343:199,1,198.000006042481,6|8,0:0|0:0,0:0:0:0:
483,106,35787,1,0,0:0:0:0:
305,90,35969,1,2,0:0:0:0:
468,262,36151,2,0,P|483:310|469:363,1,99.0000030212403,8|0,0:0|0:0,0:0:0:0:
236,326,36514,6,0,B|382:314|382:314|325:281,1,198.000006042481,6|0,0:0|0:0,0:0:0:0:
146,163,37060,2,0,P|93:162|39:160,1,99.0000030212403,8|0,0:0|0:0,0:0:0:0:
209,86,37423,1,2,0:0:0:0:
166,259,37605,1,2,0:0:0:0:
358,136,37787,1,8,0:0:0:0:
386,115,37878,1,2,0:0:0:0:
415,96,37969,1,2,0:0:0:0:
442,75,38060,1,2,0:0:0:0:
469,53,38151,6,0,P|475:112|477:173,1,99.0000030212403,2|0,0:0|0:0,0:0:0:0:
375,355,38514,1,8,0:0:0:0:
241,170,38696,2,0,P|185:155|128:171,1,99.0000030212403,0|2,0:0|0:0,0:0:0:0:
263,297,39060,1,0,0:0:0:0:
346,84,39242,1,8,0:0:0:0:
119,75,39423,6,0,L|135:288,1,198.000006042481,2|0,0:0|0:0,0:0:0:0:
230,64,39969,1,8,0:0:0:0:
15,141,40151,1,0,0:0:0:0:
245,201,40333,1,8,0:0:0:0:
30,278,40515,1,0,0:0:0:0:
119,75,40696,1,8,0:0:0:0:
133,272,40878,1,0,0:0:0:0:
304,123,41060,6,0,P|336:168|285:290,1,198.000006042481,6|8,0:0|0:0,0:0:0:0:
245,201,41605,1,0,0:0:0:0:
433,188,41787,1,2,0:0:0:0:
217,71,41969,1,8,0:0:0:0:
341,196,42151,1,0,0:0:0:0:
106,156,42333,6,0,B|91:4|91:4|144:31,1,198.000006042481,6|2,0:0|0:0,0:0:0:0:
139,262,42878,2,0,P|92:266|32:237,1,99.0000030212403,8|0,0:0|0:0,0:0:0:0:
245,201,43242,1,2,0:0:0:0:
136,360,43423,1,0,0:0:0:0:
106,156,43605,1,8,0:0:0:0:
102,121,43695,1,2,0:0:0:0:
99,87,43786,1,2,0:0:0:0:
95,52,43877,1,2,0:0:0:0:
91,18,43969,5,6,0:0:0:0:
7,175,44151,1,0,0:0:0:0:
215,59,44333,1,8,0:0:0:0:
142,242,44514,2,0,B|199:224|199:224|350:241,1,198.000006042481,0|0,3:0|0:0,0:0:0:0:
212,360,45060,1,8,0:0:0:0:
242,144,45242,6,0,L|366:160,1,99.0000030212403,0|2,0:0|0:0,0:0:0:0:
215,59,45605,1,0,0:0:0:0:
284,234,45787,1,8,0:0:0:0:
402,87,45969,1,0,0:0:0:0:
169,202,46151,5,8,0:0:0:0:
417,219,46333,1,8,0:0:0:0:
169,202,46514,1,8,0:0:0:0:
417,219,46696,1,8,0:0:0:0:
178,302,46878,6,0,L|161:104,1,198.000006042481,6|8,0:0|0:0,0:0:0:0:
79,252,47423,1,0,0:0:0:0:
264,219,47605,1,2,0:0:0:0:
53,108,47787,1,8,0:0:0:0:
178,302,47969,1,0,0:0:0:0:
281,87,48151,6,0,B|345:48|424:87|424:87|382:124,1,198.000006042481,6|0,0:0|0:0,0:0:0:0:
265,311,48696,2,0,P|310:309|378:307,1,99.0000030212403,8|0,0:0|0:0,0:0:0:0:
207,219,49060,1,2,0:0:0:0:
107,363,49242,1,0,0:0:0:0:
11,207,49424,1,8,0:0:0:0:
14,172,49514,1,2,0:0:0:0:
18,138,49605,1,2,0:0:0:0:
21,103,49696,1,2,0:0:0:0:
26,69,49787,6,0,P|73:64|138:58,1,99.0000030212403,2|0,0:0|0:0,0:0:0:0:
303,42,50151,1,8,0:0:0:0:
352,171,50333,2,0,P|348:223|345:281,1,99.0000030212403,2|0,0:0|0:0,0:0:0:0:
233,163,50696,1,2,0:0:0:0:
450,175,50878,1,8,0:0:0:0:
256,275,51060,6,0,P|185:266|121:156,1,198.000006042481,2|0,0:0|0:0,0:0:0:0:
292,16,51605,1,8,0:0:0:0:
233,163,51787,1,0,0:0:0:0:
47,30,51969,1,8,0:0:0:0:
200,71,52151,1,0,0:0:0:0:
28,220,52333,2,0,L|38:330,1,99.0000030212403,8|0,0:0|0:0,0:0:0:0:
256,275,52696,5,8,0:0:0:0:
121,166,52878,1,2,0:0:0:0:
121,166,53060,1,2,0:0:0:0:
348,161,53242,1,12,0:0:0:0:
213,52,53424,1,2,0:0:0:0:
213,52,53606,1,2,0:0:0:0:
256,275,53787,2,0,P|306:267|386:260,1,99.0000030212403,8|0,0:0|0:0,0:0:0:0:
135,329,54151,5,8,0:0:0:0:
225,175,54333,1,2,0:0:0:0:
225,175,54514,1,2,0:0:0:0:
12,256,54696,1,12,0:0:0:0:
102,102,54878,1,2,0:0:0:0:
102,102,55059,1,2,0:0:0:0:
135,329,55242,2,0,P|185:337|265:344,1,99.0000030212403,8|0,0:0|0:0,0:0:0:0:
439,245,55605,5,8,0:0:0:0:
249,126,55787,1,2,0:0:0:0:
334,334,55969,1,8,0:0:0:0:
387,117,56151,1,2,0:0:0:0:
216,261,56333,1,8,0:0:0:0:
173,271,56423,1,2,0:0:0:0:
128,267,56514,1,2,0:0:0:0:
86,250,56605,1,2,0:0:0:0:
68,232,56696,5,2,0:0:0:0:
77,209,56787,1,2,0:0:0:0:
89,187,56878,1,2,0:0:0:0:
103,166,56969,1,2,0:0:0:0:
102,136,57060,5,8,0:0:0:0:
102,136,58514,6,0,P|111:93|111:32,1,90,8|0,0:0|0:0,0:0:0:0:
217,216,58878,2,0,P|208:259|208:320,1,90,8|0,0:0|0:0,0:0:0:0:
390,215,59242,1,8,0:0:0:0:
390,215,59333,1,8,0:0:0:0:
390,215,59423,1,8,0:0:0:0:
390,215,59514,1,8,0:0:0:0:
390,215,59605,1,2,0:0:0:0:
260,53,59787,6,0,L|143:38,1,90,8|0,0:0|0:0,0:0:0:0:
362,122,60151,2,0,L|479:107,2,90,8|0|0,0:0|0:0|0:0,0:0:0:0:
201,253,60696,1,8,0:0:0:0:
201,253,60787,1,8,0:0:0:0:
201,253,60878,1,8,0:0:0:0:
201,253,60969,1,8,0:0:0:0:
201,253,61060,2,0,B|153:234|153:234|68:249|68:249|94:215,1,161.999995056153,2|0,0:0|0:0,0:0:0:0:
114,155,61423,6,0,P|112:108|108:60,1,90,8|0,0:0|0:0,0:0:0:0:
205,257,61787,2,0,P|203:304|199:352,1,90,8|0,0:0|0:0,0:0:0:0:
356,196,62151,1,8,0:0:0:0:
356,196,62242,1,8,0:0:0:0:
356,196,62333,1,8,3:0:0:0:
356,196,62423,1,8,3:0:0:0:
356,196,62514,1,2,0:0:0:0:
114,155,62696,1,8,0:0:0:0:
256,192,62878,12,0,64272,0:0:0:0:
