osu file format v14

[General]
AudioFilename: Taihen na Mono no Shoushitsu.mp3
AudioLeadIn: 0
PreviewTime: 107030
Countdown: 0
SampleSet: Normal
StackLeniency: 0.5
Mode: 2
LetterboxInBreaks: 0
WidescreenStoryboard: 0

[Editor]
Bookmarks: 27030,43030,59030,75030,91030,107030,123030,139030,155030,171030
DistanceSpacing: 1
BeatDivisor: 4
GridSize: 8
TimelineZoom: 1

[Metadata]
Title:Taihen na Mono no Shoushitsu -GOSSUN END-
TitleUnicode:大変なものの消失-GOSSUN END-
Artist:ON-kei
ArtistUnicode:ON系
Creator:ZHSteven
Version:Catch The yoki
Source:
Tags:Kawachino Yumi pieguyn Shino crowzen2 Japanese Novelty 初音ミクの消失 Hatsune Miku no Shoushitsu cosMo@bousouP cosMo@暴走P cosMo alice margatroid 東方妖々夢 ~ Perfect Cherry Blossom. 東方怪綺談 ~ Mystic Square IOSYS 魔理沙は大変なものを盗んでいきました Marisa wa Taihen na Mono wo Nusunde Ikimashita
BeatmapID:70944
BeatmapSetID:20296

[Difficulty]
HPDrainRate:3
CircleSize:6
OverallDifficulty:7
ApproachRate:7
SliderMultiplier:1.48
SliderTickRate:0.5

[Events]
//Background and Video events
0,0,"Taihen na Mono no Shoushitsu.png",0,0
//Break Periods
//Storyboard Layer 0 (Background)
//Storyboard Layer 1 (Fail)
//Storyboard Layer 2 (Pass)
//Storyboard Layer 3 (Foreground)
//Storyboard Layer 4 (Overlay)
//Storyboard Sound Samples

[TimingPoints]
27030,250,4,1,2,80,1,0
59155,-100,4,1,1,80,0,0
90780,1000,4,1,1,80,1,0
91280,250,4,1,1,80,1,0
102967,-100,4,1,2,80,0,0
106030,-100,4,2,1,80,0,0
106530,-100,4,1,1,80,0,0
122905,-100,4,1,2,80,0,0
146967,-100,4,1,2,70,0,0
155030,-100,4,1,2,80,0,0
170780,-100,4,1,2,80,0,0
174780,-100,4,2,1,0,0,0

[Colours]
Combo1 : 191,191,0
Combo2 : 0,191,0
Combo3 : 0,191,191
Combo4 : 191,0,191

[HitObjects]
96,64,27030,6,0,L|184:0|184:0,1,74
96,160,27280,2,0,L|160:112|160:112,1,74
96,256,27530,2,0,L|160:208|160:208,1,74
96,352,27780,2,0,L|168:296|168:296,1,74
416,352,28030,2,0,L|336:296|336:296,1,74
416,256,28280,2,0,L|336:200|336:200,1,74
416,160,28530,2,0,L|336:104|336:104,1,74
416,64,28780,2,0,L|336:8|336:8,1,74
192,32,29030,2,0,L|96:32|96:32,1,74
320,32,29280,2,0,L|416:32|416:32,1,74
192,160,29530,2,0,L|96:160|96:160,1,74
320,160,29780,2,0,L|416:160|416:160,1,74
192,288,30030,2,0,L|96:288|96:288,1,74
320,288,30280,2,0,L|416:288|416:288,1,74
256,192,30530,6,0,L|256:152,5,37
160,288,31030,5,0,0:0:0:0:
32,288,31155,1,0,0:0:0:0:
32,160,31280,1,0,0:0:0:0:
160,160,31405,1,0,0:0:0:0:
160,288,31530,1,0,0:0:0:0:
32,288,31655,1,0,0:0:0:0:
32,160,31780,1,0,0:0:0:0:
160,160,31905,1,0,0:0:0:0:
160,288,32030,1,0,0:0:0:0:
32,288,32155,1,0,0:0:0:0:
32,160,32280,1,0,0:0:0:0:
160,160,32405,1,0,0:0:0:0:
160,288,32530,1,0,0:0:0:0:
32,288,32655,1,0,0:0:0:0:
32,160,32780,1,0,0:0:0:0:
160,160,32905,1,0,0:0:0:0:
160,352,33030,5,0,0:0:0:0:
352,352,33155,1,0,0:0:0:0:
352,160,33280,1,0,0:0:0:0:
160,160,33405,1,0,0:0:0:0:
160,352,33530,1,0,0:0:0:0:
352,352,33655,1,0,0:0:0:0:
352,160,33780,1,0,0:0:0:0:
160,160,33905,1,0,0:0:0:0:
160,352,34030,1,0,0:0:0:0:
352,352,34155,1,0,0:0:0:0:
352,160,34280,1,0,0:0:0:0:
160,160,34405,1,0,0:0:0:0:
64,256,34530,5,0,0:0:0:0:
96,256,34592,1,0,0:0:0:0:
128,256,34655,1,0,0:0:0:0:
160,256,34717,1,0,0:0:0:0:
192,256,34780,1,0,0:0:0:0:
224,256,34842,1,0,0:0:0:0:
256,256,34905,1,0,0:0:0:0:
504,256,35030,6,0,L|432:200|432:200,3,74
445,210,35530,2,0,L|384:160|384:160,3,74
388,163,36030,2,0,L|328:216|328:216,3,74
332,212,36530,2,0,L|272:264|272:264,3,74
276,260,37030,2,0,L|184:264|184:264,3,74
202,263,37530,2,0,L|104:264,3,74
128,263,38030,2,0,L|48:264|48:264,3,74
54,263,38530,2,0,L|56:352|56:352,3,74
128,352,39030,5,0,0:0:0:0:
256,352,39155,1,0,0:0:0:0:
384,352,39280,1,0,0:0:0:0:
512,352,39405,1,0,0:0:0:0:
512,240,39530,1,0,0:0:0:0:
384,240,39655,1,0,0:0:0:0:
256,240,39780,1,0,0:0:0:0:
128,240,39905,1,0,0:0:0:0:
128,128,40030,5,0,0:0:0:0:
256,128,40155,1,0,0:0:0:0:
384,128,40280,1,0,0:0:0:0:
512,128,40405,1,0,0:0:0:0:
512,16,40530,1,0,0:0:0:0:
384,16,40655,1,0,0:0:0:0:
256,16,40780,1,0,0:0:0:0:
128,16,40905,1,0,0:0:0:0:
0,80,41030,6,0,L|80:80|80:80,1,74
256,80,41280,2,0,L|160:80|160:80,1,74
128,128,41530,2,0,L|128:192|128:192,6,37
256,288,42030,2,0,L|176:288|176:288,1,74
0,288,42280,2,0,L|80:288|80:288,1,74
144,336,42530,1,0,0:0:0:0:
144,336,42592,1,0,0:0:0:0:
144,336,42655,1,0,0:0:0:0:
448,32,43030,6,0,L|480:112|480:112,2,74
288,32,43405,2,0,L|256:112|256:112,2,74
448,32,43780,2,0,L|512:80,2,74
288,32,44155,2,0,L|224:80|224:80,2,74
368,32,44530,2,0,L|368:112|368:112,2,74
480,192,45030,5,0,0:0:0:0:
368,192,45155,1,0,0:0:0:0:
256,192,45280,1,0,0:0:0:0:
32,192,45405,1,0,0:0:0:0:
144,192,45530,1,0,0:0:0:0:
256,192,45655,1,0,0:0:0:0:
448,64,45780,1,0,0:0:0:0:
352,128,45905,1,0,0:0:0:0:
256,192,46030,1,0,0:0:0:0:
64,320,46155,1,0,0:0:0:0:
160,256,46280,1,0,0:0:0:0:
256,192,46405,1,0,0:0:0:0:
256,192,46530,1,0,0:0:0:0:
256,192,46655,1,0,0:0:0:0:
256,192,46780,1,0,0:0:0:0:
256,96,47030,6,0,L|256:0|256:0,2,74
256,96,47405,2,0,L|208:16|208:16,2,74
256,96,47780,2,0,L|160:48,2,74
256,96,48155,2,0,L|176:96,2,74
256,96,48530,1,0,0:0:0:0:
256,96,48655,1,0,0:0:0:0:
256,96,48780,1,0,0:0:0:0:
64,192,49030,5,0,0:0:0:0:
64,192,49092,1,0,0:0:0:0:
64,192,49155,1,0,0:0:0:0:
64,192,49217,1,0,0:0:0:0:
64,192,49280,1,0,0:0:0:0:
448,192,49530,1,0,0:0:0:0:
448,192,49592,1,0,0:0:0:0:
448,192,49655,1,0,0:0:0:0:
448,192,49717,1,0,0:0:0:0:
448,192,49780,1,0,0:0:0:0:
256,32,50030,1,0,0:0:0:0:
256,32,50092,1,0,0:0:0:0:
256,32,50155,1,0,0:0:0:0:
256,32,50217,1,0,0:0:0:0:
256,32,50280,1,0,0:0:0:0:
256,352,50530,1,0,0:0:0:0:
256,352,50592,1,0,0:0:0:0:
256,352,50655,1,0,0:0:0:0:
256,352,50717,1,0,0:0:0:0:
256,352,50780,1,0,0:0:0:0:
256,352,50842,1,0,0:0:0:0:
256,352,50905,1,0,0:0:0:0:
96,192,51030,6,0,L|16:192|16:192,1,74
88,128,51280,2,0,L|168:128|168:128,1,74
224,192,51530,2,0,L|144:192|144:192,1,74
288,128,51780,6,0,L|208:128|208:128,1,74
280,192,52030,2,0,L|360:192|360:192,1,74
416,128,52280,2,0,L|328:128|328:128,1,74
408,192,52530,2,0,L|496:192|496:192,2,74
496,352,53030,6,0,L|424:304|424:304,1,74
384,272,53280,2,0,L|304:216|304:216,1,74
256,192,53530,1,0,0:0:0:0:
256,192,53655,1,0,0:0:0:0:
16,352,53780,2,0,L|96:304|96:304,1,74
128,272,54030,2,0,L|208:224|208:224,1,74
256,192,54280,1,0,0:0:0:0:
256,192,54405,1,0,0:0:0:0:
160,192,54530,5,0,0:0:0:0:
256,192,54655,1,0,0:0:0:0:
352,192,54780,1,0,0:0:0:0:
256,192,55030,12,0,56780,0:0:0:0:
16,192,57030,5,0,0:0:0:0:
32,192,57093,1,0,0:0:0:0:
48,192,57155,1,0,0:0:0:0:
64,192,57218,1,0,0:0:0:0:
80,192,57280,1,0,0:0:0:0:
96,192,57343,1,0,0:0:0:0:
112,192,57405,1,0,0:0:0:0:
128,192,57468,1,0,0:0:0:0:
144,192,57530,1,0,0:0:0:0:
160,192,57592,1,0,0:0:0:0:
176,192,57655,1,0,0:0:0:0:
192,192,57717,1,0,0:0:0:0:
208,192,57780,1,0,0:0:0:0:
224,192,57843,1,0,0:0:0:0:
240,192,57905,1,0,0:0:0:0:
256,192,57968,1,0,0:0:0:0:
272,192,58030,1,0,0:0:0:0:
288,192,58093,1,0,0:0:0:0:
304,192,58155,1,0,0:0:0:0:
320,192,58218,1,0,0:0:0:0:
336,192,58280,1,0,0:0:0:0:
352,192,58343,1,0,0:0:0:0:
368,192,58405,1,0,0:0:0:0:
384,192,58468,1,0,0:0:0:0:
400,192,58530,1,0,0:0:0:0:
416,192,58593,1,0,0:0:0:0:
432,192,58655,1,0,0:0:0:0:
448,192,58718,1,0,0:0:0:0:
464,192,58780,1,0,0:0:0:0:
480,192,58843,1,0,0:0:0:0:
496,192,58905,1,0,0:0:0:0:
32,32,59030,6,0,B|248:104|440:8|440:8,2,407,0|2|2,0:0|0:0|0:0,0:0:0:0:
96,128,60530,1,2,0:0:0:0:
96,256,60780,1,2,0:0:0:0:
32,352,61030,2,2,B|192:352|288:288,2,259
160,192,62030,2,2,B|288:256|384:256,1,222
448,128,62530,1,2,0:0:0:0:
256,32,62780,1,2,0:0:0:0:
64,128,63030,6,2,B|96:288|192:320|192:320,2,222
160,64,64030,2,2,B|256:192|416:256,2,296
0,192,65280,1,2,0:0:0:0:
160,288,65655,1,2,0:0:0:0:
160,288,65780,1,2,0:0:0:0:
256,288,66030,2,2,B|416:224|480:64|480:64,1,296
384,32,67030,6,2,B|160:32|32:320|32:320,1,444
96,352,68030,2,2,B|320:320|448:96|448:96,1,444
384,32,69030,2,2,B|128:32,2,222
0,160,70280,2,2,B|0:320,2,148
128,64,71030,2,2,L|128:192|288:192|288:352|256:352,1,444
384,352,72030,2,2,L|512:352|512:256|416:256,2,296
352,128,73280,1,2,0:0:0:0:
128,32,73530,1,2,0:0:0:0:
128,32,73655,1,2,0:0:0:0:
320,224,73905,1,2,0:0:0:0:
96,128,74155,1,2,0:0:0:0:
96,128,74280,1,2,0:0:0:0:
288,320,74530,1,2,0:0:0:0:
64,192,75030,5,0,0:0:0:0:
256,192,75280,1,0,0:0:0:0:
256,192,75405,2,0,L|448:192|448:384|288:384,1,518
160,384,76530,2,0,L|0:384,1,148
0,192,77030,2,0,L|0:96|64:96|64:32,1,222
128,32,77780,2,0,L|128:288,2,222
224,32,78780,1,0,0:0:0:0:
320,32,78905,1,0,0:0:0:0:
160,96,79030,1,0,0:0:0:0:
384,96,79155,2,0,L|384:320|384:320,1,222
288,320,79780,2,0,L|192:320|192:320,1,74
96,256,80030,2,0,L|256:256|256:96,1,296
32,32,81030,2,0,L|32:160|128:224,2,222
128,32,82030,2,0,L|224:96|224:224,2,222
0,96,83030,6,0,L|0:256,1,148
32,320,83405,2,0,L|192:320|288:224,2,259
448,192,84530,2,0,L|288:192|288:192,1,148
256,32,85030,2,0,L|32:32|32:32,2,222
256,96,86030,2,0,L|256:256|256:256,1,148
512,352,86530,2,0,L|352:352,1,148
192,288,87030,2,0,L|352:288|480:192,1,296
480,96,87780,2,0,L|384:96,1,74
344,32,88030,2,0,L|48:32,4,296
448,160,90280,1,0,0:0:0:0:
320,160,90405,1,0,0:0:0:0:
192,160,90530,1,0,0:0:0:0:
64,160,90655,1,0,0:0:0:0:
64,256,90780,2,0,L|64:352,1,74
192,320,91530,6,0,L|352:320|352:320,1,148
480,320,91905,2,0,L|480:160,2,148
480,64,92655,2,0,L|160:64,1,296
128,64,93280,1,0,0:0:0:0:
0,64,93530,1,0,0:0:0:0:
64,192,93780,1,0,0:0:0:0:
64,192,93905,1,0,0:0:0:0:
256,192,94155,1,0,0:0:0:0:
384,192,94405,1,0,0:0:0:0:
512,192,94655,2,0,L|512:352|352:352,1,296
320,352,95280,6,0,L|160:352,1,148
0,288,95780,2,0,L|320:288,1,296
352,192,96530,2,0,L|416:128,2,74
384,32,97030,2,0,L|64:32,3,296
480,128,99030,1,0,0:0:0:0:
64,128,99405,2,0,L|64:256|160:256|160:256,1,222
32,352,100155,2,0,L|256:352,1,222
480,352,100780,2,0,L|416:288,2,74
32,352,101405,1,0,0:0:0:0:
512,352,101780,2,0,L|512:192,4,148
416,288,102967,5,0,0:0:0:0:
96,288,103280,1,0,0:0:0:0:
96,288,103405,1,0,0:0:0:0:
96,288,103530,1,0,0:0:0:0:
256,192,103780,1,0,0:0:0:0:
80,32,104030,2,0,L|0:32,1,74
432,32,104405,2,0,L|528:32,1,74
256,192,104655,12,0,106530,0:0:0:0:
192,32,107030,6,0,L|192:288,1,222
448,320,107780,6,0,L|448:224|448:224,1,74
448,160,108030,2,0,L|448:0,2,148
384,32,108780,2,0,L|0:32|0:32,1,370
32,192,109655,2,0,L|416:192,1,370
480,192,110530,2,0,L|480:352,2,148
64,192,111530,6,0,L|64:32,1,148
256,96,112030,2,0,L|256:320,1,222
480,256,112780,2,0,L|320:256,1,148
160,192,113280,2,0,L|320:192,1,148
480,192,113780,2,0,L|480:96,1,74
128,32,114280,2,0,L|288:64,2,148
416,64,115030,2,0,L|416:288,1,222
192,192,115780,2,0,L|96:192|96:192,1,74
256,192,116030,2,0,L|416:192,2,148
448,96,116780,2,0,L|448:0,1,74
352,64,117030,2,0,L|256:64|256:64,1,74
224,64,117280,2,0,L|128:64|128:64,1,74
96,64,117530,2,0,L|0:64|0:64,1,74
32,160,117780,2,0,L|128:160,1,74
160,160,118030,2,0,L|256:160,1,74
288,160,118280,2,0,L|384:160,1,74
512,160,118530,2,0,L|512:320,2,148
400,16,119530,6,0,L|224:16,2,148
96,128,120280,2,0,L|256:128,2,148
400,256,121030,2,0,L|240:256,3,148
96,368,122030,2,0,L|272:368,3,148
80,48,123030,6,0,L|176:48,1,74
288,48,123280,2,0,L|208:48,1,74
64,112,123530,2,0,L|144:112,1,74
304,112,123780,2,0,L|208:112,1,74
48,176,124030,2,0,L|128:176,1,74
320,176,124280,2,0,L|224:176,1,74
32,240,124530,2,0,L|128:240,1,74
336,240,124780,2,0,L|256:240,1,74
48,176,125030,2,0,L|128:176,1,74
320,176,125280,2,0,L|224:176,1,74
64,112,125530,2,0,L|144:112,1,74
304,112,125780,2,0,L|224:112,1,74
80,48,126030,2,0,L|160:48,1,74
288,48,126280,2,0,L|208:48,1,74
176,96,126530,2,0,L|176:144,5,37
80,64,127030,6,0,L|16:112,1,74
224,64,127280,2,0,L|144:128,1,74
368,64,127530,2,0,L|296:120|296:120,1,74
512,64,127780,2,0,L|432:128,1,74
512,256,128030,2,0,L|448:304|448:304,1,74
368,256,128280,2,0,L|304:304,1,74
224,256,128530,2,0,L|144:320,1,74
80,256,128780,2,0,L|16:304,1,74
80,128,129030,2,0,L|16:80,1,74
224,128,129280,2,0,L|144:64,1,74
368,128,129530,2,0,L|288:64,1,74
512,128,129780,2,0,L|432:64,1,74
512,256,130030,2,0,L|432:192,1,74
80,256,130280,2,0,L|160:192,1,74
288,192,130530,2,0,L|288:272,3,74
256,64,131030,5,0,0:0:0:0:
320,64,131155,1,0,0:0:0:0:
256,64,131280,1,0,0:0:0:0:
320,64,131405,1,0,0:0:0:0:
256,64,131530,1,0,0:0:0:0:
320,64,131655,1,0,0:0:0:0:
256,64,131780,1,0,0:0:0:0:
320,64,131905,1,0,0:0:0:0:
256,64,132030,1,0,0:0:0:0:
320,64,132155,1,0,0:0:0:0:
256,64,132280,1,0,0:0:0:0:
320,64,132405,1,0,0:0:0:0:
256,64,132530,1,0,0:0:0:0:
320,64,132655,1,0,0:0:0:0:
256,64,132780,1,0,0:0:0:0:
320,64,132905,1,0,0:0:0:0:
256,64,133030,5,0,0:0:0:0:
192,64,133155,1,0,0:0:0:0:
256,64,133280,1,0,0:0:0:0:
192,64,133405,1,0,0:0:0:0:
256,64,133530,1,0,0:0:0:0:
192,64,133655,1,0,0:0:0:0:
256,64,133780,1,0,0:0:0:0:
192,64,133905,1,0,0:0:0:0:
256,64,134030,1,0,0:0:0:0:
192,64,134155,1,0,0:0:0:0:
256,64,134280,1,0,0:0:0:0:
192,64,134405,1,0,0:0:0:0:
256,64,134530,1,0,0:0:0:0:
192,64,134655,1,0,0:0:0:0:
256,64,134780,1,0,0:0:0:0:
192,64,134905,1,0,0:0:0:0:
176,144,135030,5,0,0:0:0:0:
256,144,135155,1,0,0:0:0:0:
256,224,135280,1,0,0:0:0:0:
176,224,135405,1,0,0:0:0:0:
176,112,135530,1,0,0:0:0:0:
304,112,135655,1,0,0:0:0:0:
304,256,135780,1,0,0:0:0:0:
176,256,135905,1,0,0:0:0:0:
176,80,136030,5,0,0:0:0:0:
352,80,136155,1,0,0:0:0:0:
352,288,136280,1,0,0:0:0:0:
176,288,136405,1,0,0:0:0:0:
176,48,136530,1,0,0:0:0:0:
400,64,136655,1,0,0:0:0:0:
400,320,136780,1,0,0:0:0:0:
176,320,136905,1,0,0:0:0:0:
16,320,137030,5,0,0:0:0:0:
16,112,137155,1,0,0:0:0:0:
208,112,137280,1,0,0:0:0:0:
208,320,137405,1,0,0:0:0:0:
400,320,137530,1,0,0:0:0:0:
400,320,137592,1,0,0:0:0:0:
400,320,137655,1,0,0:0:0:0:
400,320,137717,1,0,0:0:0:0:
400,320,137780,1,0,0:0:0:0:
400,320,137842,1,0,0:0:0:0:
400,320,137905,1,0,0:0:0:0:
400,64,138030,1,0,0:0:0:0:
112,32,138155,1,0,0:0:0:0:
112,320,138280,1,0,0:0:0:0:
464,320,138405,1,0,0:0:0:0:
464,0,138530,1,0,0:0:0:0:
464,0,138592,1,0,0:0:0:0:
464,0,138655,1,0,0:0:0:0:
384,64,139155,5,0,0:0:0:0:
64,64,139405,1,0,0:0:0:0:
384,256,139655,1,0,0:0:0:0:
64,256,139905,1,0,0:0:0:0:
320,128,140155,1,0,0:0:0:0:
0,128,140405,1,0,0:0:0:0:
64,320,140655,1,0,0:0:0:0:
384,320,140905,1,0,0:0:0:0:
192,64,141155,1,0,0:0:0:0:
192,320,141405,1,0,0:0:0:0:
448,192,141655,1,0,0:0:0:0:
0,192,141905,1,0,0:0:0:0:
160,192,142155,1,0,0:0:0:0:
320,192,142405,1,0,0:0:0:0:
480,192,142655,1,0,0:0:0:0:
0,192,143155,5,0,0:0:0:0:
128,0,143405,1,0,0:0:0:0:
320,0,143655,1,0,0:0:0:0:
512,192,144155,1,0,0:0:0:0:
320,384,144405,1,0,0:0:0:0:
128,384,144655,1,0,0:0:0:0:
0,0,145280,1,0,0:0:0:0:
512,384,145655,1,0,0:0:0:0:
256,64,146155,1,0,0:0:0:0:
256,96,146280,1,0,0:0:0:0:
256,128,146405,1,0,0:0:0:0:
256,160,146530,1,0,0:0:0:0:
256,192,146655,1,0,0:0:0:0:
256,224,146780,1,0,0:0:0:0:
96,288,146967,5,0,0:0:0:0:
256,288,147280,1,0,0:0:0:0:
416,288,147530,1,0,0:0:0:0:
416,64,147780,1,0,0:0:0:0:
256,64,148030,1,0,0:0:0:0:
96,64,148280,1,0,0:0:0:0:
0,192,148530,1,0,0:0:0:0:
160,192,148780,1,0,0:0:0:0:
352,192,149030,1,0,0:0:0:0:
512,192,149280,1,0,0:0:0:0:
416,352,149530,1,0,0:0:0:0:
256,352,149780,1,0,0:0:0:0:
64,352,150030,1,0,0:0:0:0:
352,288,150280,1,0,0:0:0:0:
128,192,150530,1,0,0:0:0:0:
352,96,150780,1,0,0:0:0:0:
128,0,151030,1,0,0:0:0:0:
384,64,151280,1,0,0:0:0:0:
128,128,151530,1,0,0:0:0:0:
384,192,151780,1,0,0:0:0:0:
128,256,152030,1,0,0:0:0:0:
384,320,152280,1,0,0:0:0:0:
64,256,152530,1,0,0:0:0:0:
384,192,152780,1,0,0:0:0:0:
184,56,153030,6,0,L|272:56|272:56,1,74
136,96,153280,2,0,L|48:96|48:96,1,74
184,136,153530,2,0,L|272:136|272:136,1,74
136,176,153780,2,0,L|48:176,1,74
184,208,154030,2,0,L|272:208,1,74
136,248,154280,2,0,L|56:248,1,74
184,288,154530,2,0,L|264:288,1,74
136,328,154780,2,0,L|48:328,1,74
256,32,155030,6,0,L|96:32,3,148
256,112,156030,2,0,L|416:112,3,148
256,192,157030,2,0,L|96:192,3,148
256,272,158030,2,0,L|416:272,3,148
512,96,159030,6,0,L|512:16,3,74
432,96,159530,2,0,L|432:16,3,74,0|0|0|0,0:0|0:0|0:0|0:0,0:0:0:0:
352,96,160030,2,0,L|352:16,3,74,0|0|0|0,0:0|0:0|0:0|0:0,0:0:0:0:
272,96,160530,2,0,L|272:16,3,74,0|0|0|0,0:0|0:0|0:0|0:0,0:0:0:0:
192,96,161030,2,0,L|192:16,3,74,0|0|0|0,0:0|0:0|0:0|0:0,0:0:0:0:
112,96,161530,2,0,L|112:16,3,74,0|0|0|0,0:0|0:0|0:0|0:0,0:0:0:0:
32,96,162030,2,0,L|32:16,3,74,0|0|0|0,0:0|0:0|0:0|0:0,0:0:0:0:
32,288,162530,2,0,L|32:368,3,74,0|0|0|0,0:0|0:0|0:0|0:0,0:0:0:0:
112,368,163030,6,0,L|112:288|112:304,1,74
112,294,163280,2,0,L|112:208,1,74
112,220,163530,2,0,L|112:144,1,74
112,146,163780,2,0,L|112:48|112:48,1,74
192,368,164030,2,0,L|192:288,1,74
192,296,164280,2,0,L|192:216,1,74
192,224,164530,2,0,L|192:144,1,74
192,150,164780,2,0,L|192:56,1,74
272,368,165030,2,0,L|272:292,1,74
272,296,165280,2,0,L|272:220,1,74
272,224,165530,2,0,L|272:148,1,74
272,150,165780,2,0,L|272:56|272:56,1,74
352,368,166030,2,0,L|352:292,1,74
352,296,166280,2,0,L|352:220,1,74
352,224,166530,2,0,L|352:148,1,74
352,150,166780,2,0,L|352:56|352:56,1,74
512,56,167030,6,0,L|472:56,1,37
480,56,167155,2,0,L|424:56,1,37
448,56,167280,2,0,L|397:56,1,37
416,56,167405,2,0,L|370:56,1,37
384,56,167530,2,0,L|335:56|311:56,1,37
347,56,167655,2,0,L|304:56,1,37
310,56,167780,2,0,L|256:56,1,37
273,56,167905,2,0,L|224:56,1,37
236,56,168030,2,0,L|192:56,1,37
199,56,168155,2,0,L|152:56,1,37
162,56,168280,6,0,L|112:56,1,37
125,56,168405,2,0,L|80:56,1,37
88,56,168530,2,0,L|48:56,1,37
51,56,168655,2,0,L|8:96,1,37
23,81,168780,2,0,L|24:144,1,37
23,118,168905,2,0,L|24:176,1,37
23,155,169030,2,0,L|24:216,1,37
23,192,169155,2,0,L|24:240,1,37
23,229,169280,6,0,L|24:280,1,37
23,266,169405,2,0,L|24:320,1,37
23,303,169530,2,0,L|24:352,1,37
23,340,169655,2,0,L|64:376,1,37
48,360,169780,2,0,L|92:363,1,37
88,360,169905,2,0,L|128:360,1,37
125,360,170030,2,0,L|184:360,1,37
162,360,170155,2,0,L|200:360,1,37
199,360,170280,6,0,L|240:360,1,37
236,360,170405,2,0,L|288:360,1,37
273,360,170530,2,0,L|328:360,1,37
310,360,170655,2,0,L|368:360,1,37
347,360,170780,2,0,L|400:360,1,37
384,360,170905,2,0,L|464:360,1,74
