osu file format v14

[General]
AudioFilename: audio.mp3
AudioLeadIn: 0
PreviewTime: 35351
Countdown: 0
SampleSet: Soft
StackLeniency: 0.3
Mode: 0
LetterboxInBreaks: 0
WidescreenStoryboard: 1

[Editor]
Bookmarks: 19763,66352,91763
DistanceSpacing: 1.1
BeatDivisor: 4
GridSize: 4
TimelineZoom: 2

[Metadata]
Title:Stardust
TitleUnicode:Stardust
Artist:OMFG
ArtistUnicode:OMFG
Creator:DJ Fish
Version:Hard
Source:
Tags:_Stan _Yiiiii SkinnyJommy _Vanity Star Dust
BeatmapID:1091359
BeatmapSetID:509721

[Difficulty]
HPDrainRate:5
CircleSize:3.7
OverallDifficulty:6
ApproachRate:7.3
SliderMultiplier:1.4
SliderTickRate:1

[Events]
//Background and Video events
0,0,"stardust2.jpg",0,0
//Break Periods
2,46845,57086
//Storyboard Layer 0 (Background)
//Storyboard Layer 1 (Fail)
//Storyboard Layer 2 (Pass)
//Storyboard Layer 3 (Foreground)
//Storyboard Sound Samples

[TimingPoints]
1469,352.941176470588,4,1,2,100,1,0
12763,-133.333333333333,4,2,2,30,0,0
24057,-90.9090909090909,4,1,2,30,0,0
34292,-90.9090909090909,4,2,2,10,0,0
35351,-76.9230769230769,4,1,2,65,0,1
46645,-90.9090909090909,4,2,2,5,0,0
57939,-133.333333333333,4,2,2,50,0,0
69233,-90.9090909090909,4,2,2,50,0,0
80527,-90.9090909090909,4,1,2,85,0,1
91821,-90.9090909090909,4,2,2,55,0,0

[Colours]
Combo1 : 128,0,64
Combo2 : 0,64,128
Combo3 : 0,0,128
Combo4 : 128,0,0

[HitObjects]
88,140,12763,6,0,P|144:128|196:136,1,105.000004005432
288,184,13469,2,0,P|300:131|284:79,1,105.000004005432
384,216,14175,5,0,0:0:0:0:
296,280,14352,1,2,0:0:0:0:
200,248,14528,2,0,P|168:248|148:256,1,52.5000020027161,0|2,0:0|0:0,0:0:0:0:
108,340,14881,2,0,P|140:340|160:332,1,52.5000020027161,0|2,0:0|0:0,0:0:0:0:
200,248,15234,1,0,0:0:0:0:
200,248,15410,1,2,0:0:0:0:
200,248,15587,6,0,L|196:136,1,105.000004005432
148,60,16293,2,0,P|200:48|256:68,1,105.000004005432
344,48,16999,1,0,0:0:0:0:
408,120,17352,2,0,L|404:228,1,105.000004005432
340,292,18057,1,0,0:0:0:0:
244,300,18410,6,0,P|188:312|124:288,1,105.000004005432,2|0,0:0|0:0,0:0:0:0:
88,224,19116,2,0,P|139:211|190:223,1,105.000004005432
268,244,19822,6,0,L|320:250,1,52.5000020027161,0|2,0:0|0:0,0:0:0:0:
236,148,20175,2,0,L|288:141,1,52.5000020027161,0|2,0:0|0:0,0:0:0:0:
320,250,20528,2,0,L|372:256,1,52.5000020027161,0|2,0:0|0:0,0:0:0:0:
288,141,20881,2,0,L|341:135,1,52.5000020027161,0|2,0:0|0:0,0:0:0:0:
424,196,21234,6,0,L|420:80,1,105.000004005432
312,48,21940,1,0,0:0:0:0:
208,100,22293,2,0,L|212:216,1,105.000004005432
120,276,22999,1,0,0:0:0:0:
52,224,23351,2,0,P|32:280|60:336,1,105.000004005432
240,328,24057,6,0,L|236:244,1,77.0000023498536
192,176,24410,2,0,P|232:164|268:168,1,77.0000023498536
389,251,24763,2,0,B|336:280|336:280|336:264,1,77.0000023498536
416,175,25116,2,0,B|469:208|469:208|456:216,1,77.0000023498536
335,188,25469,6,0,B|338:128|338:128|352:136,1,77.0000023498536,0|2,0:0|0:0,0:0:0:0:
336,264,25822,2,0,P|296:280|248:272,1,77.0000023498536,0|2,0:0|0:0,0:0:0:0:
180,256,26175,1,0,0:0:0:0:
180,256,26352,1,2,0:0:0:0:
160,168,26528,1,0,0:0:0:0:
160,168,26705,1,2,0:0:0:0:
208,96,26881,6,0,B|237:80|237:80|288:80,1,77.0000023498536
360,128,27234,2,0,B|375:157|375:157|376:208,1,77.0000023498536
312,272,27587,2,0,B|282:287|282:287|232:288,1,77.0000023498536
160,239,27940,2,0,B|144:209|144:209|144:159,1,77.0000023498536
192,80,28293,6,0,B|232:80|232:80|280:56,1,77.0000023498536,0|2,0:0|0:0,0:0:0:0:
384,120,28646,2,0,B|344:120|344:120|295:144,1,77.0000023498536,0|2,0:0|0:0,0:0:0:0:
232,176,28999,1,0,0:0:0:0:
216,256,29175,1,2,0:0:0:0:
200,336,29352,1,2,0:0:0:0:
284,336,29528,1,0,0:0:0:0:
368,332,29705,6,0,L|472:328,1,77.0000023498536
424,244,30057,2,0,P|432:204|424:156,1,77.0000023498536
332,140,30410,2,0,L|244:148,1,77.0000023498536
160,112,30763,2,0,P|152:152|168:200,1,77.0000023498536
224,256,31116,5,0,0:0:0:0:
224,264,31293,1,2,0:0:0:0:
312,240,31469,1,0,0:0:0:0:
312,248,31646,1,2,0:0:0:0:
400,224,31822,1,0,0:0:0:0:
400,232,31999,1,2,0:0:0:0:
488,264,32175,6,0,P|488:216|472:176,1,77.0000023498536,0|2,0:0|0:0,0:0:0:0:
416,120,32528,2,0,B|376:104|328:136,1,77.0000023498536
260,104,32881,2,0,P|260:152|280:192,1,77.0000023498536
256,256,33234,2,0,B|300:264|332:232,1,77.0000023498536
408,244,33587,2,0,P|404:204|376:172,1,77.0000023498536
428,108,33940,6,0,P|324:116|296:176,1,154.000004699707
301,150,34646,1,4,0:0:0:0:
301,150,35351,5,0,0:0:0:0:
237,214,35527,1,0,0:0:0:0:
169,274,35704,2,0,P|217:298|269:294,1,90.9999958343508,8|0,0:0|0:0,0:0:0:0:
301,150,36057,2,0,P|253:126|201:130,1,90.9999958343508
348,248,36410,2,0,L|456:200,1,90.9999958343508,8|0,0:0|0:0,0:0:0:0:
472,100,36763,6,0,L|364:148,1,90.9999958343508
192,120,37116,2,0,B|184:168|184:168|189:209,1,90.9999958343508,10|0,0:0|0:0,0:0:0:0:
191,309,37469,2,0,B|236:292|236:292|281:257,1,90.9999958343508,2|0,0:0|0:0,0:0:0:0:
355,213,37822,2,0,B|317:183|317:183|264:161,1,90.9999958343508,10|0,0:0|0:0,0:0:0:0:
420,52,38175,6,0,B|396:84|396:84|412:148,1,90.9999958343508
432,208,38528,2,0,P|448:264|432:312,1,90.9999958343508,8|0,0:0|0:0,0:0:0:0:
384,360,38881,2,0,L|288:368,1,90.9999958343508
184,304,39234,2,0,L|296:288,1,90.9999958343508,8|0,0:0|0:0,0:0:0:0:
352,228,39586,5,0,0:0:0:0:
352,128,39763,1,0,0:0:0:0:
272,200,39939,5,8,0:0:0:0:
248,104,40116,1,0,0:0:0:0:
188,172,40292,5,0,0:0:0:0:
147,81,40469,1,0,0:0:0:0:
104,152,40645,5,8,0:0:0:0:
47,69,40822,1,0,0:0:0:0:
8,160,40998,6,0,L|0:264,1,90.9999958343508
92,296,41351,1,8,0:0:0:0:
173,231,41528,1,0,0:0:0:0:
272,296,41704,2,0,L|265:205,1,90.9999958343508
376,152,42057,2,0,L|384:256,1,90.9999958343508,10|0,0:0|0:0,0:0:0:0:
440,320,42410,6,0,P|396:336|348:332,1,90.9999958343508,2|0,0:0|0:0,0:0:0:0:
256,296,42763,1,10,0:0:0:0:
280,200,42939,1,0,0:0:0:0:
376,152,43116,2,0,L|384:248,1,90.9999958343508,2|0,0:0|0:0,0:0:0:0:
440,320,43468,2,0,P|396:336|348:332,1,90.9999958343508,10|0,1:0|0:0,0:0:0:0:
256,296,43822,5,0,0:0:0:0:
256,296,43999,1,0,0:0:0:0:
264,200,44175,1,8,0:0:0:0:
264,200,44352,1,0,0:0:0:0:
176,244,44527,1,0,0:0:0:0:
176,244,44705,1,0,0:0:0:0:
260,300,44881,1,8,0:0:0:0:
264,304,45057,1,0,0:0:0:0:
352,328,45234,6,0,L|448:336,1,90.9999958343508
408,240,45587,2,0,L|317:232,1,90.9999958343508,8|0,0:0|0:0,0:0:0:0:
304,136,45940,6,0,L|240:128,3,45.4999979171754
200,192,46293,2,0,L|152:184,4,45.4999979171754,0|0|0|0|4,0:0|0:0|0:0|0:0|0:0,0:0:0:0:
408,64,57940,6,0,P|424:112|408:184,1,105.000004005432
424,264,58646,2,0,L|280:280,1,105.000004005432
224,336,59352,6,0,P|208:288|224:216,1,105.000004005432
184,120,60057,2,0,L|320:112,1,105.000004005432
408,64,60763,6,0,P|424:120|416:168,1,105.000004005432
424,264,61469,2,0,L|296:276,1,105.000004005432
232,240,62175,6,0,B|224:184|224:184|240:128,1,105.000004005432
136,240,62881,2,0,B|144:296|144:296|128:352,1,105.000004005432
64,296,63587,5,2,0:0:0:0:
117,156,63940,1,0,0:0:0:0:
20,199,64293,1,0,0:0:0:0:
159,252,64646,1,0,0:0:0:0:
228,136,64998,5,2,0:0:0:0:
362,113,65351,1,0,0:0:0:0:
384,249,65704,1,0,0:0:0:0:
247,270,66057,1,0,0:0:0:0:
256,192,66410,12,6,68528,0:0:0:0:
440,64,69234,6,0,P|448:136|440:160,1,77.0000023498536
408,216,69587,2,0,L|408:304,1,77.0000023498536
328,320,69940,1,0,0:0:0:0:
328,320,70116,2,0,P|288:328|232:312,2,77.0000023498536,2|2|2,0:0|0:0|0:0,0:0:0:0:
472,232,70645,6,0,L|480:128,1,77.0000023498536
424,88,70998,2,0,P|392:80|328:88,1,77.0000023498536
272,120,71351,1,0,0:0:0:0:
272,120,71528,2,0,P|264:88|280:32,2,77.0000023498536,2|0|2,0:0|0:0|0:0,0:0:0:0:
240,208,72057,6,0,L|332:216,1,77.0000023498536
112,96,72410,2,0,L|24:88,1,77.0000023498536
24,192,72763,1,0,0:0:0:0:
120,244,72940,1,2,0:0:0:0:
120,244,73116,2,0,P|128:308|104:348,2,77.0000023498536,0|2|0,0:0|0:0|0:0,0:0:0:0:
192,200,73646,5,2,0:0:0:0:
192,200,73821,2,0,P|184:136|208:96,2,77.0000023498536,0|2|0,0:0|0:0|0:0,0:0:0:0:
268,252,74352,1,2,0:0:0:0:
268,252,74528,2,0,P|276:316|252:356,1,77.0000023498536,0|2,0:0|0:0,0:0:0:0:
356,372,74881,6,0,P|420:356|452:372,1,77.0000023498536
472,288,75234,2,0,P|456:240|472:192,1,77.0000023498536
392,168,75587,1,0,0:0:0:0:
392,168,75763,2,0,B|360:176|360:176|296:168,2,77.0000023498536,2|0|2,0:0|0:0|0:0,0:0:0:0:
460,214,76292,5,0,0:0:0:0:
392,288,76469,1,0,0:0:0:0:
392,288,76646,2,0,B|352:280|352:280|308:284,1,77.0000023498536
240,240,76999,1,0,0:0:0:0:
256,160,77175,2,0,P|221:144|183:148,2,77.0000023498536,2|0|2,0:0|0:0|0:0,0:0:0:0:
336,264,77705,5,0,0:0:0:0:
336,264,77881,2,0,B|328:224|328:224|336:176,1,77.0000023498536
256,160,78233,2,0,B|261:124|261:124|253:84,1,77.0000023498536
340,80,78586,2,0,B|334:44|334:44|342:4,2,77.0000023498536,2|0|2,0:0|0:0|0:0,0:0:0:0:
256,128,79116,5,0,0:0:0:0:
256,128,79293,2,0,P|216:120|160:128,1,77.0000023498536
208,216,79646,1,0,0:0:0:0:
208,216,79822,2,0,L|200:304,1,77.0000023498536,4|0,0:0|0:0,0:0:0:0:
304,352,80175,2,0,L|312:248,1,77.0000023498536
312,128,80528,6,0,P|296:64|272:32,1,77.0000023498536
392,80,80881,2,0,P|455:98|495:93,1,77.0000023498536,8|0,0:0|0:0,0:0:0:0:
400,176,81234,2,0,P|352:221|336:258,1,77.0000023498536
428,260,81587,1,10,0:0:0:0:
428,260,81763,1,2,0:0:0:0:
424,336,81940,6,0,P|385:338|347:335,1,77.0000023498536
272,288,82293,2,0,P|228:284|192:288,1,77.0000023498536,8|0,0:0|0:0,0:0:0:0:
112,264,82645,2,0,L|104:176,1,77.0000023498536
96,104,82998,1,10,0:0:0:0:
96,104,83174,1,2,0:0:0:0:
105,187,83352,5,0,0:0:0:0:
112,272,83528,1,0,0:0:0:0:
184,308,83705,2,0,L|272:308,1,77.0000023498536,8|0,0:0|0:0,0:0:0:0:
352,348,84057,2,0,P|360:308|352:268,1,77.0000023498536
328,192,84410,1,10,0:0:0:0:
328,192,84586,1,2,0:0:0:0:
256,136,84763,6,0,L|160:128,1,77.0000023498536
328,192,85116,1,10,0:0:0:0:
328,192,85292,1,2,0:0:0:0:
256,136,85468,6,0,L|160:128,1,77.0000023498536
328,192,85821,1,10,0:0:0:0:
328,192,85997,1,2,0:0:0:0:
224,24,86174,6,0,P|181:34|148:68,1,77.0000023498536
64,100,86527,2,0,P|88:136|132:156,1,77.0000023498536,8|0,0:0|0:0,0:0:0:0:
188,220,86880,1,0,0:0:0:0:
188,220,87057,2,0,P|213:185|217:136,2,77.0000023498536,0|8|0,0:0|0:0|0:0,0:0:0:0:
160,320,87586,6,0,P|208:332|248:320,1,77.0000023498536
324,324,87940,2,0,P|361:315|398:324,1,77.0000023498536,8|0,0:0|0:0,0:0:0:0:
468,272,88293,1,0,0:0:0:0:
468,272,88469,2,0,L|473:183,2,77.0000023498536,0|8|0,0:0|0:0|0:0,0:0:0:0:
332,300,88999,5,0,0:0:0:0:
332,300,89175,2,0,P|292:292|236:308,1,77.0000023498536,0|8,0:0|0:0,0:0:0:0:
188,252,89528,2,0,L|196:156,1,77.0000023498536
248,108,89881,2,0,P|212:92|156:100,2,77.0000023498536,0|8|0,0:0|0:0|0:0,0:0:0:0:
348,92,90410,5,0,0:0:0:0:
348,92,90587,2,0,P|372:100|428:92,2,77.0000023498536,0|8|0,0:0|0:0|0:0,0:0:0:0:
268,32,91116,6,0,L|229:27,3,38.5000011749268
117,90,91468,2,0,L|156:96,4,38.5000011749268,0|0|0|0|4,0:0|0:0|0:0|0:0|0:0,0:0:0:0:
