osu file format v14

[General]
AudioFilename: mashedpotatoes.mp3
AudioLeadIn: 0
PreviewTime: 47431
Countdown: 0
SampleSet: None
StackLeniency: 0
Mode: 0
LetterboxInBreaks: 0
WidescreenStoryboard: 0

[Editor]
Bookmarks: 619,8619,16619,24619,32619,40619,48619,56619,64619,72619,80619,88619,96619,104619,112619,120619,128619,136619,144619,152619,160619
DistanceSpacing: 1
BeatDivisor: 4
GridSize: 4
TimelineZoom: 1.5

[Metadata]
Title:Mashed Potatoes
TitleUnicode:Mashed Potatoes
Artist:OMFG
ArtistUnicode:OMFG
Creator:Axarious
Version:7
Source:
Tags:
BeatmapID:1013381
BeatmapSetID:474413

[Difficulty]
HPDrainRate:4
CircleSize:7
OverallDifficulty:4
ApproachRate:3
SliderMultiplier:0.800000005960464
SliderTickRate:1

[Events]
//Background and Video events
0,0,"mashedpotatoes.png",0,0
//Break Periods
2,2256,3179
2,6256,7179
2,10256,11179
2,14256,15179
//Storyboard Layer 0 (Background)
//Storyboard Layer 1 (Fail)
//Storyboard Layer 2 (Pass)
//Storyboard Layer 3 (Foreground)
//Storyboard Sound Samples

[TimingPoints]
619,500,4,2,0,80,1,0
48619,-50,4,2,0,80,0,0
96619,-100,4,2,0,80,0,0
128619,-50,4,2,0,80,0,0
160619,-100,4,2,0,80,0,0

[Colours]
Combo1 : 228,172,253
Combo2 : 251,255,174
Combo3 : 183,245,175
Combo4 : 143,239,218
Combo5 : 153,243,253
Combo6 : 154,217,250
Combo7 : 153,186,247
Combo8 : 185,164,247

[HitObjects]
92,257,619,6,0,P|103:235|108:267,1,80.0000005960464
207,277,1494,1,0,0:0:0:0:
207,277,1619,2,0,P|190:260|194:288,1,70.0000005215406
436,77,4619,6,0,B|450:95|450:95|444:159,1,80.0000005960464
324,109,5494,1,0,0:0:0:0:
324,109,5619,2,0,L|394:115,1,70.0000005215406
435,332,8619,6,0,B|372:326|372:326|390:343,1,80.0000005960464
472,267,9494,1,0,0:0:0:0:
472,267,9619,2,0,L|401:275,1,70.0000005215406
103,87,12619,6,0,P|143:92|146:53,1,80.0000005960464
75,88,13494,1,0,0:0:0:0:
75,88,13619,2,0,P|93:60|125:69,1,70.0000005215406
89,224,16619,6,0,P|123:223|155:186,1,80.0000005960464
105,175,17369,1,0,0:0:0:0:
121,126,17619,2,0,P|87:127|55:164,1,80.0000005960464
30,378,18619,6,0,B|24:323|24:323|45:297,1,80.0000005960464
84,340,19369,1,0,0:0:0:0:
137,362,19619,2,0,L|181:358,1,40.0000002980232
284,307,20119,2,0,L|330:313,1,40.0000002980232
429,348,20619,5,0,0:0:0:0:
373,341,20869,1,0,0:0:0:0:
272,365,21119,1,0,0:0:0:0:
227,329,21369,2,0,L|230:311,2,10.0000000745058
177,358,21619,1,0,0:0:0:0:
94,283,21869,1,0,0:0:0:0:
142,213,22119,6,0,L|134:249,1,30.0000002235174
148,222,22369,2,0,L|142:252,1,30.0000002235174
136,203,22619,6,0,P|161:203|151:246,1,80.0000005960464
111,149,23369,2,0,L|113:134,2,10.0000000745058
109,159,23619,2,0,P|145:148|184:157,1,70.0000005215406
221,183,24306,1,0,0:0:0:0:
217,187,24369,2,0,P|223:205|223:221,1,30.0000002235174
223,225,24619,6,0,P|250:262|296:265,1,80.0000005960464
276,214,25369,1,0,0:0:0:0:
386,226,25619,6,0,L|330:214,1,40.0000002980232
294,218,26119,2,0,L|334:226,1,40.0000002980232
359,275,26619,6,0,P|362:314|336:349,1,80.0000005960464
280,352,27369,1,0,0:0:0:0:
232,317,27619,2,0,P|264:294|307:299,1,80.0000005960464
459,122,28619,6,0,B|472:126|472:126|399:137,1,80.0000005960464
220,127,29369,1,0,0:0:0:0:
185,182,29619,2,0,L|202:277,1,80.0000005960464
150,384,30369,1,0,0:0:0:0:
162,317,30619,6,0,B|97:311|97:311|84:317,1,80.0000005960464
44,358,31369,2,0,L|47:346,2,10.0000000745058
48,370,31619,1,0,0:0:0:0:
167,346,31869,2,0,L|160:308,1,30.0000002235174
241,267,32306,1,0,0:0:0:0:
245,263,32369,2,0,L|249:227,1,30.0000002235174
242,222,32619,5,0,0:0:0:0:
82,202,33619,1,0,0:0:0:0:
242,222,34619,5,0,0:0:0:0:
82,202,35619,1,0,0:0:0:0:
242,222,36619,5,0,0:0:0:0:
82,202,37619,1,0,0:0:0:0:
242,222,38619,5,0,0:0:0:0:
82,202,39619,1,0,0:0:0:0:
242,222,40619,5,0,0:0:0:0:
128,224,41119,1,0,0:0:0:0:
242,222,41619,5,0,0:0:0:0:
128,224,42119,1,0,0:0:0:0:
242,222,42619,5,0,0:0:0:0:
128,224,43119,1,0,0:0:0:0:
242,222,43619,5,0,0:0:0:0:
128,224,44119,1,0,0:0:0:0:
242,222,44619,5,0,0:0:0:0:
174,246,44869,1,0,0:0:0:0:
242,222,45119,5,0,0:0:0:0:
174,246,45369,1,0,0:0:0:0:
242,222,45619,5,0,0:0:0:0:
174,246,45869,1,0,0:0:0:0:
242,222,46119,5,0,0:0:0:0:
174,246,46369,1,0,0:0:0:0:
242,222,46619,5,0,0:0:0:0:
220,268,46744,1,0,0:0:0:0:
242,222,46869,5,0,0:0:0:0:
220,268,46994,1,0,0:0:0:0:
242,222,47119,5,0,0:0:0:0:
220,268,47244,1,0,0:0:0:0:
242,222,47369,5,0,0:0:0:0:
220,268,47494,1,0,0:0:0:0:
242,222,47619,5,0,0:0:0:0:
242,222,47744,1,0,0:0:0:0:
242,222,47869,1,0,0:0:0:0:
242,222,47994,1,0,0:0:0:0:
242,222,48119,2,0,P|242:194|246:186,1,30.0000002235174
257,178,48369,2,0,P|257:206|253:214,1,30.0000002235174
220,268,48619,6,0,L|155:277,1,60.0000004470348
148,268,48869,2,0,B|82:261|82:261|94:269,1,80.0000005960464
155,210,49369,6,0,P|161:170|141:147,1,40.0000002980232
125,123,49619,2,0,P|80:123|57:170,1,80.0000005960464
185,115,50119,6,0,B|209:111|209:111|233:115|233:115|257:111|257:111|281:115|281:115|257:119,1,120.00000089407
195,93,50619,6,0,P|183:78|177:59,1,40.0000002980232
238,78,50869,2,0,P|253:65|272:59,1,40.0000002980232
330,84,51119,2,0,P|335:136|314:161,1,80.0000005960464
293,270,51619,6,0,L|298:244,2,26.6666668653488
297,285,51869,1,0,0:0:0:0:
341,163,52119,6,0,P|367:155|413:155,1,60.0000004470348
420,159,52369,2,0,P|394:167|348:167,1,60.0000004470348
320,156,52619,6,0,L|233:161,1,80.0000005960464
82,146,53119,2,0,B|73:134|73:134|84:215,1,80.0000005960464
129,173,53494,1,0,0:0:0:0:
129,173,53619,6,0,P|136:144|125:113,1,40.0000002980232
120,108,53869,2,0,B|103:86,4,20.0000001490116
48,33,54369,6,0,B|56:29|56:29|50:85,1,60.0000004470348
37,86,54619,6,0,P|19:110|24:161,1,80.0000005960464
40,28,55119,2,0,B|48:33|48:33|121:28,1,80.0000005960464
192,90,55619,6,0,P|217:59|214:21,1,80.0000005960464
118,63,56119,6,0,P|100:61|108:46,1,40.0000002980232
128,46,56369,2,0,B|168:44,1,40.0000002980232
214,21,56619,6,0,L|293:30,2,80.0000005960464
286,92,57369,1,0,0:0:0:0:
344,68,57619,6,0,L|423:58,2,80.0000005960464
390,4,58369,1,0,0:0:0:0:
454,3,58619,6,0,P|442:36|472:102,1,80.0000005960464
453,160,59119,2,0,P|430:133|358:126,1,80.0000005960464
317,80,59619,2,0,P|351:73|393:14,1,80.0000005960464
512,43,60119,1,0,0:0:0:0:
453,160,60369,1,0,0:0:0:0:
504,164,60619,6,0,B|512:157|512:157|436:169,1,80.0000005960464
501,381,61119,2,0,B|506:324|506:324|494:301,1,80.0000005960464
481,288,61494,1,0,0:0:0:0:
481,288,61619,6,0,B|474:292|474:292|481:255|481:255|474:204,1,80.0000005960464
390,258,62119,2,0,P|423:257|403:271,1,80.0000005960464
387,279,62494,1,0,0:0:0:0:
387,279,62619,6,0,B|365:269|365:269|299:275,1,80.0000005960464
317,333,63119,2,0,P|345:358|378:339,1,80.0000005960464
349,326,63494,1,0,0:0:0:0:
349,326,63619,6,0,B|294:331|294:331|274:345,1,80.0000005960464
217,379,64119,2,0,L|220:354,3,20.0000001490116
228,367,64369,2,0,L|225:342,3,20.0000001490116
214,347,64619,5,0,0:0:0:0:
243,295,64869,1,0,0:0:0:0:
156,335,65119,6,0,L|110:340,1,40.0000002980232
83,302,65369,2,0,L|106:334,1,40.0000002980232
91,382,65619,1,0,0:0:0:0:
58,256,65869,6,0,P|94:251|120:265,1,60.0000004470348
122,268,66119,1,0,0:0:0:0:
1,192,66369,6,0,P|37:197|63:183,1,60.0000004470348
65,180,66619,2,0,L|154:191,1,80.0000005960464
26,146,67119,6,0,L|19:102,1,40.0000002980232
27,94,67369,2,0,L|34:138,1,40.0000002980232
65,180,67619,6,0,P|87:148|81:104,1,80.0000005960464
236,146,68119,2,0,P|214:178|220:222,1,80.0000005960464
262,90,68619,6,0,B|269:28|269:28|257:40,1,80.0000005960464
279,209,69119,2,0,L|269:193,4,20.0000001490116
359,130,69619,6,0,L|319:130,1,40.0000002980232
296,142,69869,2,0,L|336:142,1,40.0000002980232
331,194,70119,2,0,P|355:207|404:187,1,80.0000005960464
365,160,70494,1,0,0:0:0:0:
365,160,70619,6,0,L|405:163,1,40.0000002980232
410,167,70806,2,0,L|436:162,1,20.0000001490116
485,44,71119,6,0,P|494:60|470:44,1,80.0000005960464
499,97,71494,1,0,0:0:0:0:
499,97,71619,6,0,L|485:185,1,80.0000005960464
500,192,72119,6,0,B|513:177|513:177|494:184,1,40.0000002980232
453,229,72369,2,0,B|434:236|434:236|450:216,1,40.0000002980232
460,237,72619,6,0,L|474:325,1,80.0000005960464
512,372,73119,6,0,B|491:373|491:373|450:361|450:361|434:349|434:349|415:356|415:356|381:355|381:355|363:343|363:343|341:312|350:270|388:257|388:257|400:271|407:288|408:308,1,320.000002384186
292,308,74369,2,0,P|296:338|304:359,1,40.0000002980232
320,377,74619,6,0,B|294:351|254:344|220:356|220:356|251:324|257:279|235:239|235:239|205:244|182:264|172:292|172:292|176:308|176:308|172:324|172:324|176:340|176:340|172:356|172:356|176:372,1,400.000002980232
72,340,76119,6,0,B|68:320|68:320|72:300,1,40.0000002980232
120,320,76369,2,0,B|124:340|124:340|120:360,1,40.0000002980232
49,293,76619,6,0,B|35:252|57:211|99:200|99:200|146:212,1,160.000001192093
115,269,77369,1,0,0:0:0:0:
178,261,77619,6,0,L|236:276,1,40.0000002980232
240,284,77869,2,0,L|292:269,1,40.0000002980232
296,252,78119,2,0,P|324:249|302:276,1,80.0000005960464
139,210,78619,6,0,B|130:171|130:171|157:193|157:193|147:282,1,160.000001192093
90,319,79369,1,0,0:0:0:0:
26,286,79619,6,0,P|32:233|84:245,1,120.00000089407
90,319,80119,2,0,P|88:344|65:362,3,40.0000002980232
96,369,80619,5,0,0:0:0:0:
39,322,80869,2,0,B|7:317|7:317|16:324,1,40.0000002980232
54,327,81119,2,0,P|75:295|65:257,1,80.0000005960464
84,245,81494,1,0,0:0:0:0:
84,245,81619,6,0,P|63:213|73:175,1,80.0000005960464
73,175,81994,2,0,P|55:209|17:219,1,80.0000005960464
17,219,82369,2,0,P|25:248|51:277,1,40.0000002980232
66,298,82619,6,0,L|177:282,1,80.0000005960464
163,268,82994,1,0,0:0:0:0:
163,268,83119,6,0,P|175:283|179:305,1,40.0000002980232
167,336,83369,2,0,P|152:348|130:352,1,40.0000002980232
131,304,83619,1,0,0:0:0:0:
216,383,83869,6,0,P|203:367|199:347,1,40.0000002980232
212,315,84119,2,0,P|227:303|249:299,1,40.0000002980232
280,311,84369,2,0,P|292:326|296:348,1,40.0000002980232
248,347,84619,5,0,0:0:0:0:
241,250,84869,1,0,0:0:0:0:
328,292,85119,2,0,P|343:328|338:380,1,80.0000005960464
296,346,85494,1,0,0:0:0:0:
296,346,85619,6,0,L|319:256,1,80.0000005960464
315,269,85994,2,0,P|275:270|241:250,1,80.0000005960464
241,250,86369,2,0,P|259:250|284:266,1,40.0000002980232
229,247,86619,6,0,L|144:225,1,80.0000005960464
135,211,86994,1,0,0:0:0:0:
135,211,87119,6,0,P|108:211|79:226,1,40.0000002980232
84,224,87369,2,0,P|111:224|140:209,1,40.0000002980232
174,186,87619,5,0,0:0:0:0:
161,115,87869,2,0,B|148:116|144:95|168:79|183:103|171:121|161:115,1,60.0000004470348
162,107,88619,5,0,0:0:0:0:
166,15,88869,2,0,P|173:34|185:50,1,40.0000002980232
206,62,89119,2,0,B|232:70|260:67|283:53|283:53|305:39|334:35|360:44|360:44|363:69|354:95|336:117|336:117|297:107|297:107|320:88|347:87|369:103|369:103|392:118|419:117|439:99|439:99|433:82|423:71|409:66,1,480.000003576278
366,158,90869,1,0,0:0:0:0:
450,151,91119,6,0,P|474:135|492:115,1,40.0000002980232
488,91,91369,2,0,P|489:119|498:145,1,40.0000002980232
505,44,91619,2,0,P|480:67|490:38,2,80.0000005960464
495,23,92244,1,0,0:0:0:0:
495,23,92369,6,0,L|439:18,1,40.0000002980232
401,14,92619,1,0,0:0:0:0:
235,0,92869,6,0,L|291:5,1,40.0000002980232
329,9,93119,2,0,B|326:42|296:64|262:58|262:58|248:75|248:75|206:60|206:60|228:78|238:102|237:132|237:132|276:123|276:123|259:145|250:169|247:202|247:202|219:184|219:184|233:221|233:221|270:204|270:204|284:228|311:240|339:238|339:238|268:268|268:268|306:270|306:270|329:287|335:313|323:344|323:344|287:326|287:326|258:327|235:344|225:371|225:371|233:351|235:333|232:313,1,940.000007003545
220,266,96369,5,0,0:0:0:0:
220,266,96619,6,0,P|186:295|188:333,1,80.0000005960464
281,384,97369,1,0,0:0:0:0:
312,320,97619,2,0,L|233:313,1,80.0000005960464
408,232,98619,6,0,B|419:230|430:232|440:236|440:236|460:244|488:244|468:236|444:236,1,80.0000005960464
418,286,99369,1,0,0:0:0:0:
466,364,99619,2,0,B|473:302|473:302|477:307|479:313|478:319,1,80.0000005960464
368,199,100619,6,0,B|351:177|351:177|359:235,1,80.0000005960464
457,186,101369,1,0,0:0:0:0:
408,158,101619,2,0,B|400:106,1,40.0000002980232
506,158,102119,2,0,B|511:118,1,40.0000002980232
429,77,102619,6,0,P|392:102|358:84,1,80.0000005960464
319,49,103369,2,0,L|322:33,2,10.0000000745058
312,56,103619,6,0,P|283:32|250:42,1,70.0000005215406
222,100,104306,1,0,0:0:0:0:
226,104,104369,2,0,L|255:107,1,30.0000002235174
267,95,104619,6,0,B|253:89|253:89|270:160,1,80.0000005960464
363,89,105369,1,0,0:0:0:0:
332,147,105619,2,0,L|320:235,1,80.0000005960464
394,384,106619,6,0,B|385:375|385:375|383:353|387:332|396:310,1,80.0000005960464
384,246,107369,1,0,0:0:0:0:
501,231,107619,2,0,L|491:274,1,40.0000002980232
454,384,108119,2,0,P|451:364|437:342,1,40.0000002980232
337,382,108619,6,0,B|328:373|328:373|393:384,1,80.0000005960464
497,328,109369,1,0,0:0:0:0:
433,270,109619,2,0,P|435:250|445:232,1,40.0000002980232
394,277,110119,2,0,P|409:289|419:306,1,40.0000002980232
407,239,110619,6,0,P|389:245|339:218,1,80.0000005960464
365,328,111369,1,0,0:0:0:0:
383,197,111619,5,0,0:0:0:0:
432,197,111869,2,0,L|461:203,1,30.0000002235174
343,170,112306,1,0,0:0:0:0:
334,170,112369,2,0,L|300:172,1,30.0000002235174
295,172,112619,5,0,0:0:0:0:
217,172,113119,2,0,L|123:169,2,80.0000005960464
256,104,114619,5,0,0:0:0:0:
89,134,115119,2,0,P|83:97|110:57,2,80.0000005960464
177,14,116619,5,0,0:0:0:0:
61,112,117119,2,0,B|79:115|79:115|154:105,2,80.0000005960464
6,40,118619,5,0,0:0:0:0:
193,70,119119,2,0,P|226:48|232:-7,2,80.0000005960464
61,55,120619,5,0,0:0:0:0:
137,16,120869,2,0,L|157:15,1,20.0000001490116
177,14,121119,1,0,0:0:0:0:
117,83,121369,2,0,L|114:99,2,10.0000000745058
119,73,121619,5,0,0:0:0:0:
195,34,121869,2,0,L|215:33,1,20.0000001490116
235,32,122119,1,0,0:0:0:0:
175,101,122369,2,0,L|172:117,2,10.0000000745058
177,91,122619,5,0,0:0:0:0:
253,52,122869,2,0,L|273:51,1,20.0000001490116
293,50,123119,1,0,0:0:0:0:
233,119,123369,2,0,L|230:135,2,10.0000000745058
235,109,123619,5,0,0:0:0:0:
311,70,123869,2,0,L|331:69,1,20.0000001490116
351,68,124119,1,0,0:0:0:0:
291,137,124369,2,0,L|288:153,2,10.0000000745058
293,127,124619,5,0,0:0:0:0:
369,88,124869,1,0,0:0:0:0:
351,145,125119,5,0,0:0:0:0:
410,133,125369,1,0,0:0:0:0:
409,163,125619,5,0,0:0:0:0:
436,149,125869,1,0,0:0:0:0:
467,181,126119,5,0,0:0:0:0:
480,139,126369,1,0,0:0:0:0:
493,97,126619,5,0,0:0:0:0:
493,97,126744,1,0,0:0:0:0:
473,92,126869,5,0,0:0:0:0:
473,92,126994,1,0,0:0:0:0:
493,97,127119,5,0,0:0:0:0:
493,97,127244,1,0,0:0:0:0:
473,92,127369,5,0,0:0:0:0:
473,92,127494,1,0,0:0:0:0:
493,97,127619,5,0,0:0:0:0:
493,97,127744,1,0,0:0:0:0:
493,97,127869,1,0,0:0:0:0:
493,97,127994,1,0,0:0:0:0:
493,97,128119,6,0,P|494:78|488:60,1,30.0000002235174
473,92,128369,2,0,P|472:111|478:129,1,30.0000002235174
484,139,128619,6,0,B|404:130|404:130|416:134|428:142|437:154,1,120.00000089407
441,159,129119,6,0,P|448:198|430:235,1,80.0000005960464
422,241,129494,1,0,0:0:0:0:
422,241,129619,6,0,P|395:251|332:221,1,80.0000005960464
347,237,129994,2,0,P|326:196|340:149,1,80.0000005960464
331,164,130369,2,0,P|347:142|375:129,1,40.0000002980232
387,190,130619,5,0,0:0:0:0:
408,91,130869,1,0,0:0:0:0:
400,181,131119,6,0,P|378:203|386:174,1,80.0000005960464
255,219,131619,2,0,P|274:243|272:213,1,80.0000005960464
206,240,132119,6,0,P|205:221|211:201,1,40.0000002980232
214,154,132369,2,0,P|233:159|248:172,1,40.0000002980232
211,201,132619,6,0,B|145:201|145:201|148:203|152:205|156:209,1,80.0000005960464
63,243,133119,6,0,P|74:214|88:200,1,40.0000002980232
85,174,133369,2,0,B|90:166|90:166|90:218,1,40.0000002980232
117,245,133619,6,0,B|138:230|148:211|148:188|148:188|144:176|144:176|144:140|144:140|148:128|148:128|148:117|143:108|136:100,1,160.000001192093
87,62,134369,6,0,P|104:71|124:70,1,40.0000002980232
155,76,134619,2,0,P|164:58|191:119,1,160.000001192093
309,32,135369,1,0,0:0:0:0:
318,98,135619,2,0,P|358:126|394:125,1,80.0000005960464
411,73,136119,6,0,B|404:104|404:104|407:129|407:129|394:151|394:151|383:202,1,120.00000089407
361,231,136619,6,0,P|391:206|429:211,1,80.0000005960464
337,188,137119,5,0,0:0:0:0:
427,163,137369,2,0,B|479:158|479:158|465:173,1,60.0000004470348
474,164,137619,6,0,P|449:202|460:237,1,80.0000005960464
470,245,137994,1,0,0:0:0:0:
470,245,138119,5,0,0:0:0:0:
512,303,138369,2,0,B|460:298|460:298|465:303,1,60.0000004470348
465,303,138619,6,0,P|488:333|481:372,1,80.0000005960464
371,360,139119,2,0,P|401:337|440:344,1,80.0000005960464
326,337,139619,6,0,P|318:306|330:335,1,80.0000005960464
186,360,140119,2,0,P|194:329|182:358,1,80.0000005960464
245,384,140619,6,0,B|255:369|258:352|256:335|256:335|253:318|256:300|264:287|264:287|247:276|237:260|235:239,1,160.000001192093
260,110,141369,1,0,0:0:0:0:
310,144,141619,6,0,B|318:152|318:152|308:219,1,80.0000005960464
298,233,141994,1,0,0:0:0:0:
298,233,142119,6,0,P|321:229|292:214,1,80.0000005960464
184,241,142619,6,0,P|131:223|192:221,1,160.000001192093
146,312,143369,1,0,0:0:0:0:
81,224,143619,6,0,P|83:200|92:179,2,40.0000002980232
97,280,144119,1,0,0:0:0:0:
93,338,144369,1,0,0:0:0:0:
57,384,144619,6,0,P|99:363|143:371,1,80.0000005960464
141,343,144994,1,0,0:0:0:0:
141,343,145119,6,0,P|183:364|227:356,1,80.0000005960464
256,288,145619,6,0,B|265:248|265:248|248:172|248:172|272:206|272:206|299:197|326:204|344:225|344:225|345:197|356:171|375:153,1,320.000002384186
465,173,146869,5,0,0:0:0:0:
492,225,147119,2,0,B|499:235|499:235|432:222,1,80.0000005960464
344,225,147619,2,0,P|352:186|375:153,2,80.0000005960464
297,150,148369,1,0,0:0:0:0:
210,170,148619,6,0,P|231:136|238:97,1,80.0000005960464
195,6,149119,2,0,P|230:1|215:24,1,80.0000005960464
192,34,149494,1,0,0:0:0:0:
192,34,149619,6,0,L|181:137,1,80.0000005960464
200,120,149994,1,0,0:0:0:0:
200,120,150119,6,0,L|203:147,2,20.0000001490116
216,126,150369,2,0,L|261:130,1,40.0000002980232
269,137,150619,6,0,B|340:129|340:129|326:141,1,80.0000005960464
252,75,151119,2,0,B|181:67|181:67|195:79,1,80.0000005960464
145,22,151619,6,0,L|68:-1,1,80.0000005960464
38,61,152119,2,0,B|47:100|47:100|38:61,1,80.0000005960464
3,2,152619,6,0,B|-9:29|8:60|38:61|38:61|62:61|66:24|42:20|42:20|48:22|55:22|61:21,1,160.000001192093
142,38,153369,2,0,L|168:35,2,20.0000001490116
122,40,153619,5,0,0:0:0:0:
99,100,153869,2,0,L|102:126,3,20.0000001490116
115,121,154119,6,0,B|108:184|108:184|92:210,1,80.0000005960464
79,208,154494,1,0,0:0:0:0:
79,208,154619,6,0,B|27:204,1,40.0000002980232
98,220,154869,2,0,B|120:266,1,40.0000002980232
156,260,155119,6,0,B|116:256|116:256|93:289,1,80.0000005960464
41,255,155619,6,0,L|65:253,1,20.0000001490116
21,257,155869,1,0,0:0:0:0:
67,333,156119,6,0,P|110:338|135:318,1,40.0000002980232
141,308,156369,2,0,P|184:313|209:293,1,40.0000002980232
215,283,156619,6,0,B|240:298|270:291|283:265|283:265|276:276|271:288|270:304,1,120.00000089407
270,320,157119,6,0,P|283:354|294:368,2,40.0000002980232
394,372,157619,2,0,P|416:343|423:327,2,40.0000002980232
338,233,158119,6,0,P|373:237|412:267,1,80.0000005960464
334,338,158619,6,0,P|341:279|368:333,1,160.000001192093
347,311,159369,5,0,0:0:0:0:
341,325,159619,6,0,P|344:295|357:322,1,80.0000005960464
344,318,160119,6,0,P|345:302|352:316,2,40.0000002980232
